osu file format v14

[General]
AudioFilename: NegaPosi Continues.mp3
AudioLeadIn: 0
PreviewTime: 39730
Countdown: 0
SampleSet: Normal
StackLeniency: 0.6
Mode: 0
LetterboxInBreaks: 0
WidescreenStoryboard: 1

[Editor]
DistanceSpacing: 1.2
BeatDivisor: 4
GridSize: 8
TimelineZoom: 2.5

[Metadata]
Title:NegaPosi*Continues
TitleUnicode:NegaPosi*Continues
Artist:Sasakure.UK
ArtistUnicode:Sasakure.UK
Creator:Handryan Bros
Version:Hard
Source:Vocaloid
Tags:hatsune miku negative positive
BeatmapID:685792
BeatmapSetID:292788

[Difficulty]
HPDrainRate:5
CircleSize:4
OverallDifficulty:7
ApproachRate:7
SliderMultiplier:1.3
SliderTickRate:1

[Events]
//Background and Video events
0,0,"BG.png",0,0
Video,0,"PV.avi"
//Break Periods
2,67816,73671
2,134815,138988
//Storyboard Layer 0 (Background)
//Storyboard Layer 1 (Fail)
//Storyboard Layer 2 (Pass)
//Storyboard Layer 3 (Foreground)
//Storyboard Sound Samples

[TimingPoints]
3799,272.727272727273,4,1,1,50,1,0
8162,-133.333333333333,4,1,1,50,0,0
10344,-100,4,1,1,50,0,0
12526,-100,4,1,2,25,0,0
13617,-100,4,1,3,25,0,0
20162,-100,4,2,1,25,0,0
22344,-100,4,1,3,50,0,0
31071,-133.333333333333,4,2,1,50,0,0
35435,-100,4,1,3,50,0,0
39253,-100,4,3,1,50,0,0
39799,-100,4,1,4,50,0,1
59162,272.727272727273,4,1,3,50,1,0
67889,-100,4,2,1,50,0,0
74434,-100,4,1,3,50,0,0
83162,-133.333333333333,4,2,1,50,0,0
87525,-100,4,1,3,50,0,0
91343,-100,4,3,1,50,0,0
91889,-100,4,1,4,50,0,1
111252,272.727272727273,4,2,1,50,1,0
121888,272.727272727273,4,2,1,50,1,0
126251,-100,4,2,1,50,0,0
129524,-100,4,3,2,50,0,0
130615,-100,4,2,1,50,0,0
140433,-100,4,2,2,50,0,1
140706,-100,4,2,2,50,0,0
149160,-100,4,2,2,50,0,1
149433,-100,4,2,2,50,0,0
155706,-100,4,1,6,50,0,0
157888,-100,4,1,4,50,0,1
182160,-100,4,1,4,50,0,0

[Colours]
Combo1 : 255,0,128
Combo2 : 255,0,0
Combo3 : 18,124,255
Combo4 : 0,255,0

[HitObjects]
232,176,8162,6,0,P|216:232|280:312,1,146.250005578995,4|0,0:0|0:0,0:0:0:0:
336,328,8708,2,0,P|392:313|429:218,1,146.250005578995,4|2,0:0|0:0,0:0:0:0:
416,160,9253,2,0,P|375:118|274:133,1,146.250005578995,4|0,0:0|0:0,0:0:0:0:
224,176,9799,2,0,P|153:183|100:136,1,146.250005578995,4|2,0:0|0:0,0:0:0:0:
80,64,10344,5,4,0:0:0:0:
120,256,10617,2,0,L|56:272,2,65,0|2|4,0:0|0:0|0:0,0:0:0:0:
304,200,11162,2,0,L|368:216,2,65,0|2|4,0:0|0:0|0:0,0:0:0:0:
96,184,11708,2,0,L|32:200,2,65,2|0|4,0:0|0:0|0:0,0:0:0:0:
336,128,12253,2,0,L|400:144,1,65,0|2,0:0|0:0,0:0:0:0:
256,96,12662,6,0,L|256:168,3,65,8|8|8|8,0:0|0:0|0:0|0:0,0:0:0:0:
256,184,13208,1,8,0:0:0:0:
256,200,13344,1,8,0:0:0:0:
256,216,13480,1,8,0:0:0:0:
136,112,13753,6,0,P|88:104|56:112,1,65,0|8,0:0|0:0,0:0:0:0:
96,184,14026,2,0,P|96:240|152:304,1,130
216,320,14435,1,8,0:0:0:0:
288,296,14571,2,0,P|352:280|424:320,1,130
472,352,14980,1,8,0:0:0:0:
424,200,15253,2,0,B|376:144|400:88|400:88|352:24,1,195
280,136,15935,6,0,B|224:144|224:144|216:184|176:200,1,130
144,128,16344,1,0,0:0:0:0:
80,88,16480,2,0,L|8:80,2,65,0|8|0,0:0|0:0|0:0,0:0:0:0:
192,200,17026,1,0,0:0:0:0:
168,272,17162,2,0,P|120:296|40:288,2,130,8|0|8,0:0|0:0|0:0,0:0:0:0:
248,280,17844,1,0,0:0:0:0:
400,320,18117,5,0,0:0:0:0:
440,248,18253,2,0,B|464:152|464:152|448:56,1,195,8|0,0:0|0:0,0:0:0:0:
360,216,18935,2,0,B|376:152|376:152|368:88,1,130
296,152,19344,1,8,0:0:0:0:
168,72,19617,2,0,B|128:96|128:96|96:136|112:184,1,130,0|8,0:0|0:0,0:0:0:0:
64,320,20162,6,0,P|24:336|-16:336,2,65
112,256,20571,2,0,P|152:240|192:240,2,65
160,320,20980,2,0,P|216:312|256:248,1,130
248,176,21389,6,0,L|272:96,1,65
312,48,21662,1,0,0:0:0:0:
360,112,21799,2,0,B|408:160|408:160|480:152|504:232,1,195
376,320,22480,6,0,P|328:344|304:344,1,65,0|8,0:0|0:0,0:0:0:0:
320,264,22753,2,0,L|184:240,1,130
112,224,23162,1,8,0:0:0:0:
64,288,23299,2,0,P|32:240|56:168,1,130
112,128,23708,1,8,0:0:0:0:
248,48,23980,2,0,P|296:72|352:64,2,97.5
400,8,24662,6,0,P|424:64|392:128,1,130
320,152,25071,2,0,P|293:209|317:268,1,130,0|8,0:0|0:0,0:0:0:0:
376,320,25480,1,0,0:0:0:0:
304,344,25617,2,0,B|240:352|240:352|176:336,1,130,0|8,0:0|0:0,0:0:0:0:
24,240,26162,2,0,B|88:232|88:232|152:248,1,130,0|8,0:0|0:0,0:0:0:0:
224,272,26571,1,0,0:0:0:0:
368,224,26844,6,0,L|448:208,2,65,0|8|0,0:0|0:0|0:0,0:0:0:0:
216,176,27389,2,0,L|136:160,2,65,0|8|0,0:0|0:0|0:0,0:0:0:0:
368,152,27935,1,0,0:0:0:0:
336,80,28071,2,0,P|312:40|224:16,1,130,8|0,0:0|0:0,0:0:0:0:
168,48,28480,2,0,L|104:104,1,65
104,248,28889,6,0,B|96:280|96:280|72:320,2,65,2|0|8,0:0|0:0|0:0,0:0:0:0:
160,192,29299,2,0,B|168:160|168:160|192:120,2,65,2|0|8,0:0|0:0|0:0,0:0:0:0:
200,264,29708,2,0,P|264:288|328:272,1,130,2|2,0:0|0:0,0:0:0:0:
440,176,30253,1,2,0:0:0:0:
320,72,30526,2,0,P|256:48|192:64,1,130,2|2,0:0|0:0,0:0:0:0:
160,192,31071,1,4,0:0:0:0:
224,352,31480,6,0,B|192:360|160:360,2,48.750001859665,0|2|0,0:0|0:0|0:0,0:0:0:0:
272,312,31889,1,2,0:0:0:0:
320,272,32026,2,0,P|376:256|424:272,1,97.50000371933
488,296,32435,1,2,0:0:0:0:
335,346,32708,1,2,0:0:0:0:
288,201,32980,1,2,0:0:0:0:
441,152,33253,6,0,B|424:80|424:80|356:32,2,146.250005578995,4|0|2,0:0|0:0|0:0,0:0:0:0:
328,136,34344,2,0,P|283:119|238:137,1,97.50000371933,0|2,0:0|0:0,0:0:0:0:
200,184,34753,2,0,P|192:240|216:280,1,97.50000371933,0|2,0:0|0:0,0:0:0:0:
256,312,35162,1,6,0:0:0:0:
448,64,35708,5,4,0:0:0:0:
408,216,35980,2,0,P|408:264|416:288,2,65
360,152,36389,2,0,P|312:112|232:112,1,130
216,184,36799,2,0,L|232:328,2,130
72,120,37617,5,2,0:0:0:0:
216,72,37889,1,2,0:0:0:0:
104,192,38162,1,2,0:0:0:0:
160,248,38299,2,0,L|152:312,2,65,2|8|2,0:0|0:0|0:0,0:0:0:0:
232,272,38708,1,2,0:0:0:0:
384,296,38980,1,2,0:0:0:0:
328,144,39253,2,0,L|320:96,2,32.5,12|0|0,0:0|0:0|0:0,0:0:0:0:
256,176,39526,2,0,L|248:128,2,32.5,12|0|0,0:0|0:0|0:0,0:0:0:0:
56,120,39799,5,0,0:0:0:0:
88,288,40071,1,0,0:0:0:0:
248,240,40344,2,0,P|312:224|376:240,1,130
456,232,40753,2,0,P|496:184|496:104,1,130
472,48,41162,1,0,0:0:0:0:
288,40,41435,2,0,L|216:64,1,65
160,120,41708,2,0,P|152:152|128:176,1,65
136,256,41980,6,0,L|272:296,1,130
424,240,42526,1,0,0:0:0:0:
368,80,42799,1,0,0:0:0:0:
304,136,42935,2,0,P|240:144|176:120,1,130
104,88,43344,2,0,P|120:61|160:48,1,65
72,160,43617,2,0,P|56:187|16:200,2,65
208,192,44162,5,0,0:0:0:0:
208,192,44435,1,0,0:0:0:0:
208,192,44708,1,0,0:0:0:0:
240,360,44980,1,0,0:0:0:0:
296,296,45117,2,0,B|352:280|352:280|448:288,1,130
488,336,45526,1,0,0:0:0:0:
448,176,45799,1,0,0:0:0:0:
336,56,46071,5,0,0:0:0:0:
168,32,46344,2,0,P|144:96|176:152,1,130
248,184,46753,1,0,0:0:0:0:
368,304,47026,1,0,0:0:0:0:
296,264,47162,2,0,P|240:256|176:296,1,130
144,368,47571,1,0,0:0:0:0:
48,232,47844,1,0,0:0:0:0:
48,232,47980,2,0,L|32:88,1,130
200,112,48526,6,0,P|240:72|320:72,1,130
456,152,49071,6,0,L|400:208,1,65
456,320,49344,2,0,L|400:264,1,65
248,320,49753,6,0,B|184:320|184:320|144:264,1,130
96,200,50162,6,0,B|112:168|112:168|152:144|152:144|200:152,1,130
272,200,50571,1,0,0:0:0:0:
360,216,50708,6,0,P|392:176|384:88,2,130
232,328,51526,1,0,0:0:0:0:
152,304,51662,2,0,B|104:272|104:272|104:184,1,130
48,136,52071,2,0,P|96:112|168:144,2,130
8,304,52889,5,0,0:0:0:0:
176,272,53162,2,0,L|232:232,1,65
288,176,53435,1,0,0:0:0:0:
152,80,53708,1,0,0:0:0:0:
232,48,53844,2,0,L|368:72,1,130
408,136,54253,2,0,L|480:152,2,65
336,288,54799,6,0,L|344:360,2,65
256,320,55208,2,0,L|210:376,2,65
176,288,55617,2,0,L|104:296,2,65
136,216,56026,2,0,L|79:170,2,65
168,136,56435,2,0,L|160:64,2,65
240,96,56844,2,0,L|285:39,2,65
320,120,57253,2,0,L|392:112,1,65
448,168,57526,6,0,L|520:160,1,65
488,240,57799,2,0,L|423:247,1,65
264,296,58208,1,0,0:0:0:0:
128,200,58480,1,0,0:0:0:0:
200,344,58753,2,0,B|168:296|176:232|256:232|192:136,1,195
152,96,59298,6,0,L|88:88,2,65
224,56,59707,2,0,P|272:48|344:88,1,130
376,160,60116,1,0,0:0:0:0:
400,328,60389,2,0,L|464:344,2,65
328,288,60798,2,0,P|264:304|208:272,1,130
128,264,61207,1,0,0:0:0:0:
80,104,61480,6,0,P|72:72|56:40,2,65
160,120,61889,2,0,P|232:136|288:104,1,130
312,32,62298,1,0,0:0:0:0:
456,128,62571,2,0,B|464:192|464:192|440:256,1,130
360,264,62980,2,0,P|296:248|240:280,1,130
200,352,63389,1,0,0:0:0:0:
80,256,63662,5,0,0:0:0:0:
144,208,63798,2,0,P|158:147|123:95,2,130
80,160,64480,1,0,0:0:0:0:
208,72,64752,1,0,0:0:0:0:
280,112,64889,2,0,B|328:128|368:112|392:56,2,130
312,40,65571,1,0,0:0:0:0:
448,120,65707,6,0,L|464:256,1,130
392,384,66116,2,0,L|376:248,1,130
368,168,66525,1,0,0:0:0:0:
368,168,67071,6,0,B|320:160|320:160|280:144|280:144|232:136,2,130
104,232,74571,6,0,P|72:224|32:232,2,65
168,288,74980,1,0,0:0:0:0:
232,344,75116,2,0,P|264:352|304:344,2,65
152,192,75662,2,0,B|152:128|152:128|184:64,1,130
232,136,76071,2,0,B|266:82|266:82|328:46,1,130
408,48,76480,1,0,0:0:0:0:
352,208,76752,6,0,B|344:280,1,65
336,360,77025,1,0,0:0:0:0:
472,264,77298,2,0,B|480:192,1,65
488,112,77571,1,0,0:0:0:0:
320,136,77843,1,0,0:0:0:0:
248,88,77980,2,0,P|200:72|128:104,1,130
56,136,78389,2,0,P|48:184|80:256,1,130
240,320,78934,6,0,P|312:336|360:280,1,130
280,200,79343,2,0,L|288:264,2,65
256,120,79752,1,0,0:0:0:0:
408,40,80025,2,0,P|456:40|488:64,2,65
432,120,80434,2,0,P|432:168|408:200,2,65
352,144,80843,1,0,0:0:0:0:
272,176,80980,6,0,P|256:232|296:296,1,130
224,344,81389,2,0,B|152:328|152:328|96:336,1,130
48,264,81798,2,0,L|40:128,1,130
184,40,82343,1,0,0:0:0:0:
312,152,82616,2,0,P|355:198|419:204,1,130
480,96,83162,5,0,0:0:0:0:
472,344,83571,2,0,L|416:336,1,48.750001859665
352,296,83843,2,0,L|296:288,1,48.750001859665
224,320,84116,2,0,P|168:336|120:312,1,97.50000371933
176,256,84525,2,0,B|200:216|200:216|248:192,2,97.50000371933
40,160,85343,6,0,B|56:88|56:88|104:32,2,146.250005578995
144,288,86434,2,0,L|152:352,2,48.750001859665
176,216,86843,2,0,P|232:200|280:216,1,97.50000371933
336,264,87252,1,0,0:0:0:0:
368,48,87798,5,0,0:0:0:0:
200,88,88071,1,0,0:0:0:0:
152,160,88207,2,0,B|152:224|152:224|184:288,1,130
256,320,88616,1,0,0:0:0:0:
424,312,88889,2,0,P|456:264|440:192,1,130
312,96,89434,1,0,0:0:0:0:
160,120,89707,5,2,0:0:0:0:
64,240,89980,1,2,0:0:0:0:
144,376,90252,1,2,0:0:0:0:
200,328,90389,2,0,L|208:264,2,65,2|8|2,0:0|0:0|0:0,0:0:0:0:
272,216,90798,1,2,0:0:0:0:
416,272,91071,1,2,0:0:0:0:
336,136,91343,2,0,L|328:88,2,32.5,12|0|0,0:0|0:0|0:0,0:0:0:0:
416,160,91616,2,0,L|408:112,2,32.5,12|0|0,0:0|0:0|0:0,0:0:0:0:
496,184,91889,5,0,0:0:0:0:
344,248,92162,1,0,0:0:0:0:
232,360,92434,1,0,0:0:0:0:
280,208,92707,1,0,0:0:0:0:
224,152,92843,2,0,P|160:160|96:112,1,130
16,152,93252,2,0,L|40:88,1,65
104,48,93525,1,0,0:0:0:0:
112,272,93798,5,0,0:0:0:0:
112,272,93934,1,0,0:0:0:0:
112,272,94071,2,0,P|160:288|240:272,1,130
272,112,94616,2,0,P|328:96|416:120,1,130
456,176,95025,2,0,B|464:248|464:248|424:304,1,130
360,344,95434,1,0,0:0:0:0:
280,328,95571,2,0,L|208:312,1,65
144,160,95980,6,0,L|216:176,1,65
288,200,96252,1,0,0:0:0:0:
368,48,96525,1,0,0:0:0:0:
472,184,96798,2,0,P|456:248|400:288,1,130
320,288,97207,1,0,0:0:0:0:
152,256,97480,1,0,0:0:0:0:
112,184,97616,2,0,L|96:120,2,65
248,288,98162,22,0,L|312:288,1,65
344,208,98434,2,0,P|320:160|344:80,1,130
408,40,98843,1,0,0:0:0:0:
448,200,99116,1,0,0:0:0:0:
424,280,99252,2,0,P|384:304|288:296,1,130
256,232,99662,2,0,P|208:208|128:216,1,130
80,280,100071,1,0,0:0:0:0:
24,120,100343,1,0,0:0:0:0:
184,64,100616,37,0,0:0:0:0:
248,216,100889,6,0,P|232:272|272:344,1,130
408,248,101434,5,0,0:0:0:0:
408,248,101571,2,0,B|392:184|392:184|416:120,1,130
440,64,101980,5,0,0:0:0:0:
440,64,102116,2,0,P|384:96|320:80,1,130
248,40,102525,1,0,0:0:0:0:
176,80,102662,1,0,0:0:0:0:
176,160,102798,5,0,0:0:0:0:
216,352,103071,1,0,0:0:0:0:
128,240,103343,2,0,L|80:192,2,65
192,280,103752,2,0,B|224:272|248:280|248:280|272:232|312:224,1,130
328,304,104162,2,0,L|392:328,1,65
392,240,104434,2,0,L|464:216,2,65
320,200,104843,1,0,0:0:0:0:
272,128,104980,5,0,0:0:0:0:
104,144,105252,1,0,0:0:0:0:
104,144,105389,1,0,0:0:0:0:
104,144,105525,2,0,B|88:216|88:216|63:238|48:272,1,130
128,288,105934,2,0,B|200:288|200:288|272:248,1,130
320,200,106343,2,0,L|384:192,2,65
96,120,106889,5,0,0:0:0:0:
96,120,107025,1,0,0:0:0:0:
96,120,107162,2,0,P|80:176|112:256,1,130
160,320,107571,2,0,P|208:328|288:296,1,130
384,280,107980,2,0,P|408:224|392:160,1,130
280,64,108389,2,0,P|264:120|304:200,1,130
192,280,108798,2,0,P|153:236|64:226,1,130
72,96,109207,2,0,P|129:87|186:18,1,130
208,136,109616,6,0,L|200:200,1,65
192,216,109889,2,0,L|184:280,1,65
336,352,110299,1,0,0:0:0:0:
432,208,110571,1,0,0:0:0:0:
424,360,110843,2,0,B|424:304|392:280|392:280|344:256,1,130
272,264,111252,6,0,P|224:272|144:248,1,130
64,224,111661,2,0,B|80:176|128:168|128:168|160:120,1,130
224,88,112070,2,0,P|280:104|352:80,1,130
424,88,112479,2,0,P|472:128|488:200,1,130
408,304,112888,2,0,L|360:360,1,65
328,264,113161,2,0,L|320:184,1,65
240,240,113433,6,0,P|176:216|112:248,1,130
72,304,113842,1,0,0:0:0:0:
304,336,114252,2,0,L|408:352,2,86.6666666666667
248,256,114797,2,0,P|232:208|264:136,1,130
335,81,115206,2,0,P|351:129|319:201,1,130
352,272,115615,1,0,0:0:0:0:
120,336,116024,5,0,0:0:0:0:
120,336,116433,2,0,B|160:296|160:256|160:256|136:192|168:152,1,195
368,40,117252,2,0,L|440:24,1,65
496,80,117524,2,0,L|456:144,1,65
432,216,117797,6,0,B|376:224|376:224|344:184|304:184,1,130
232,216,118206,1,0,0:0:0:0:
88,328,118479,1,0,0:0:0:0:
32,272,118615,1,0,0:0:0:0:
64,104,118888,1,0,0:0:0:0:
144,64,119024,1,0,0:0:0:0:
136,144,119297,5,0,0:0:0:0:
136,144,119570,1,0,0:0:0:0:
232,280,119842,2,0,P|272:280|304:264,1,65
336,184,120115,2,0,P|316:149|286:129,1,65
200,152,120388,2,0,P|180:186|177:222,1,65
256,208,120661,1,0,0:0:0:0:
368,256,120933,6,0,P|404:271|440:269,1,65
416,192,121206,2,0,P|454:180|480:155,1,65
384,120,121479,2,0,P|405:86|409:50,1,65
320,64,121752,1,0,0:0:0:0:
248,96,121888,6,0,B|216:64|160:72|136:112,1,130
160,216,122297,2,0,B|200:240|264:224|272:168,1,130
200,152,122842,2,0,L|240:280,1,130
264,352,123251,1,0,0:0:0:0:
416,312,123524,2,0,P|448:256|424:192,1,130
320,64,124069,1,0,0:0:0:0:
168,48,124342,2,0,L|176:120,1,65
96,104,124615,5,0,0:0:0:0:
98,183,124888,1,0,0:0:0:0:
161,232,125160,1,0,0:0:0:0:
161,232,125297,1,0,0:0:0:0:
304,288,125569,1,0,0:0:0:0:
416,176,125842,1,0,0:0:0:0:
344,40,126115,1,0,0:0:0:0:
288,96,126251,6,0,B|256:136|200:136|160:96,1,130
104,56,126660,2,0,B|136:16|192:16|232:56,1,130
288,96,127069,1,0,0:0:0:0:
320,264,127342,2,0,L|184:304,1,130
128,232,127751,2,0,L|252:195,1,130
336,176,128160,1,0,0:0:0:0:
448,112,128433,1,0,0:0:0:0:
336,248,128706,2,0,L|352:328,1,65
416,248,128978,5,0,0:0:0:0:
453,186,129251,1,0,0:0:0:0:
449,114,129524,1,0,0:0:0:0:
405,57,129797,1,0,0:0:0:0:
336,40,130069,2,0,L|328:80,2,32.5
264,56,130342,2,0,L|256:96,2,32.5
184,88,130615,5,0,0:0:0:0:
136,240,130888,1,0,0:0:0:0:
288,200,131160,2,0,L|264:272,1,65
376,184,131433,2,0,L|352:256,1,65
304,336,131706,2,0,P|272:344|192:296,1,130
104,168,132251,2,0,P|128:152|168:152,1,65
296,160,132524,2,0,P|272:176|232:176,1,65
352,104,132797,6,0,P|384:88|472:144,1,130
400,168,133206,2,0,L|424:296,1,130
440,376,133615,1,0,0:0:0:0:
304,296,133888,2,0,B|248:272|248:272|200:272|200:272|128:248,2,173.333333333333,8|8|8,0:0|0:0|0:0,0:0:0:0:
256,72,139888,6,0,L|256:144,1,65
256,168,140160,1,0,0:0:0:0:
256,192,140297,1,0,0:0:0:0:
256,208,140433,5,0,0:0:0:0:
136,320,140706,1,0,0:0:0:0:
40,192,140978,1,0,0:0:0:0:
160,96,141251,1,0,0:0:0:0:
232,136,141388,2,0,L|368:120,1,130
432,160,141797,1,0,0:0:0:0:
480,224,141933,2,0,L|488:288,1,65
336,328,142342,5,0,0:0:0:0:
336,328,142478,1,0,0:0:0:0:
336,328,142615,2,0,L|200:320,1,130
72,232,143160,2,0,L|208:240,1,130
256,184,143569,2,0,P|248:128|288:64,1,130
360,48,143978,2,0,L|400:112,1,65
472,104,144251,2,0,L|464:176,1,65
448,248,144524,1,0,0:0:0:0:
312,320,144797,5,0,0:0:0:0:
312,320,145069,1,0,0:0:0:0:
312,320,145342,1,0,0:0:0:0:
160,304,145615,1,0,0:0:0:0:
120,232,145751,2,0,B|128:160|128:160|168:104,1,130
232,80,146160,1,0,0:0:0:0:
304,40,146297,1,0,0:0:0:0:
304,40,146433,2,0,P|344:24|424:64,1,130
440,136,146842,5,0,0:0:0:0:
400,200,146978,2,0,P|360:216|280:176,1,130
208,176,147388,1,0,0:0:0:0:
88,80,147660,1,0,0:0:0:0:
160,48,147797,2,0,B|200:48|224:32|224:32|216:104,1,130
296,104,148206,2,0,L|280:240,1,130
272,312,148615,1,0,0:0:0:0:
424,272,148888,1,0,0:0:0:0:
192,312,149160,5,0,0:0:0:0:
136,248,149297,2,0,L|128:176,1,65
240,64,149706,1,0,0:0:0:0:
392,88,149978,1,0,0:0:0:0:
392,88,150115,2,0,B|400:160|400:160|376:216,1,130
352,288,150524,1,0,0:0:0:0:
280,328,150660,1,0,0:0:0:0:
192,312,150797,1,0,0:0:0:0:
80,192,151069,5,0,0:0:0:0:
80,192,151206,1,0,0:0:0:0:
80,192,151342,2,0,B|112:144|112:144|176:112,1,130
336,80,151888,2,0,B|304:128|304:128|240:160,1,130
168,208,152297,2,0,P|176:272|224:328,1,130
288,296,152706,1,0,0:0:0:0:
360,328,152842,2,0,L|424:312,1,65
480,152,153251,6,0,L|416:168,1,65
344,192,153524,1,0,0:0:0:0:
192,144,153797,1,0,0:0:0:0:
344,184,154069,1,0,0:0:0:0:
192,160,154342,1,0,0:0:0:0:
128,208,154478,2,0,P|120:272|136:336,1,130
216,352,154888,1,0,0:0:0:0:
216,352,155024,1,0,0:0:0:0:
280,304,155160,2,0,P|336:280|400:312,1,130
464,272,155569,6,0,L|448:200,1,65,0|8,0:0|0:0,0:0:0:0:
376,72,155978,2,0,L|392:144,1,65,2|8,0:0|0:0,0:0:0:0:
376,288,156388,2,0,L|360:216,1,65,2|8,0:0|0:0,0:0:0:0:
280,96,156797,2,0,L|296:168,1,65,2|8,0:0|0:0,0:0:0:0:
256,304,157206,1,2,0:0:0:0:
240,232,157342,1,8,0:0:0:0:
240,232,157615,1,8,0:0:0:0:
104,104,157888,6,0,L|160:64,1,65
192,144,158160,2,0,P|264:160|320:136,2,130
112,176,158842,2,0,P|128:216|120:304,1,130
64,368,159251,1,0,0:0:0:0:
32,200,159524,2,0,P|16:160|24:72,1,130
192,88,160069,6,0,L|328:72,1,130
488,80,160615,2,0,P|496:128|488:152,1,65
440,272,160888,2,0,P|432:224|440:200,1,65
384,328,161160,2,0,L|248:304,1,130
184,288,161569,1,0,0:0:0:0:
128,232,161706,2,0,L|112:160,1,65
160,72,161978,2,0,L|208:24,1,65
280,56,162251,5,0,0:0:0:0:
432,96,162524,1,0,0:0:0:0:
440,256,162797,1,0,0:0:0:0:
288,304,163069,1,0,0:0:0:0:
240,240,163206,2,0,B|216:192|216:192|168:176|160:136,1,130
200,56,163615,1,0,0:0:0:0:
200,56,163751,1,0,0:0:0:0:
200,56,163888,2,0,B|240:112|240:112|304:144,1,130
384,160,164297,1,0,0:0:0:0:
448,216,164433,6,0,B|432:278|432:278|392:340,1,130
352,260,164842,2,0,B|314:312|314:312|254:353,1,130
245,265,165251,2,0,B|190:299|190:299|117:314,1,130
161,231,165660,2,0,B|96:242|96:242|24:229,1,130
8,136,166069,1,0,0:0:0:0:
72,80,166206,6,0,L|64:32,2,32.5
152,96,166478,1,0,0:0:0:0:
200,160,166615,2,0,B|264:176|264:176|344:160,1,130
440,56,167160,2,0,B|376:40|376:40|296:56,1,130
264,120,167569,2,0,P|256:168|320:240,1,130
328,304,167978,2,0,L|400:312,1,65
464,360,168251,1,0,0:0:0:0:
512,296,168388,1,0,0:0:0:0:
512,216,168524,1,0,0:0:0:0:
304,136,168797,5,0,0:0:0:0:
448,200,169069,1,0,0:0:0:0:
288,136,169342,2,0,B|240:152|224:192|224:192|168:208,1,130
152,280,169751,1,0,0:0:0:0:
232,312,169888,2,0,B|288:296|288:296|328:320|368:320,1,130
432,272,170297,2,0,P|456:216|440:152,1,130
376,96,170706,1,0,0:0:0:0:
208,120,170978,5,0,0:0:0:0:
64,64,171251,1,0,0:0:0:0:
160,192,171524,1,0,0:0:0:0:
16,136,171797,1,0,0:0:0:0:
40,208,171933,2,0,P|64:272|120:312,1,130
192,304,172342,1,0,0:0:0:0:
192,304,172478,1,0,0:0:0:0:
264,336,172615,2,0,P|296:360|336:360,1,65
440,320,172888,2,0,P|456:296|464:256,1,65
456,144,173160,6,0,P|424:104|352:80,1,130
248,80,173569,2,0,P|200:104|168:176,1,130
104,240,173978,2,0,L|48:288,2,65
160,312,174388,2,0,L|155:385,2,65
232,264,174797,2,0,P|280:272|360:232,1,130
416,168,175206,2,0,P|432:112|408:40,1,130
320,40,175615,6,0,L|256:56,1,65
240,72,175888,2,0,L|176:88,1,65
64,216,176297,1,0,0:0:0:0:
216,296,176569,1,0,0:0:0:0:
40,296,176842,2,0,P|120:280|144:240,1,130
184,168,177251,6,0,L|240:128,1,65
264,136,177524,2,0,L|320:96,1,65
488,88,177933,1,0,0:0:0:0:
424,248,178206,1,0,0:0:0:0:
408,96,178478,2,0,B|424:160|424:160|472:168|488:192,1,130
480,272,178888,6,0,L|416:288,1,65
400,304,179160,2,0,L|336:320,1,65
168,312,179569,1,0,0:0:0:0:
88,160,179842,1,0,0:0:0:0:
64,328,180115,1,0,0:0:0:0:
64,328,180251,2,0,B|88:312|88:312|88:288|104:264,1,65
160,224,180524,6,0,L|184:160,1,65
184,256,180797,2,0,L|208:192,1,65
304,72,181206,1,0,0:0:0:0:
424,176,181478,1,0,0:0:0:0:
296,272,181751,1,0,0:0:0:0:
296,272,181888,2,0,B|272:288|272:288|248:296|248:296|224:312,1,65
176,344,182160,5,0,0:0:0:0:
256,192,182228,12,0,186524,0:0:0:0:
