osu file format v14

[General]
AudioFilename: NegaPosi Continues.mp3
AudioLeadIn: 0
PreviewTime: 39730
Countdown: 0
SampleSet: Normal
StackLeniency: 0.6
Mode: 0
LetterboxInBreaks: 0
WidescreenStoryboard: 1

[Editor]
DistanceSpacing: 1.1
BeatDivisor: 4
GridSize: 8
TimelineZoom: 2.5

[Metadata]
Title:NegaPosi*Continues
TitleUnicode:NegaPosi*Continues
Artist:Sasakure.UK
ArtistUnicode:Sasakure.UK
Creator:Handryan Bros
Version:Bros
Source:Vocaloid
Tags:hatsune miku negative positive
BeatmapID:667723
BeatmapSetID:292788

[Difficulty]
HPDrainRate:6
CircleSize:4
OverallDifficulty:8
ApproachRate:9
SliderMultiplier:1.7
SliderTickRate:1

[Events]
//Background and Video events
0,0,"BG.png",0,0
Video,0,"PV.avi"
//Break Periods
2,134815,139288
//Storyboard Layer 0 (Background)
//Storyboard Layer 1 (Fail)
//Storyboard Layer 2 (Pass)
//Storyboard Layer 3 (Foreground)
//Storyboard Sound Samples

[TimingPoints]
3799,272.727272727273,4,2,0,50,1,0
8162,-200,4,1,1,50,0,0
9253,-166.666666666667,4,1,1,50,0,0
10344,-100,4,1,1,50,0,0
12526,-100,4,1,2,25,0,0
13617,-100,4,1,3,25,0,0
20162,-100,4,2,1,25,0,0
22344,-100,4,1,3,50,0,0
31071,-133.333333333333,4,2,1,50,0,0
35435,-100,4,1,3,50,0,0
39253,-100,4,3,1,50,0,0
39799,-100,4,1,4,50,0,1
59162,272.727272727273,4,1,3,50,1,0
67889,-200,4,2,1,50,0,0
73343,-200,4,1,5,50,0,0
74502,-100,4,1,3,50,0,0
83162,-133.333333333333,4,2,1,50,0,0
87525,-100,4,1,3,50,0,0
91343,-100,4,3,1,50,0,0
91889,-100,4,1,4,50,0,1
111252,272.727272727273,4,2,1,50,1,0
121888,272.727272727273,4,2,1,50,1,0
124478,-133.333333333333,4,2,1,50,0,0
126251,-100,4,2,1,50,0,0
128706,-200,4,2,1,50,0,0
129524,-100,4,3,2,50,0,0
130615,-100,4,2,1,50,0,0
140433,-100,4,2,2,25,0,1
140706,-100,4,2,2,25,0,0
149160,-100,4,2,2,25,0,1
149433,-100,4,2,2,25,0,0
155706,-100,4,1,6,50,0,0
157888,-100,4,1,4,50,0,1
182160,-100,4,1,3,50,0,0

[Colours]
Combo1 : 255,0,128
Combo2 : 255,0,0
Combo3 : 18,124,255
Combo4 : 0,255,0

[HitObjects]
48,32,8162,6,0,L|40:168,1,127.5,4|2,0:0|0:0,0:0:0:0:
128,72,8708,2,0,L|120:200,1,127.5,4|0,0:0|0:0,0:0:0:0:
208,112,9253,2,0,L|200:264,1,152.999995330811,4|2,0:0|0:0,0:0:0:0:
288,152,9799,2,0,L|280:304,1,152.999995330811,4|0,0:0|0:0,0:0:0:0:
352,360,10344,6,0,P|392:360|432:320,1,85,4|0,0:0|0:0,0:0:0:0:
456,208,10617,2,0,L|424:168,1,42.5
344,200,10753,2,0,L|376:240,1,42.5,0|2,0:0|0:0,0:0:0:0:
368,120,10889,2,0,P|368:72|344:40,1,85,4|0,0:0|0:0,0:0:0:0:
224,80,11162,2,0,L|168:96,1,42.5
208,168,11299,2,0,L|152:184,1,42.5,0|2,0:0|0:0,0:0:0:0:
288,152,11435,2,0,P|280:208|248:240,1,85,4|0,0:0|0:0,0:0:0:0:
184,304,11708,2,0,L|128:320,1,42.5
32,296,11844,2,0,L|88:280,1,42.5,0|2,0:0|0:0,0:0:0:0:
56,208,11980,2,0,P|40:168|56:112,1,85,4|0,0:0|0:0,0:0:0:0:
120,80,12253,2,0,L|128:32,2,42.5,0|0|2,0:0|0:0|0:0,0:0:0:0:
216,168,12662,6,0,P|256:152|296:168,3,85,8|8|8|8,0:0|0:0|0:0|0:0,0:0:0:0:
256,232,13208,1,8,0:0:0:0:
256,272,13344,1,8,0:0:0:0:
256,312,13480,1,8,0:0:0:0:
432,280,13753,6,0,P|448:240|448:192,1,85,0|8,0:0|0:0,0:0:0:0:
416,112,14026,1,0,0:0:0:0:
240,40,14299,2,0,P|232:72|248:120,1,85,0|8,0:0|0:0,0:0:0:0:
312,184,14571,1,0,0:0:0:0:
184,320,14844,5,0,0:0:0:0:
104,272,14980,2,0,L|72:192,1,85,8|0,0:0|0:0,0:0:0:0:
80,96,15253,2,0,L|152:32,1,85
240,40,15526,1,8,0:0:0:0:
328,80,15662,2,0,L|352:208,1,127.5
368,224,15935,6,0,B|368:296|312:303|312:303|288:280|248:272,1,170
184,320,16344,1,0,0:0:0:0:
184,320,16480,2,0,P|136:328|96:320,1,85,0|8,0:0|0:0,0:0:0:0:
32,256,16753,1,0,0:0:0:0:
96,80,17026,1,0,0:0:0:0:
96,80,17162,2,0,B|112:128|112:128|144:160|144:160|160:232,1,170,8|0,0:0|0:0,0:0:0:0:
232,56,17708,1,8,0:0:0:0:
232,56,17844,1,0,0:0:0:0:
416,72,18117,5,0,0:0:0:0:
328,136,18253,2,0,B|344:224|344:224|392:256|384:296,1,170,8|0,0:0|0:0,0:0:0:0:
300,337,18662,2,0,P|369:383|448:360,1,170
447,360,19208,1,0,0:0:0:0:
480,272,19344,1,8,0:0:0:0:
440,192,19480,1,0,0:0:0:0:
352,160,19617,2,0,P|304:184|200:136,1,170,0|8,0:0|0:0,0:0:0:0:
144,72,20026,1,0,0:0:0:0:
80,136,20162,5,0,0:0:0:0:
72,232,20299,2,0,L|80:320,1,85,0|2,0:0|0:0,0:0:0:0:
168,288,20571,2,0,B|208:312|248:304|248:304|272:256|312:248,1,170,0|2,0:0|0:0,0:0:0:0:
336,328,20980,2,0,B|374:320|398:272|398:272|392:216|448:160,1,170,0|2,0:0|0:0,0:0:0:0:
400,56,21389,5,2,0:0:0:0:
400,56,21526,2,0,P|360:88|304:80,1,85,2|0,0:0|0:0,0:0:0:0:
328,8,21799,1,2,0:0:0:0:
248,48,21935,1,0,0:0:0:0:
168,96,22071,2,0,P|148:130|152:176,1,85,2|2,0:0|0:0,0:0:0:0:
224,232,22344,5,4,0:0:0:0:
312,256,22480,1,0,0:0:0:0:
400,280,22617,2,0,L|488:272,1,85,8|0,0:0|0:0,0:0:0:0:
392,104,23026,1,0,0:0:0:0:
304,80,23163,2,0,L|216:88,1,85,8|0,0:0|0:0,0:0:0:0:
48,152,23571,5,0,0:0:0:0:
32,248,23708,2,0,P|32:296|48:328,1,85,8|0,0:0|0:0,0:0:0:0:
136,312,23980,2,0,P|136:264|120:232,1,85
152,144,24253,1,8,0:0:0:0:
224,200,24389,2,0,L|352:216,1,127.5
376,208,24662,5,0,0:0:0:0:
416,120,24799,2,0,L|312:104,1,85,8|0,0:0|0:0,0:0:0:0:
240,96,25071,1,0,0:0:0:0:
176,24,25208,2,0,P|144:80|184:176,1,170
328,224,25617,1,0,0:0:0:0:
328,224,25753,2,0,B|264:216|264:216|232:272|160:264,1,170
184,176,26162,2,0,P|136:160|112:136,1,85
184,88,26435,2,0,P|168:48|176:0,1,85,8|0,0:0|0:0,0:0:0:0:
256,56,26708,1,0,0:0:0:0:
328,24,26844,5,0,0:0:0:0:
384,88,26980,2,0,P|400:128|392:176,1,85,8|0,0:0|0:0,0:0:0:0:
264,304,27389,1,0,0:0:0:0:
176,336,27526,2,0,P|136:344|88:328,1,85,8|0,0:0|0:0,0:0:0:0:
32,136,27935,2,0,P|72:120|120:128,1,85,0|8,0:0|0:0,0:0:0:0:
208,112,28208,1,0,0:0:0:0:
296,152,28344,2,0,B|336:160|336:160|384:152,1,85
448,96,28617,1,8,0:0:0:0:
336,248,28889,6,0,P|256:256|200:192,1,170,2|8,0:0|0:0,0:0:0:0:
120,144,29299,2,0,L|32:168,1,85,2|0,0:0|0:0,0:0:0:0:
184,72,29571,1,8,0:0:0:0:
184,72,29708,2,0,L|272:48,1,85,2|0,0:0|0:0,0:0:0:0:
256,144,29980,6,0,P|248:192|264:240,1,85,2|0,0:0|0:0,0:0:0:0:
352,264,30253,2,0,P|360:216|344:168,1,85,2|0,0:0|0:0,0:0:0:0:
232,128,30526,2,0,P|224:176|240:224,1,85,2|0,0:0|0:0,0:0:0:0:
376,280,30799,2,0,P|384:232|368:184,1,85,2|0,0:0|0:0,0:0:0:0:
328,128,31071,21,4,0:0:0:0:
128,80,31480,1,0,0:0:0:0:
80,31,31617,1,2,0:0:0:0:
20,64,31753,1,0,0:0:0:0:
30,127,31889,1,2,0:0:0:0:
98,141,32026,2,0,P|94:178|120:264,1,127.500004863739
176,304,32435,6,0,L|248:296,1,63.7500024318696,2|0,0:0|0:0,0:0:0:0:
272,168,32708,2,0,L|280:232,1,63.7500024318696,2|0,0:0|0:0,0:0:0:0:
208,120,32980,2,0,L|136:128,1,63.7500024318696,2|0,0:0|0:0,0:0:0:0:
104,256,33253,2,0,P|89:180|32:64,2,191.250007295609,6|0|2,0:0|0:0|0:0,0:0:0:0:
224,320,34344,5,8,0:0:0:0:
240,184,34617,1,0,0:0:0:0:
296,232,34753,2,0,P|344:248|416:224,1,127.500004863739,8|0,0:0|0:0,0:0:0:0:
448,160,35162,1,12,0:0:0:0:
464,56,35708,5,12,0:0:0:0:
296,136,35980,2,0,L|312:224,1,85,2|2,0:0|0:0,0:0:0:0:
320,312,36253,1,8,0:0:0:0:
240,264,36389,2,0,P|184:240|96:304,1,170,2|0,0:0|0:0,0:0:0:0:
184,336,36799,2,0,L|139:171,1,170,8|2,0:0|0:0,0:0:0:0:
184,336,37344,1,8,0:0:0:0:
360,296,37617,6,0,P|400:296|448:272,1,85,6|0,0:0|0:0,0:0:0:0:
416,192,37889,2,0,P|368:192|328:216,1,85,2|0,0:0|0:0,0:0:0:0:
280,272,38162,2,0,P|241:290|199:288,1,85,2|0,0:0|0:0,0:0:0:0:
176,200,38435,2,0,P|214:181|256:183,1,85,2|0,0:0|0:0,0:0:0:0:
328,120,38708,1,6,0:0:0:0:
392,64,38844,1,0,0:0:0:0:
248,96,38980,1,2,0:0:0:0:
280,8,39117,1,0,0:0:0:0:
168,48,39253,5,12,0:0:0:0:
134,51,39321,1,0,0:0:0:0:
103,64,39389,1,0,0:0:0:0:
78,87,39458,1,0,0:0:0:0:
62,117,39526,1,12,0:0:0:0:
56,150,39594,1,0,0:0:0:0:
61,184,39662,1,0,0:0:0:0:
76,214,39730,1,0,0:0:0:0:
128,272,39799,6,0,P|168:288|224:280,1,85
304,240,40071,2,0,L|392:248,1,85,8|0,0:0|0:0,0:0:0:0:
480,224,40344,2,0,B|472:184|432:160|432:160|336:152,1,170,0|8,0:0|0:0,0:0:0:0:
112,24,40753,2,0,B|120:64|160:88|160:88|256:96,1,170
336,40,41162,1,8,0:0:0:0:
392,128,41299,1,0,0:0:0:0:
336,208,41435,2,0,B|320:288|320:288|344:376,1,170,0|8,0:0|0:0,0:0:0:0:
448,360,41844,1,0,0:0:0:0:
464,256,41980,6,0,L|472:168,1,85
416,88,42253,2,0,L|360:16,1,85,8|0,0:0|0:0,0:0:0:0:
328,112,42526,2,0,P|256:144|176:104,1,170,0|8,0:0|0:0,0:0:0:0:
0,32,42935,2,0,P|72:0|152:40,1,170
72,104,43344,1,8,0:0:0:0:
56,208,43480,1,0,0:0:0:0:
160,200,43617,2,0,L|256:224,1,85
184,304,43889,2,0,L|248:376,1,85,8|0,0:0|0:0,0:0:0:0:
320,304,44162,6,0,P|320:224|336:136,2,170,0|8|0,0:0|0:0|0:0,0:0:0:0:
456,160,44844,1,0,0:0:0:0:
408,72,44980,1,8,0:0:0:0:
312,48,45117,2,0,B|280:48|256:72|256:72|200:72|184:0,1,170
32,88,45526,2,0,P|72:72|120:72,1,85,8|0,0:0|0:0,0:0:0:0:
208,248,45799,2,0,B|120:232|120:232|88:152,1,170,0|8,0:0|0:0,0:0:0:0:
184,112,46208,5,0,0:0:0:0:
272,160,46344,2,0,L|360:312,1,170,4|2,0:0|0:0,0:0:0:0:
320,176,46753,2,0,L|368:256,1,85,2|0,0:0|0:0,0:0:0:0:
424,336,47026,1,0,0:0:0:0:
320,328,47162,2,0,P|264:352|152:344,1,170,4|0,0:0|0:0,0:0:0:0:
280,312,47571,2,0,P|240:320|176:320,1,85,2|0,0:0|0:0,0:0:0:0:
104,288,47844,1,0,0:0:0:0:
80,192,47980,2,0,B|56:80|56:80|112:96,1,170,4|4,0:0|0:0,0:0:0:0:
136,104,48321,1,0,0:0:0:0:
168,112,48389,1,2,0:0:0:0:
200,120,48458,1,0,0:0:0:0:
232,128,48526,38,0,P|272:176|232:280,1,170,0|8,0:0|0:0,0:0:0:0:
48,328,49071,6,0,L|136:352,1,85
144,192,49344,2,0,L|168:280,1,85,8|0,0:0|0:0,0:0:0:0:
368,312,49753,6,0,B|408:240|408:240|368:160,1,170
296,112,50162,6,0,B|256:144|256:144|184:120|184:120|168:80,1,170,0|8,0:0|0:0,0:0:0:0:
256,40,50571,1,0,0:0:0:0:
256,40,50708,6,0,L|232:128,1,85
184,208,50980,2,0,L|216:296,1,85,8|0,0:0|0:0,0:0:0:0:
312,320,51253,2,0,P|368:328|432:240,1,170,0|8,0:0|0:0,0:0:0:0:
272,96,51662,2,0,B|284:135|284:135|311:161|320:200|320:200|352:256,2,170
112,24,52344,1,0,0:0:0:0:
192,56,52480,1,0,0:0:0:0:
80,160,52617,1,8,0:0:0:0:
168,136,52753,1,0,0:0:0:0:
152,224,52889,6,0,L|184:312,1,85
248,232,53162,2,0,L|280:144,1,85,8|0,0:0|0:0,0:0:0:0:
408,16,53435,2,0,B|336:88|336:88|296:56|240:72,1,170,0|8,0:0|0:0,0:0:0:0:
120,80,53844,2,0,B|192:56|192:56|184:88|208:120|208:120|200:152,1,170
152,224,54253,2,0,B|200:248|248:224,1,85,8|0,0:0|0:0,0:0:0:0:
312,168,54526,1,0,0:0:0:0:
392,304,54799,6,0,L|432:216,1,85,8|0,0:0|0:0,0:0:0:0:
464,144,55071,1,4,0:0:0:0:
400,80,55208,2,0,P|344:72|304:80,1,85,2|0,0:0|0:0,0:0:0:0:
240,136,55480,1,4,0:0:0:0:
112,216,55617,2,0,P|168:224|208:208,1,85,2|0,0:0|0:0,0:0:0:0:
280,256,55889,1,4,0:0:0:0:
360,296,56026,6,0,L|384:384,2,85,2|0|4,0:0|0:0|0:0,0:0:0:0:
400,208,56435,2,0,P|384:160|392:112,1,85,2|0,0:0|0:0,0:0:0:0:
336,48,56708,1,4,0:0:0:0:
248,80,56844,2,0,P|200:104|152:104,1,85,2|0,0:0|0:0,0:0:0:0:
80,80,57117,1,4,0:0:0:0:
80,80,57253,2,0,L|96:168,1,85,2|0,0:0|0:0,0:0:0:0:
152,240,57526,5,4,0:0:0:0:
272,328,57662,1,6,0:0:0:0:
120,312,57799,1,2,0:0:0:0:
256,248,57935,1,4,0:0:0:0:
456,200,58208,2,0,P|477:168|480:120,1,85,4|0,0:0|0:0,0:0:0:0:
424,40,58480,2,0,P|392:18|344:16,1,85,4|0,0:0|0:0,0:0:0:0:
360,120,58753,1,0,0:0:0:0:
360,120,58889,2,0,B|312:160|256:136|256:136|200:176,1,170,4|2,0:0|0:0,0:0:0:0:
88,216,59298,6,0,L|0:232,1,85,0|8,0:0|0:0,0:0:0:0:
136,144,59571,2,0,L|152:48,1,85,0|2,0:0|0:0,0:0:0:0:
168,240,59843,2,0,L|226:303,1,85,0|8,0:0|0:0,0:0:0:0:
184,368,60116,2,0,P|256:384|304:336,1,127.5,2|0,0:0|0:0,0:0:0:0:
312,328,60389,5,2,0:0:0:0:
384,264,60525,1,8,0:0:0:0:
416,168,60662,1,2,0:0:0:0:
360,80,60798,2,0,P|320:72|272:80,1,85,2|0,0:0|0:0,0:0:0:0:
208,128,61071,1,8,0:0:0:0:
48,120,61207,2,0,B|96:120|120:104|120:104|112:136|128:160,1,127.5
136,192,61480,5,2,0:0:0:0:
168,288,61616,1,8,0:0:0:0:
264,312,61752,1,0,0:0:0:0:
344,248,61889,2,0,P|400:224|432:224,1,85,2|0,0:0|0:0,0:0:0:0:
416,328,62162,1,8,0:0:0:0:
296,184,62298,2,0,P|360:152|416:144,1,127.5
448,152,62571,5,2,0:0:0:0:
464,48,62707,1,8,0:0:0:0:
368,72,62843,1,2,0:0:0:0:
280,24,62980,2,0,P|224:24|192:48,1,85,2|0,0:0|0:0,0:0:0:0:
144,112,63252,1,8,0:0:0:0:
288,232,63389,2,0,B|311:193|311:193|271:121,1,127.5
256,96,63662,5,2,0:0:0:0:
192,176,63798,1,8,0:0:0:0:
200,280,63934,1,0,0:0:0:0:
280,344,64071,2,0,P|336:352|376:320,1,85,2|0,0:0|0:0,0:0:0:0:
440,272,64343,1,8,0:0:0:0:
296,152,64480,2,0,B|272:192|272:232|312:272,1,127.5
336,288,64752,5,2,0:0:0:0:
400,208,64889,1,8,0:0:0:0:
392,104,65025,1,2,0:0:0:0:
304,48,65162,2,0,P|264:40|216:48,1,85,2|0,0:0|0:0,0:0:0:0:
136,104,65434,1,8,0:0:0:0:
128,120,65502,5,0,0:0:0:0:
120,136,65571,1,0,0:0:0:0:
112,152,65639,1,0,0:0:0:0:
104,168,65707,1,2,0:0:0:0:
88,272,65843,1,0,0:0:0:0:
176,320,65980,1,8,0:0:0:0:
176,320,66116,2,0,B|229:303|237:241|237:241|290:206,1,170,2|8,0:0|0:0,0:0:0:0:
448,192,66525,2,0,B|394:208|386:270|386:270|333:305,2,170,2|0|8,0:0|0:0|0:0,0:0:0:0:
256,136,67343,2,0,L|184:184,2,85,0|0|8,0:0|0:0|0:0,0:0:0:0:
336,88,67889,6,0,P|280:48|176:88,1,170,4|0,0:0|0:0,0:0:0:0:
128,160,68707,1,2,0:0:0:0:
136,264,68980,2,0,P|176:288|216:296,1,85,0|2,0:0|0:0,0:0:0:0:
312,288,69525,2,0,P|352:256|368:216,1,85,0|2,0:0|0:0,0:0:0:0:
280,80,70071,6,0,B|272:128|272:128|280:152|280:152|272:184|288:224,2,127.5,4|0|2,0:0|0:0|0:0,0:0:0:0:
360,24,71162,2,0,P|408:8|448:8,1,85,0|2,0:0|0:0,0:0:0:0:
480,112,71707,2,0,P|432:128|392:128,1,85,0|2,0:0|0:0,0:0:0:0:
280,136,72252,5,0,0:0:0:0:
144,144,72525,1,0,0:0:0:0:
264,216,72798,1,2,0:0:0:0:
128,224,73071,1,6,0:0:0:0:
0,248,73343,5,8,0:0:0:0:
3,283,73412,1,0,0:0:0:0:
18,315,73480,1,0,0:0:0:0:
44,340,73548,1,8,0:0:0:0:
77,354,73616,1,0,0:0:0:0:
112,356,73684,1,0,0:0:0:0:
146,345,73752,1,0,0:0:0:0:
174,323,73821,1,0,0:0:0:0:
200,296,73889,5,8,0:0:0:0:
192,258,73957,1,0,0:0:0:0:
195,219,74025,1,0,0:0:0:0:
210,184,74093,1,8,0:0:0:0:
231,156,74162,1,0,0:0:0:0:
256,129,74230,1,0,0:0:0:0:
293,118,74298,1,0,0:0:0:0:
330,111,74366,1,0,0:0:0:0:
366,118,74434,1,8,0:0:0:0:
448,48,74571,5,0,0:0:0:0:
344,32,74707,2,0,B|280:48|280:48|216:16|168:88,2,170,8|2|8,0:0|0:0|0:0,0:0:0:0:
248,128,75389,2,0,P|216:152|160:144,1,85,2|0,0:0|0:0,0:0:0:0:
104,104,75662,1,2,0:0:0:0:
104,104,75798,2,0,L|72:272,1,170,8|2,0:0|0:0,0:0:0:0:
48,40,76343,1,8,0:0:0:0:
48,40,76480,1,0,0:0:0:0:
312,80,76752,5,0,0:0:0:0:
384,104,76889,1,8,0:0:0:0:
456,128,77025,1,0,0:0:0:0:
336,256,77298,1,0,0:0:0:0:
408,280,77434,1,8,0:0:0:0:
480,304,77571,1,0,0:0:0:0:
320,176,77843,2,0,P|272:168|232:184,1,85,2|8,0:0|0:0,0:0:0:0:
224,200,78048,1,0,0:0:0:0:
216,224,78116,1,2,0:0:0:0:
208,248,78184,1,0,0:0:0:0:
200,272,78252,2,0,L|208:360,2,85,2|0|0,0:0|0:0|0:0,0:0:0:0:
136,200,78662,1,12,0:0:0:0:
56,160,78934,6,0,P|104:120|208:152,1,170,0|8,0:0|0:0,0:0:0:0:
296,96,79343,1,0,0:0:0:0:
400,80,79480,1,0,0:0:0:0:
456,160,79616,1,8,0:0:0:0:
392,248,79752,2,0,P|416:288|408:336,1,85,2|0,0:0|0:0,0:0:0:0:
296,208,80025,1,2,0:0:0:0:
216,120,80162,2,0,P|216:64|232:40,2,85,8|2|2,0:0|0:0|0:0,0:0:0:0:
168,208,80571,1,0,0:0:0:0:
112,296,80707,1,8,0:0:0:0:
200,360,80843,1,0,0:0:0:0:
256,272,80980,6,0,P|328:280|376:200,1,170,2|8,0:0|0:0,0:0:0:0:
376,104,81389,2,0,P|408:104|456:144,2,85,2|0|8,0:0|0:0|0:0,0:0:0:0:
344,16,81798,2,0,P|288:56|280:112,1,127.5,2|0,0:0|0:0,0:0:0:0:
296,144,82071,2,0,P|289:187|272:240,1,85,2|0,0:0|0:0,0:0:0:0:
200,384,82343,2,0,P|216:336|241:294,1,85,2|0,0:0|0:0,0:0:0:0:
321,151,82616,2,0,P|306:196|281:241,1,85,2|0,0:0|0:0,0:0:0:0:
185,371,82889,2,0,P|209:326|240:289,1,85,2|0,0:0|0:0,0:0:0:0:
240,224,83162,5,4,0:0:0:0:
128,48,83571,1,0,0:0:0:0:
56,80,83707,1,2,0:0:0:0:
120,128,83843,1,0,0:0:0:0:
48,160,83980,1,2,0:0:0:0:
104,208,84116,2,0,P|176:192|200:128,1,127.500004863739
264,88,84525,2,0,B|392:80,2,127.500004863739,2|2|2,0:0|0:0|0:0,0:0:0:0:
336,224,85343,6,0,B|208:232,1,127.500004863739,6|2,0:0|0:0,0:0:0:0:
144,192,85752,2,0,P|120:136|144:72,1,127.500004863739,0|2,0:0|0:0,0:0:0:0:
208,40,86162,1,2,0:0:0:0:
352,88,86434,1,8,0:0:0:0:
384,160,86571,1,0,0:0:0:0:
328,216,86707,1,0,0:0:0:0:
256,184,86843,2,0,L|152:264,1,127.500004863739,8|0,0:0|0:0,0:0:0:0:
96,312,87252,1,12,0:0:0:0:
408,240,87798,21,12,0:0:0:0:
272,104,88071,2,0,P|232:96|176:112,1,85,2|2,0:0|0:0,0:0:0:0:
112,168,88343,1,8,0:0:0:0:
88,264,88480,2,0,L|264:304,1,170,2|0,0:0|0:0,0:0:0:0:
352,288,88889,2,0,P|384:248|384:216,1,85,8|0,0:0|0:0,0:0:0:0:
256,160,89162,2,0,P|274:207|302:223,1,85,2|0,0:0|0:0,0:0:0:0:
416,136,89434,2,0,P|368:128|337:144,1,85,8|0,0:0|0:0,0:0:0:0:
302,223,89707,5,6,0:0:0:0:
216,264,89843,1,0,0:0:0:0:
128,224,89980,1,2,0:0:0:0:
120,128,90116,1,0,0:0:0:0:
200,72,90252,2,0,L|288:96,1,85,2|0,0:0|0:0,0:0:0:0:
440,24,90525,2,0,L|352:48,1,85,2|0,0:0|0:0,0:0:0:0:
352,136,90798,1,6,0:0:0:0:
288,208,90934,1,0,0:0:0:0:
192,224,91071,1,2,0:0:0:0:
128,296,91207,1,0,0:0:0:0:
200,352,91343,5,12,0:0:0:0:
232,352,91412,1,0,0:0:0:0:
264,352,91480,1,0,0:0:0:0:
288,336,91548,1,0,0:0:0:0:
320,320,91616,1,12,0:0:0:0:
352,304,91684,1,0,0:0:0:0:
384,304,91752,1,0,0:0:0:0:
416,304,91821,1,0,0:0:0:0:
416,216,91889,6,0,L|328:208,1,85
304,112,92162,2,0,L|392:120,1,85,8|0,0:0|0:0,0:0:0:0:
248,40,92434,2,0,B|216:72|216:72|216:152|216:152|256:192,1,170,0|8,0:0|0:0,0:0:0:0:
312,376,92843,2,0,B|344:344|344:344|344:264|344:264|304:224,1,170
256,304,93252,1,8,0:0:0:0:
256,304,93389,1,0,0:0:0:0:
176,264,93525,2,0,P|152:224|144:184,1,85
216,128,93798,2,0,P|216:88|200:40,1,85,8|0,0:0|0:0,0:0:0:0:
128,104,94071,5,0,0:0:0:0:
112,184,94207,1,0,0:0:0:0:
256,144,94343,1,8,0:0:0:0:
200,208,94480,1,0,0:0:0:0:
128,272,94616,2,0,B|168:272|208:304|208:304|232:264|280:256,1,170,0|8,0:0|0:0,0:0:0:0:
448,328,95025,2,0,B|400:328|368:296|368:296|344:336|296:344,1,170
272,256,95434,2,0,P|224:272|176:264,1,85,8|0,0:0|0:0,0:0:0:0:
208,176,95707,2,0,P|168:160|144:128,1,85
224,88,95980,1,8,0:0:0:0:
256,0,96116,1,0,0:0:0:0:
328,64,96252,6,0,B|352:144|352:144|336:184|336:184|352:232,2,170,0|8|0,0:0|0:0|0:0,0:0:0:0:
464,272,96934,2,0,L|432:192,1,85,0|8,0:0|0:0,0:0:0:0:
232,64,97207,2,0,B|256:144|256:144|240:184|240:184|256:232,1,170
160,136,97616,2,0,L|128:40,1,85,8|0,0:0|0:0,0:0:0:0:
120,224,97889,2,0,P|184:232|256:152,1,170,0|8,0:0|0:0,0:0:0:0:
328,96,98298,5,0,0:0:0:0:
408,152,98434,2,0,P|408:216|424:280,1,127.5,4|0,0:0|0:0,0:0:0:0:
456,312,98707,1,2,0:0:0:0:
368,344,98843,2,0,L|280:328,1,85,2|0,0:0|0:0,0:0:0:0:
208,264,99116,1,0,0:0:0:0:
152,192,99252,2,0,B|160:128|160:128|208:64,1,127.5,4|0,0:0|0:0,0:0:0:0:
240,64,99525,1,2,0:0:0:0:
304,136,99662,2,0,P|304:176|312:224,1,85,2|0,0:0|0:0,0:0:0:0:
384,280,99934,1,0,0:0:0:0:
392,112,100071,2,0,P|344:56|248:64,1,170,4|4,0:0|0:0,0:0:0:0:
224,80,100412,1,2,0:0:0:0:
208,96,100480,1,0,0:0:0:0:
192,112,100548,1,0,0:0:0:0:
176,128,100616,22,0,P|168:184|176:216,1,85
96,96,100889,2,0,P|104:40|96:8,1,85,8|0,0:0|0:0,0:0:0:0:
248,176,101162,6,0,B|312:192|312:192|392:176,1,127.5
400,168,101434,1,8,0:0:0:0:
512,56,101571,6,0,B|432:24|432:24|344:40,1,170
280,104,101980,1,8,0:0:0:0:
248,192,102116,6,0,L|408:272,1,170
504,248,102525,1,8,0:0:0:0:
504,152,102662,1,0,0:0:0:0:
432,88,102798,5,0,0:0:0:0:
352,112,102934,1,0,0:0:0:0:
280,0,103071,1,8,0:0:0:0:
264,80,103207,1,0,0:0:0:0:
272,176,103343,2,0,B|240:176|216:208|216:208|184:200|160:224|160:224|104:208,1,170,0|8,0:0|0:0,0:0:0:0:
296,256,103752,2,0,B|328:256|352:224|352:224|384:232|408:208|408:208|464:224,1,170
416,304,104162,1,8,0:0:0:0:
328,360,104298,1,0,0:0:0:0:
232,320,104434,2,0,P|208:280|216:224,1,85
168,96,104707,2,0,P|174:142|145:190,1,85,8|0,0:0|0:0,0:0:0:0:
280,104,104980,6,0,B|336:120|376:88|376:88|424:88|456:152,1,170,0|8,0:0|0:0,0:0:0:0:
434,118,105389,1,0,0:0:0:0:
312,16,105525,2,0,B|256:0|216:32|216:32|168:32|136:-32,1,170,0|8,0:0|0:0,0:0:0:0:
88,72,105934,2,0,B|120:112|168:120|168:120|144:208,1,170
144,360,106343,2,0,L|168:264,1,85,8|0,0:0|0:0,0:0:0:0:
240,216,106616,1,0,0:0:0:0:
328,280,106889,5,8,0:0:0:0:
328,280,107025,2,0,L|360:192,1,85,0|4,0:0|0:0,0:0:0:0:
344,104,107298,1,0,0:0:0:0:
344,104,107434,2,0,P|304:72|264:72,1,85,2|4,0:0|0:0,0:0:0:0:
184,104,107707,1,0,0:0:0:0:
184,104,107843,2,0,B|144:128|144:128|128:176,1,85,2|4,0:0|0:0,0:0:0:0:
152,256,108116,6,0,L|88:312,2,85,0|2|4,0:0|0:0|0:0,0:0:0:0:
232,304,108525,1,0,0:0:0:0:
320,280,108662,2,0,P|360:267|387:235,1,85,2|4,0:0|0:0,0:0:0:0:
408,144,108934,1,0,0:0:0:0:
352,72,109071,2,0,P|320:64|264:72,1,85,2|4,0:0|0:0,0:0:0:0:
192,136,109343,2,0,L|208:224,1,85,0|2,0:0|0:0,0:0:0:0:
280,264,109616,5,4,0:0:0:0:
400,288,109752,1,6,0:0:0:0:
304,336,109889,1,2,0:0:0:0:
424,360,110025,2,0,P|464:328|472:288,1,85,4|0,0:0|0:0,0:0:0:0:
376,216,110298,2,0,P|336:248|328:288,1,85,4|0,0:0|0:0,0:0:0:0:
456,216,110571,2,0,L|504:136,1,85,4|0,0:0|0:0,0:0:0:0:
432,64,110843,1,0,0:0:0:0:
432,64,110980,2,0,B|400:64|400:64|384:80|384:80|344:72|304:88,1,127.5,4|0,0:0|0:0,0:0:0:0:
232,120,111252,6,0,P|240:168|344:216,1,170,2|0,0:0|0:0,0:0:0:0:
304,80,111661,2,0,P|240:40|144:104,1,170,2|0,0:0|0:0,0:0:0:0:
104,144,112070,2,0,P|88:200|152:296,1,170,2|0,0:0|0:0,0:0:0:0:
224,328,112479,2,0,P|312:312|352:248,1,170,2|0,0:0|0:0,0:0:0:0:
424,184,112888,1,0,0:0:0:0:
448,176,112956,1,0,0:0:0:0:
472,168,113024,2,0,P|488:128|480:88,2,85,2|2|2,0:0|0:0|0:0,0:0:0:0:
400,96,113433,6,0,P|352:56|240:64,1,170,2|0,0:0|0:0,0:0:0:0:
176,112,113842,2,0,P|136:176|168:264,1,170,2|0,0:0|0:0,0:0:0:0:
152,336,114252,2,0,P|136:360|104:384,1,56.6666666666667,2|2,0:0|0:0,0:0:0:0:
232,320,114433,2,0,P|232:344|224:376,1,56.6666666666667,2|2,0:0|0:0,0:0:0:0:
288,264,114615,2,0,P|304:288|312:320,1,56.6666666666667,2|2,0:0|0:0,0:0:0:0:
272,184,114797,2,0,B|256:128|256:128|216:120|192:72|208:32,1,170,2|0,0:0|0:0,0:0:0:0:
288,48,115206,2,0,B|336:56|360:96|360:96|400:88|448:128,1,170,2|0,0:0|0:0,0:0:0:0:
368,192,115615,6,0,P|360:264|256:296,1,170,2|0,0:0|0:0,0:0:0:0:
368,192,116024,2,0,P|324:134|218:160,1,170,2|0,0:0|0:0,0:0:0:0:
176,216,116433,2,0,P|144:288|56:280,1,170,2|0,0:0|0:0,0:0:0:0:
104,224,116842,2,0,B|136:248|136:296|136:296|192:304|208:368,1,170,2|0,0:0|0:0,0:0:0:0:
288,336,117252,1,0,0:0:0:0:
312,328,117320,1,0,0:0:0:0:
336,320,117388,1,2,0:0:0:0:
360,312,117456,1,0,0:0:0:0:
384,304,117524,2,0,P|416:272|424:232,1,85,2|2,0:0|0:0,0:0:0:0:
424,128,117797,6,0,L|328:144,1,85,2|2,0:0|0:0,0:0:0:0:
248,160,118070,1,0,0:0:0:0:
192,88,118206,2,0,P|128:64|72:80,1,127.5,2|0,0:0|0:0,0:0:0:0:
56,120,118479,2,0,L|72:208,1,85,2|2,0:0|0:0,0:0:0:0:
136,272,118752,1,0,0:0:0:0:
216,224,118888,2,0,P|264:216|312:216,1,85,2|2,0:0|0:0,0:0:0:0:
300,215,119297,5,2,0:0:0:0:
456,320,119570,1,6,0:0:0:0:
300,215,119842,2,0,P|288:168|264:136,1,85,0|2,0:0|0:0,0:0:0:0:
184,88,120115,2,0,P|136:80|88:96,1,85,0|2,0:0|0:0,0:0:0:0:
32,152,120388,2,0,P|16:208|32:248,1,85,0|2,0:0|0:0,0:0:0:0:
184,88,120661,5,6,0:0:0:0:
336,144,120933,2,0,P|368:168|384:216,1,85,2|0,0:0|0:0,0:0:0:0:
224,224,121206,2,0,P|228:184|262:146,1,85,2|0,0:0|0:0,0:0:0:0:
352,280,121479,2,0,P|315:295|265:285,1,85,2|0,0:0|0:0,0:0:0:0:
168,352,121752,1,2,0:0:0:0:
88,312,121888,6,0,B|40:248|40:248|32:152,1,170,2|0,0:0|0:0,0:0:0:0:
88,88,122297,2,0,B|160:128|160:128|248:112,1,170,0|2,0:0|0:0,0:0:0:0:
320,48,122706,1,0,0:0:0:0:
376,128,122842,1,0,0:0:0:0:
304,192,122978,2,0,P|320:244|296:295,1,113.333333333333,2|0,0:0|0:0,0:0:0:0:
240,240,123251,2,0,P|216:290|232:343,1,113.333333333333,2|0,0:0|0:0,0:0:0:0:
144,336,123524,2,0,P|94:365|41:355,1,113.333333333333,2|0,0:0|0:0,0:0:0:0:
64,216,123797,2,0,P|121:223|156:264,1,113.333333333333,2|0,0:0|0:0,0:0:0:0:
80,288,124069,2,0,B|118:302|160:296|184:256|184:256|248:272,1,170
304,304,124478,2,0,B|320:256|288:216|288:216|280:176|280:176|304:104|384:120,1,255.000009727478
360,192,125251,6,0,P|400:192|448:160,1,85.0000032424928,2|0,0:0|0:0,0:0:0:0:
432,64,125524,2,0,P|398:41|341:41,1,85.0000032424928,2|0,0:0|0:0,0:0:0:0:
304,120,125797,2,0,L|216:144,1,85.0000032424928,2|0,0:0|0:0,0:0:0:0:
136,168,126115,1,0,0:0:0:0:
96,248,126251,6,0,B|144:272|192:240|192:240|240:232|272:272,1,170,2|0,0:0|0:0,0:0:0:0:
216,328,126660,2,0,P|264:344|368:296,1,170,0|2,0:0|0:0,0:0:0:0:
432,136,127206,2,0,B|384:224|384:224|432:240|448:288,1,170
424,344,127615,2,0,P|368:368|304:344,1,113.333333333333,2|0,0:0|0:0,0:0:0:0:
256,312,127888,2,0,P|224:272|224:200,1,113.333333333333,2|0,0:0|0:0,0:0:0:0:
248,136,128160,2,0,P|288:104|352:104,1,113.333333333333,2|0,0:0|0:0,0:0:0:0:
320,184,128433,2,0,B|368:200|416:168|416:168|472:224,1,170
512,152,128842,6,0,B|440:80|440:80|384:96|336:56,1,212.5,0|4,0:0|0:0,0:0:0:0:
264,32,129660,1,8,0:0:0:0:
64,64,129933,1,8,0:0:0:0:
232,152,130206,1,8,0:0:0:0:
208,352,130342,1,0,0:0:0:0:
233,319,130410,1,0,0:0:0:0:
240,278,130478,1,0,0:0:0:0:
227,238,130547,1,0,0:0:0:0:
264,248,130615,6,0,P|320:205|320:101,1,170,2|0,0:0|0:0,0:0:0:0:
320,16,131024,2,0,B|264:24|240:72|240:72|176:96,1,170,2|0,0:0|0:0,0:0:0:0:
64,216,131433,1,0,0:0:0:0:
96,128,131569,1,0,0:0:0:0:
24,288,131706,2,0,B|80:312|128:272|128:272|200:304,1,170,2|0,0:0|0:0,0:0:0:0:
144,368,132115,2,0,P|104:304|176:208,1,170,2|0,0:0|0:0,0:0:0:0:
304,208,132524,1,0,0:0:0:0:
216,184,132660,1,0,0:0:0:0:
400,128,132797,6,0,L|384:304,1,170,2|0,0:0|0:0,0:0:0:0:
288,352,133206,2,0,P|232:344|184:248,1,170,2|0,0:0|0:0,0:0:0:0:
200,152,133615,1,0,0:0:0:0:
40,320,133888,5,8,0:0:0:0:
112,296,134251,1,8,0:0:0:0:
184,272,134615,1,8,0:0:0:0:
208,80,139888,6,0,P|256:72|304:80,1,85
256,160,140160,1,0,0:0:0:0:
256,192,140297,1,0,0:0:0:0:
256,216,140433,6,0,P|224:248|168:248,1,85
96,224,140706,2,0,P|64:192|56:152,1,85,8|0,0:0|0:0,0:0:0:0:
152,144,140978,2,0,B|208:120|208:120|272:152|320:96,1,170,0|8,0:0|0:0,0:0:0:0:
408,0,141388,2,0,B|352:24|352:24|288:-8|240:48,1,170
224,136,141797,1,8,0:0:0:0:
176,216,141933,1,0,0:0:0:0:
288,296,142069,2,0,B|328:272|336:232|336:232|432:224,1,170,0|8,0:0|0:0,0:0:0:0:
496,280,142478,1,0,0:0:0:0:
496,184,142615,6,0,P|496:136|488:96,1,85
408,40,142888,2,0,P|368:24|320:16,1,85,8|0,0:0|0:0,0:0:0:0:
344,112,143160,2,0,B|296:168|296:168|240:184|192:144,1,170,0|8,0:0|0:0,0:0:0:0:
8,128,143569,2,0,B|56:72|56:72|112:56|160:96,1,170
232,136,143978,1,8,0:0:0:0:
296,208,144115,1,0,0:0:0:0:
360,280,144251,2,0,P|408:288|456:280,1,85
488,200,144524,2,0,P|440:192|392:200,1,85,8|0,0:0|0:0,0:0:0:0:
296,208,144797,6,0,L|208:256,1,85
368,144,145069,2,0,L|280:192,1,85,8|0,0:0|0:0,0:0:0:0:
440,80,145342,2,0,L|352:128,1,85
280,88,145615,1,8,0:0:0:0:
128,40,145751,2,0,B|176:24|208:40|208:40|184:96|216:144,1,170
256,200,146160,2,0,P|296:216|352:208,1,85,8|0,0:0|0:0,0:0:0:0:
424,168,146433,1,0,0:0:0:0:
352,344,146706,5,0,0:0:0:0:
264,320,146842,1,0,0:0:0:0:
200,256,146978,2,0,P|128:264|48:208,1,170,4|2,0:0|0:0,0:0:0:0:
168,224,147388,2,0,P|120:216|80:192,1,85,2|0,0:0|0:0,0:0:0:0:
80,96,147660,1,0,0:0:0:0:
168,56,147797,2,0,B|224:88|224:88|288:80,1,127.5,4|0,0:0|0:0,0:0:0:0:
328,56,148069,1,2,0:0:0:0:
408,112,148206,2,0,B|416:160|416:160|408:208,1,85,2|0,0:0|0:0,0:0:0:0:
328,160,148478,1,0,0:0:0:0:
231,175,148615,2,0,B|239:215|279:239|279:239|255:335,1,170,4|0,0:0|0:0,0:0:0:0:
258,324,149160,5,0,0:0:0:0:
168,296,149297,2,0,P|120:288|80:288,1,85,0|8,0:0|0:0,0:0:0:0:
40,104,149706,2,0,B|88:120|120:88|120:88|176:160,1,170,0|8,0:0|0:0,0:0:0:0:
280,288,150115,2,0,B|232:272|200:304|200:304|144:232,1,170
200,152,150524,1,8,0:0:0:0:
288,96,150660,2,0,P|336:88|376:88,1,85
472,232,151069,5,8,0:0:0:0:
472,232,151206,1,0,0:0:0:0:
472,232,151342,2,0,P|464:288|448:320,1,85
376,256,151615,2,0,P|360:208|360:168,1,85,8|0,0:0|0:0,0:0:0:0:
344,80,151888,2,0,B|288:80|264:128|264:128|176:136,1,170,0|8,0:0|0:0,0:0:0:0:
56,280,152297,2,0,B|112:280|136:232|136:232|224:224,1,170
208,320,152706,2,0,P|256:312|288:280,1,85,8|0,0:0|0:0,0:0:0:0:
272,128,152978,1,0,0:0:0:0:
320,200,153115,1,0,0:0:0:0:
408,80,153251,1,8,0:0:0:0:
400,160,153388,1,0,0:0:0:0:
392,256,153524,6,0,P|344:288|240:240,1,170,0|8,0:0|0:0,0:0:0:0:
246,251,153933,1,0,0:0:0:0:
152,120,154069,2,0,B|168:160|208:184|208:184|168:208|168:264,1,170,0|8,0:0|0:0,0:0:0:0:
240,96,154478,2,0,B|280:112|296:152|296:152|384:144,1,170
496,208,154888,2,0,L|408:224,1,85,8|0,0:0|0:0,0:0:0:0:
336,280,155160,1,0,0:0:0:0:
152,240,155433,6,0,L|144:144,1,85
200,72,155706,2,0,P|256:48|336:72,1,127.5,8|0,0:0|0:0,0:0:0:0:
352,96,155978,1,2,0:0:0:0:
424,144,156115,2,0,B|400:168|376:176|376:176|368:208,1,85,8|0,0:0|0:0,0:0:0:0:
304,264,156388,1,2,0:0:0:0:
224,312,156524,2,0,P|176:304|136:264,2,85,8|0|2,0:0|0:0|0:0,0:0:0:0:
216,216,156933,2,0,L|248:72,1,127.5,8|0,0:0|0:0,0:0:0:0:
280,56,157206,1,2,0:0:0:0:
280,56,157342,2,8,L|336:224,1,170
168,232,157888,6,0,P|168:184|136:144,1,85,4|0,0:0|0:0,0:0:0:0:
248,280,158160,2,0,P|248:328|280:368,1,85,8|0,0:0|0:0,0:0:0:0:
248,192,158433,2,0,B|224:128|224:128|256:64,1,127.5
280,40,158706,1,8,0:0:0:0:
464,80,158842,2,0,B|400:136|400:136|312:136,1,170
240,80,159251,2,0,P|224:112|232:176,1,85,8|0,0:0|0:0,0:0:0:0:
264,312,159524,2,0,P|280:280|272:216,1,85
136,200,159797,2,0,P|120:232|128:296,1,85,8|0,0:0|0:0,0:0:0:0:
200,256,160069,6,0,B|248:280|296:248|296:248|344:248|368:280,1,170,0|8,0:0|0:0,0:0:0:0:
480,112,160615,2,0,P|436:94|388:110,1,85
440,255,160888,2,0,P|482:236|505:191,1,85,8|0,0:0|0:0,0:0:0:0:
427,175,161160,2,0,L|344:192,1,85
264,216,161433,1,0,0:0:0:0:
240,8,161569,2,8,B|264:64|224:120|224:120|152:152|160:248,1,255
376,360,162251,6,0,L|416:272,1,85
264,216,162524,2,0,L|321:294,1,85,8|0,0:0|0:0,0:0:0:0:
440,192,162797,2,0,L|344:201,1,85
264,216,163069,1,8,0:0:0:0:
144,256,163206,2,0,B|192:264|192:264|240:328|320:296,1,170
344,224,163615,2,0,P|392:208|440:216,1,85,8|0,0:0|0:0,0:0:0:0:
488,288,163888,2,0,P|528:232|472:128,1,170,0|8,0:0|0:0,0:0:0:0:
424,88,164297,1,0,0:0:0:0:
304,64,164433,6,0,B|216:64|216:64|128:24,1,170,4|2,0:0|0:0,0:0:0:0:
232,144,164842,2,0,B|160:184|160:184|64:192,1,170,4|2,0:0|0:0,0:0:0:0:
280,232,165251,2,0,B|250:306|250:306|168:368,1,170,4|2,0:0|0:0,0:0:0:0:
368,168,165660,2,0,B|384:256|384:256|357:348,1,170,4|2,0:0|0:0,0:0:0:0:
272,368,166069,1,0,0:0:0:0:
192,320,166206,1,8,0:0:0:0:
165,309,166274,1,0,0:0:0:0:
137,304,166342,1,8,0:0:0:0:
109,304,166410,1,0,0:0:0:0:
81,309,166478,1,0,0:0:0:0:
55,320,166546,1,0,0:0:0:0:
32,335,166615,6,0,P|24:287|32:239,1,85
72,112,166888,2,0,P|77:69|69:28,1,85,8|0,0:0|0:0,0:0:0:0:
0,152,167160,2,0,P|32:184|88:192,1,85
160,168,167433,1,8,0:0:0:0:
232,248,167569,6,0,B|224:304|224:304|248:344|288:352|344:336,1,170
416,304,167978,1,8,0:0:0:0:
432,208,168115,1,0,0:0:0:0:
288,176,168251,1,0,0:0:0:0:
312,264,168388,1,0,0:0:0:0:
424,128,168524,2,0,P|472:136|504:168,1,85,8|0,0:0|0:0,0:0:0:0:
296,296,168797,6,0,B|280:256|280:256|208:240|208:160,1,170,0|8,0:0|0:0,0:0:0:0:
288,176,169206,1,0,0:0:0:0:
256,88,169342,2,0,P|208:72|160:88,1,85
32,168,169615,2,0,P|80:184|128:168,1,85,8|0,0:0|0:0,0:0:0:0:
80,96,169888,2,0,L|64:272,1,170,0|8,0:0|0:0,0:0:0:0:
160,336,170297,2,0,L|176:160,1,170
184,72,170706,5,8,0:0:0:0:
336,176,170978,2,0,P|368:208|424:224,1,85
312,88,171251,2,0,P|280:56|224:40,1,85,8|0,0:0|0:0,0:0:0:0:
232,136,171524,2,0,B|224:176|184:200|184:200|176:248|128:272,1,170,0|8,0:0|0:0,0:0:0:0:
0,320,171933,2,0,B|8:280|48:256|48:256|56:208|104:184,1,170
176,168,172342,1,8,0:0:0:0:
232,48,172478,1,0,0:0:0:0:
240,64,172888,6,0,L|288:144,1,85,8|0,0:0|0:0,0:0:0:0:
352,208,173160,1,4,0:0:0:0:
352,208,173297,1,2,0:0:0:0:
297,284,173433,1,0,0:0:0:0:
389,297,173569,1,4,0:0:0:0:
400,144,173706,2,0,P|360:128|304:144,2,85,2|0|4,0:0|0:0|0:0,0:0:0:0:
472,304,174115,2,0,P|456:352|416:376,2,85,2|0|4,0:0|0:0|0:0,0:0:0:0:
448,224,174524,6,0,L|472:128,1,85,2|0,0:0|0:0,0:0:0:0:
440,64,174797,1,4,0:0:0:0:
352,56,174933,2,0,P|312:64|280:96,1,85
256,184,175206,1,4,0:0:0:0:
184,240,175342,2,0,P|144:256|104:248,1,85,2|0,0:0|0:0,0:0:0:0:
56,176,175615,5,6,0:0:0:0:
96,48,175751,1,4,0:0:0:0:
232,32,175888,1,2,0:0:0:0:
192,160,176024,1,4,0:0:0:0:
128,304,176297,2,0,P|168:328|216:320,1,85,2|2,0:0|0:0,0:0:0:0:
272,256,176569,2,0,P|272:209|241:171,1,85,2|2,0:0|0:0,0:0:0:0:
152,160,176842,1,0,0:0:0:0:
152,160,176978,2,0,P|111:182|94:228,1,85,0|2,0:0|0:0,0:0:0:0:
128,304,177251,5,4,0:0:0:0:
320,320,177388,1,6,0:0:0:0:
168,368,177524,1,2,0:0:0:0:
272,256,177660,1,4,0:0:0:0:
384,64,177933,2,0,P|384:96|360:152,1,85,0|2,0:0|0:0,0:0:0:0:
208,112,178206,2,0,P|235:96|296:88,1,85,0|2,0:0|0:0,0:0:0:0:
336,232,178478,1,0,0:0:0:0:
336,232,178615,2,0,P|308:216|271:167,1,85,0|2,0:0|0:0,0:0:0:0:
168,200,178888,5,4,0:0:0:0:
96,376,179024,1,6,0:0:0:0:
40,248,179160,1,2,0:0:0:0:
224,328,179297,1,4,0:0:0:0:
352,216,179569,2,0,P|392:192|440:200,1,85,0|2,0:0|0:0,0:0:0:0:
312,288,179842,2,0,P|312:334|281:372,1,85,0|2,0:0|0:0,0:0:0:0:
264,216,180115,1,0,0:0:0:0:
264,216,180251,2,0,P|223:193|206:147,1,85,0|2,0:0|0:0,0:0:0:0:
112,144,180524,5,4,0:0:0:0:
240,48,180660,1,6,0:0:0:0:
144,56,180797,1,2,0:0:0:0:
296,128,180933,1,4,0:0:0:0:
176,272,181206,2,0,P|208:304|256:312,1,85,0|2,0:0|0:0,0:0:0:0:
400,328,181478,2,0,P|368:296|320:288,1,85,0|2,0:0|0:0,0:0:0:0:
256,224,181751,1,0,0:0:0:0:
256,224,181888,2,0,L|304:152,1,85,0|2,0:0|0:0,0:0:0:0:
360,80,182160,5,4,0:0:0:0:
256,192,182228,12,0,186524,0:0:0:0:
