osu file format v9

[General]
AudioFilename: AVALON.mp3
AudioLeadIn: 0
PreviewTime: 120745
Countdown: 0
SampleSet: Normal
StackLeniency: 0.7
Mode: 0
LetterboxInBreaks: 0
UseSkinSprites: 1

[Editor]
Bookmarks: 50849,96943,100960,118346,120746
DistanceSpacing: 1
BeatDivisor: 4
GridSize: 8

[Metadata]
Title:AVALON
Artist:Sasakure.UK
Creator:Sharp
Version:Normal
Source:BMS
Tags:bof2008

[Difficulty]
HPDrainRate:2
CircleSize:3
OverallDifficulty:2
ApproachRate:5
SliderMultiplier:0.999999999999999
SliderTickRate:2

[Events]
//Background and Video events
0,0,"bg.jpg"
//Break Periods
2,59299,63074
2,92674,100360
2,156960,163285
//Storyboard Layer 0 (Background)
//Storyboard Layer 1 (Fail)
//Storyboard Layer 2 (Pass)
//Storyboard Layer 3 (Foreground)
//Storyboard Sound Samples
//Background Colour Transformations
3,100,163,162,255

[TimingPoints]
18149,300,4,1,0,60,1,0
62099,-100,4,2,0,5,0,0
64274,1200,4,2,0,50,1,0
64274,-66.6666666666667,4,2,0,20,0,0
66074,600,4,2,0,50,1,0
66074,-50,4,2,0,20,0,0
66374,1200,4,2,0,20,1,0
66674,600,4,2,0,50,1,0
66674,-50,4,2,0,20,0,0
66974,600,4,2,0,50,1,0
66974,-66.6666666666667,4,2,0,20,0,0
67874,600,4,2,0,50,1,0
67874,-66.6666666666667,4,2,0,35,0,0
69674,-66.6666666666667,4,2,0,40,0,0
70274,900.0900090009,4,2,0,30,1,0
70274,-50,4,2,0,20,0,0
75674,600,4,1,0,30,1,0
99974,29.8804780876494,4,2,0,20,1,0
100810,1200,4,2,0,20,1,0
101560,300,4,1,0,50,1,1
101635,-100,4,1,0,50,0,0
111160,-100,4,1,0,50,0,1
111235,-100,4,1,0,50,0,0
120760,-100,4,1,0,50,0,1
130285,-100,4,2,0,30,0,0
130360,-100,4,1,0,50,0,1
139960,-100,4,1,0,50,0,0
164485,-100,4,2,0,5,0,0

[Colours]
Combo1 : 249,189,191
Combo2 : 165,221,248
Combo3 : 246,250,189

[HitObjects]
80,272,18149,2,0,B|160:256|224:304,1,150
416,272,19199,1,0
344,144,19649,2,0,B|248:112,1,99.9999999999999
152,88,20249,6,0,B|168:168|120:232,1,150
280,352,21299,1,0
152,272,21749,2,0,B|256:272,1,99.9999999999999
256,176,22349,2,0,B|208:176,1,50
56,176,22949,5,0
456,176,24149,1,0
88,328,25349,1,0
360,32,26549,1,0
472,192,27149,6,0,B|400:152|328:192,1,150
128,184,28199,2,0,B|216:136|216:136|264:136|264:136|352:88,1,250
424,16,29249,6,0,B|464:88|424:160,1,150
352,344,30299,2,0,B|256:312|256:312|240:264|240:264|152:224,1,250
168,320,31349,1,0
104,128,31949,5,0
488,24,33149,1,0
256,344,34349,1,0
24,24,35549,1,0
136,192,36149,6,0,B|296:192,2,150,4|0|0
104,288,37349,2,0,B|208:288,1,99.9999999999999
304,288,37949,1,0
408,288,38249,6,0,B|448:216|408:144,1,150
448,56,38999,2,0,B|344:56,1,99.9999999999999
280,128,39599,2,0,B|216:128,1,50
128,128,40049,1,0
160,224,40349,6,0,B|200:288|160:368,2,150
88,296,41549,2,0,B|288:296,1,200
344,208,42449,6,0,B|192:208|192:208|256:72,1,300
344,112,43649,1,0
432,152,43949,2,0,B|456:200|432:248,1,99.9999999999999
360,312,44549,6,0,B|208:312,2,150
312,224,45749,1,0
256,144,46049,2,0,B|152:144,1,99.9999999999999
80,72,46649,6,0,B|40:144|80:216,1,150
40,312,47399,2,0,B|144:312,1,99.9999999999999
240,304,47999,1,0
200,216,48299,2,0,B|248:216,1,50
352,216,48749,6,0,B|392:288|352:360,1,150
280,288,49499,2,0,B|176:288,1,99.9999999999999
152,192,50099,2,0,B|200:192,1,50
304,192,50549,1,0
400,192,50849,5,4
256,56,51449,2,0,B|144:48|72:120,2,200,8|0|8
408,192,53249,5,0
352,272,53549,1,0
296,192,53849,1,8
96,192,54449,5,0
152,112,54749,1,0
208,192,55049,1,8
392,104,55649,6,0,B|448:192|392:296,1,200,0|8
192,280,56849,5,0
240,192,57149,1,0
192,104,57449,1,8
256,192,57749,12,4,59099
64,272,64274,6,0,B|136:256|208:296,1,149.999995529652
384,192,66074,1,2
184,192,66674,1,2
448,48,67874,6,0,B|360:48,1,74.9999977648258,2|2
416,112,68474,2,0,B|344:136,1,74.9999977648258,2|2
392,192,69074,2,0,B|336:248,1,74.9999977648258,2|2
288,296,69674,2,0,B|176:192,1,149.999995529652,2|0
40,48,71174,5,2
240,48,72074,2,0,B|312:136|240:232,1,200,2|0
64,320,73874,2,0,B|-8:232|64:136,1,200,2|0
128,136,75074,1,0
192,136,75374,1,0
256,136,75674,6,0,B|368:136,1,99.9999999999999,4|8
392,232,76874,2,0,B|288:232,1,99.9999999999999,0|8
256,192,78074,12,0,80474
384,64,81074,5,8
336,152,81674,2,0,B|456:152,1,99.9999999999999,0|8
384,240,82874,2,0,B|280:240,1,99.9999999999999,0|8
184,240,84074,1,0
88,240,84674,1,8
48,152,85274,6,0,B|152:152,1,99.9999999999999,0|8
248,152,86474,1,0
264,200,86774,1,0
248,248,87074,1,8
336,288,87674,6,0,B|368:192,1,99.9999999999999,0|8
400,96,88874,1,0
368,56,89174,1,0
320,56,89474,1,8
256,192,90074,12,4,92474
328,320,101560,6,0,B|256:280|184:320,1,150,2|0
40,288,102460,2,0,B|136:248,1,99.9999999999999,2|0
328,192,103360,1,2
376,104,103660,1,0
328,16,103960,6,0,B|176:16,1,150,2|0
120,152,104860,2,0,B|176:144|216:176,1,99.9999999999999,2|0
408,120,105760,2,0,B|312:88,1,99.9999999999999,2|0
312,192,106360,6,0,B|352:264|312:336,1,150,2|0
160,336,107260,1,0
64,336,107560,2,0,B|16:240|64:144,1,200,2|0
232,32,108760,6,0,B|80:32,2,150,2|0|0
328,32,109960,1,2
448,192,110560,2,0,B|352:160,1,99.9999999999999,2|0
352,264,111160,6,0,B|288:224|208:264,1,150,2|0
72,328,112060,2,0,B|72:224,1,99.9999999999999,2|0
168,56,112960,1,2
128,144,113260,1,0
168,232,113560,6,0,B|240:256|240:256|312:232,1,150,2|0
448,176,114460,2,0,B|448:288,1,99.9999999999999,2|0
256,336,115360,5,2
256,240,115660,1,0
256,144,115960,1,2
256,192,116110,12,4,118360
160,72,118960,6,0,B|368:72,2,200,2|0|2
112,264,120760,6,0,B|184:304|256:264,1,150,6|0
376,176,121660,2,0,B|376:280,1,99.9999999999999,2|0
256,112,122560,1,2
160,80,122860,1,0
64,112,123160,6,0,B|88:184|88:184|64:256,1,150,2|0
152,376,124060,2,0,B|184:280,1,99.9999999999999,2|0
256,96,124960,2,0,B|256:200,1,99.9999999999999,2|0
336,256,125560,6,0,B|336:192|336:192|368:112,1,150,2|0
496,192,126460,1,0
400,192,126760,2,0,B|296:192,1,99.9999999999999,2|0
280,96,127360,2,0,B|192:144,1,99.9999999999999,2|0
104,192,127960,5,0
256,216,128410,1,0
408,192,128860,2,0,B|512:176,1,99.9999999999999
400,344,129760,2,0,B|296:344,1,99.9999999999999,2|0
200,344,130360,6,0,B|240:272|200:200,1,150,2|0
64,272,131260,2,0,B|176:272,1,99.9999999999999,2|0
264,272,131860,1,0
360,272,132160,2,0,B|384:224|360:176,1,99.9999999999999,2|0
264,144,132760,6,0,B|416:192,1,150,2|0
512,80,133660,2,0,B|416:48,1,99.9999999999999,2|0
216,40,134560,1,2
128,80,134860,1,0
88,168,135160,6,0,B|56:248|120:304,2,150,2|0|0
176,216,136360,2,0,B|256:248|312:184,2,150,2|0|0
232,128,137560,1,2
408,224,138160,5,0
232,320,138760,1,0
56,224,139360,1,0
136,40,139960,6,0,B|208:16|280:56,1,150,4|0
224,136,140710,2,0,B|320:168,2,99.9999999999999
72,136,141760,1,0
48,232,142060,6,0,B|128:224|176:296,1,150
240,368,142810,1,0
336,344,143110,1,0
400,264,143410,2,0,B|424:176|336:144,1,150
248,192,144160,6,0,B|96:192,1,150
56,104,144910,2,0,B|168:104,1,99.9999999999999
256,104,145510,1,0
352,104,145810,2,0,B|408:104,1,50
456,192,146260,6,0,B|304:192,1,150
344,288,147010,1,0
248,288,147310,2,0,B|184:288,1,50
96,288,147760,2,0,B|120:240|96:192,1,99.9999999999999
0,152,148360,6,0,B|152:216,1,150
232,248,149110,1,0
328,208,149410,1,0
416,248,149710,2,0,B|464:272,1,50
392,344,150160,1,0
288,344,150460,6,0,B|208:320|192:240,1,150
288,248,151210,1,0
328,160,151510,1,0
192,104,151960,2,0,B|96:128,1,99.9999999999999
64,224,152560,6,0,B|144:184|200:248,1,150
280,312,153310,2,0,B|280:208,1,99.9999999999999
368,160,153910,2,0,B|368:280,2,99.9999999999999
256,192,154660,12,4,156760
256,192,164485,5,0
