osu file format v12

[General]
AudioFilename: AVALON.mp3
AudioLeadIn: 0
PreviewTime: 120745
Countdown: 0
SampleSet: Normal
StackLeniency: 0.2
Mode: 0
LetterboxInBreaks: 0
UseSkinSprites: 1
WidescreenStoryboard: 0

[Editor]
Bookmarks: 50849,96943,100960,118346,120746
DistanceSpacing: 0.4
BeatDivisor: 8
GridSize: 16

[Metadata]
Title:AVALON
TitleUnicode:AVALON
Artist:Sasakure.UK
ArtistUnicode:Sasakure.UK
Creator:Sharp
Version:Another
Source:BMS
Tags:bof2008
BeatmapID:111358
BeatmapSetID:34222

[Difficulty]
HPDrainRate:7
CircleSize:5
OverallDifficulty:8
ApproachRate:8
SliderMultiplier:1.7
SliderTickRate:0.5

[Events]
//Background and Video events
0,0,"bg.jpg",0,0
//Break Periods
2,156960,163735
//Storyboard Layer 0 (Background)
//Storyboard Layer 1 (Fail)
//Storyboard Layer 2 (Pass)
//Storyboard Layer 3 (Foreground)
//Storyboard Sound Samples
//Background Colour Transformations
3,100,163,162,255

[TimingPoints]
18149,300,4,1,0,60,1,0
36149,-100,4,1,0,40,0,0
59099,3000,4,2,0,30,1,0
62099,-100,4,2,0,5,0,0
64274,1200,4,2,0,50,1,0
64274,-66.6666666666667,4,2,0,20,0,0
66074,600,4,2,0,50,1,0
66074,-50,4,2,0,20,0,0
66374,1200,4,2,0,20,1,0
66674,600,4,2,0,50,1,0
66674,-50,4,2,0,20,0,0
66974,600,4,2,0,50,1,0
66974,-66.6666666666667,4,2,0,20,0,0
67874,600,4,2,0,50,1,0
67874,-66.6666666666667,4,2,0,35,0,0
69674,-66.6666666666667,4,2,0,40,0,0
70274,900.0900090009,4,2,0,30,1,0
75674,600,4,1,0,30,1,0
90824,-100,4,1,0,30,0,0
91724,-50,4,1,0,30,0,0
92474,3750,4,1,0,50,1,0
92474,-200,4,2,0,30,0,0
93411,-200,4,2,0,5,0,0
99974,29.8804780876494,4,2,0,20,1,0
100810,1200,4,2,0,20,1,0
101560,300,4,1,0,50,1,1
101635,-100,4,1,0,50,0,0
108760,-100,4,2,0,30,0,0
111160,-100,4,1,0,50,0,1
111235,-100,4,1,0,50,0,0
120760,-100,4,1,0,50,0,1
127960,-100,4,2,0,30,0,1
130285,-100,4,2,0,30,0,0
130360,-100,4,1,0,50,0,1
139960,-100,4,1,0,50,0,0
164485,3000,4,1,0,50,1,0
164485,-200,4,2,0,5,0,0

[Colours]
Combo1 : 128,128,128
Combo2 : 165,221,248
Combo3 : 246,250,189
Combo4 : 249,189,191

[HitObjects]
320,256,18149,2,0,B|424:256,2,85
256,256,18599,1,0,0:0:0:0:
288,64,19199,5,0,0:0:0:0:
288,64,19499,2,0,B|200:64,2,85
256,128,19949,1,0,0:0:0:0:
224,192,20099,1,0,0:0:0:0:
192,256,20249,2,0,B|104:256,2,85
256,256,20699,1,0,0:0:0:0:
160,64,21299,5,0,0:0:0:0:
160,64,21599,1,0,0:0:0:0:
192,128,21749,1,0,0:0:0:0:
256,256,22049,1,0,0:0:0:0:
384,256,22349,1,0,0:0:0:0:
384,256,22499,22,0,B|352:176,1,85
288,176,22799,2,0,B|256:256,1,85
256,256,23249,1,0,0:0:0:0:
192,256,23399,1,0,0:0:0:0:
128,128,23699,1,0,0:0:0:0:
160,192,23849,1,0,0:0:0:0:
288,192,24149,1,0,0:0:0:0:
160,192,24449,1,0,0:0:0:0:
224,64,24749,6,0,B|304:96,1,85
304,160,25049,2,0,B|224:192,1,85
160,192,25349,1,0,0:0:0:0:
32,192,25649,1,0,0:0:0:0:
96,320,25949,6,0,B|48:320,4,42.5
128,256,26399,1,0,0:0:0:0:
160,192,26549,2,0,B|208:192,7,42.5
224,192,27149,21,0,0:0:0:0:
256,128,27299,1,0,0:0:0:0:
288,192,27449,1,0,0:0:0:0:
256,256,27599,1,0,0:0:0:0:
352,64,28199,5,0,0:0:0:0:
352,64,28499,1,0,0:0:0:0:
320,128,28649,1,0,0:0:0:0:
256,256,28949,1,0,0:0:0:0:
192,256,29099,1,0,0:0:0:0:
128,256,29249,5,0,0:0:0:0:
160,320,29399,1,0,0:0:0:0:
192,256,29549,1,0,0:0:0:0:
160,192,29699,1,0,0:0:0:0:
352,192,30299,21,0,0:0:0:0:
288,320,30599,1,0,0:0:0:0:
224,320,30749,1,0,0:0:0:0:
160,192,31049,1,0,0:0:0:0:
224,192,31199,1,0,0:0:0:0:
160,192,31349,1,0,0:0:0:0:
96,192,31499,5,0,0:0:0:0:
160,64,31799,1,0,0:0:0:0:
192,128,31949,1,0,0:0:0:0:
256,256,32249,1,0,0:0:0:0:
224,192,32399,5,0,0:0:0:0:
288,192,32549,1,0,0:0:0:0:
352,192,32699,1,0,0:0:0:0:
416,192,32849,1,0,0:0:0:0:
160,192,33149,1,0,0:0:0:0:
352,192,33449,1,0,0:0:0:0:
96,192,33749,21,0,0:0:0:0:
128,256,33899,1,0,0:0:0:0:
256,256,34199,1,0,0:0:0:0:
224,192,34349,1,0,0:0:0:0:
224,192,34649,1,0,0:0:0:0:
288,64,34949,6,0,B|240:64,4,42.5
320,128,35399,1,0,0:0:0:0:
352,192,35549,2,0,B|400:192,7,42.5
416,192,36149,6,0,B|448:272,1,85,4|0,0:0|0:0,0:0:0:0:
384,272,36449,1,0,0:0:0:0:
288,192,36599,22,0,B|320:272,1,85
256,272,36899,1,0,0:0:0:0:
160,192,37049,6,0,B|192:272,1,85,0|0,0:0|0:0,0:0:0:0:
128,272,37349,1,0,0:0:0:0:
32,192,37499,6,0,B|64:272,1,85
0,272,37799,1,0,0:0:0:0:
64,112,37949,1,0,0:0:0:0:
64,112,38024,1,0,0:0:0:0:
64,112,38099,1,0,0:0:0:0:
128,272,38249,21,0,0:0:0:0:
192,272,38399,2,0,B|224:352,1,85
192,208,38699,5,0,0:0:0:0:
256,208,38849,2,0,B|288:288,1,85
256,144,39149,5,0,0:0:0:0:
320,144,39299,2,0,B|352:224,1,85
320,80,39599,21,0,0:0:0:0:
384,80,39749,2,0,B|416:160,1,85,0|0,0:0|0:0,0:0:0:0:
448,288,40049,1,0,0:0:0:0:
448,288,40124,1,0,0:0:0:0:
448,288,40199,1,0,0:0:0:0:
320,288,40349,6,0,B|352:208,1,85
320,144,40649,1,0,0:0:0:0:
224,256,40799,6,0,B|256:176,1,85
224,112,41099,1,0,0:0:0:0:
128,224,41249,22,0,B|160:144,1,85
128,80,41549,1,0,0:0:0:0:
32,192,41699,6,0,B|64:112,1,85
32,48,41999,1,0,0:0:0:0:
96,176,42149,5,0,0:0:0:0:
160,48,42299,1,0,0:0:0:0:
224,176,42449,22,0,B|256:96,2,85
288,208,42899,6,0,B|320:128,2,85
352,240,43349,6,0,B|384:160,2,85
416,272,43799,22,0,B|448:192,2,85
480,128,44249,1,0,0:0:0:0:
480,128,44324,1,0,0:0:0:0:
480,128,44399,1,0,0:0:0:0:
448,0,44549,5,0,0:0:0:0:
416,64,44699,1,0,0:0:0:0:
384,128,44849,1,0,0:0:0:0:
416,192,44999,6,0,B|448:272,2,85
352,64,45449,21,0,0:0:0:0:
320,128,45599,1,0,0:0:0:0:
288,192,45749,1,0,0:0:0:0:
320,256,45899,6,0,B|352:336,2,85
256,128,46349,5,0,0:0:0:0:
192,256,46499,1,0,0:0:0:0:
128,128,46649,22,0,B|96:48,1,85
160,48,46949,1,0,0:0:0:0:
224,192,47099,6,0,B|192:112,1,85
256,112,47399,1,0,0:0:0:0:
320,256,47549,6,0,B|288:176,1,85
352,176,47849,1,0,0:0:0:0:
416,320,47999,22,0,B|384:240,1,85
448,240,48299,1,0,0:0:0:0:
352,176,48449,2,0,B|320:96,1,85
320,256,48749,5,0,0:0:0:0:
256,256,48899,1,0,0:0:0:0:
192,256,49049,1,0,0:0:0:0:
160,192,49199,5,0,0:0:0:0:
224,192,49349,1,0,0:0:0:0:
288,192,49499,1,0,0:0:0:0:
320,128,49649,21,0,0:0:0:0:
256,128,49799,1,0,0:0:0:0:
192,128,49949,1,0,0:0:0:0:
160,64,50099,5,0,0:0:0:0:
224,64,50249,1,0,0:0:0:0:
288,64,50399,1,0,0:0:0:0:
352,64,50549,1,0,0:0:0:0:
352,64,50624,1,0,0:0:0:0:
352,64,50699,1,0,0:0:0:0:
384,128,50849,6,0,B|400:208|400:208|384:296,1,170,4|8,0:0|0:0,0:0:0:0:
320,280,51299,1,0,0:0:0:0:
256,264,51449,2,0,B|176:280|176:280|88:264,1,170,0|8,0:0|0:0,0:0:0:0:
16,184,51899,2,0,B|104:184,1,85
384,128,52349,1,8,0:0:0:0:
320,128,52649,1,0,0:0:0:0:
256,128,52949,1,8,0:0:0:0:
128,64,53249,22,0,B|112:144|112:144|128:232,1,170,0|8,0:0|0:0,0:0:0:0:
152,296,53699,1,0,0:0:0:0:
216,296,53849,2,0,B|304:296,1,85
392,232,54149,1,8,0:0:0:0:
328,232,54299,2,0,B|240:232,1,85
32,160,54749,1,8,0:0:0:0:
96,160,55049,1,0,0:0:0:0:
160,160,55349,1,8,0:0:0:0:
288,224,55649,6,0,B|304:144|304:144|288:56,1,170,0|8,0:0|0:0,0:0:0:0:
368,128,56099,2,0,B|352:208|352:208|368:296,1,170
304,304,56549,2,0,B|208:304,1,85,8|0,0:0|0:0,0:0:0:0:
152,304,56849,2,0,B|168:264|168:264|152:224,1,85
128,160,57149,1,8,0:0:0:0:
128,160,57299,2,0,B|296:160,1,170
448,96,57749,5,8,0:0:0:0:
384,96,57899,1,0,0:0:0:0:
320,96,58049,1,0,0:0:0:0:
256,96,58199,1,0,0:0:0:0:
192,96,58349,1,8,0:0:0:0:
128,96,58499,2,0,B|16:96,1,85
192,160,58799,2,0,B|80:160,1,85,0|0,0:0|0:0,0:0:0:0:
256,224,59099,6,0,B|104:224|104:224|108:224|108:224|84:224|84:224|88:224|88:224|68:224|68:224|72:224|72:224|56:224|56:224|60:224|60:224|44:224|44:224|48:224|48:224|40:224|40:224|16:240,1,276.25,4|0,0:0|0:0,0:0:0:0:
48,304,64274,6,0,B|72:328|104:328,1,63.749998100102
176,320,64724,1,0,0:0:0:0:
240,288,64874,1,0,0:0:0:0:
272,224,65024,1,0,0:0:0:0:
240,160,65174,1,0,0:0:0:0:
176,128,65324,5,0,0:0:0:0:
208,192,65474,1,0,0:0:0:0:
272,224,65624,1,0,0:0:0:0:
336,192,65774,1,0,0:0:0:0:
368,128,65924,1,0,0:0:0:0:
336,64,66074,6,0,B|224:64,1,85,2|0,0:0|0:0,0:0:0:0:
96,128,66374,6,0,B|128:128,1,21.25
208,192,66674,6,0,B|96:192,1,85,2|0,0:0|0:0,0:0:0:0:
16,192,66974,5,0,0:0:0:0:
80,160,67124,1,0,0:0:0:0:
144,192,67274,1,0,0:0:0:0:
176,256,67424,1,0,0:0:0:0:
144,320,67574,5,2,0:0:0:0:
144,320,67649,1,0,0:0:0:0:
144,320,67724,1,0,0:0:0:0:
176,256,67874,21,2,0:0:0:0:
208,192,68024,1,0,0:0:0:0:
240,128,68174,1,2,0:0:0:0:
272,64,68324,1,0,0:0:0:0:
368,128,68474,6,0,B|288:128,3,63.749998100102,2|0|2|0,0:0|0:0|0:0|0:0,0:0:0:0:
144,192,69074,6,0,B|224:192,3,63.749998100102,2|0|2|0,0:0|0:0|0:0|0:0,0:0:0:0:
336,256,69674,21,2,0:0:0:0:
256,272,69824,1,2,0:0:0:0:
176,256,69974,1,2,0:0:0:0:
96,272,70124,1,2,0:0:0:0:
16,256,70274,6,0,B|72:176|32:112,1,148.75,2|0,0:0|0:0,0:0:0:0:
16,88,71174,2,0,B|104:128|192:104,1,170
240,80,72374,1,0,0:0:0:0:
304,64,72674,1,0,0:0:0:0:
368,80,72974,2,0,B|424:112|416:184,1,113.333333333333
488,152,73874,2,0,B|488:216|440:256,1,113.333333333333
384,272,74774,1,0,0:0:0:0:
320,288,75074,1,0,0:0:0:0:
256,304,75374,1,0,0:0:0:0:
192,320,75674,6,0,B|128:320,1,42.5,4|0,0:0|0:0,0:0:0:0:
160,256,75974,2,0,B|112:256,1,42.5
44,192,76274,2,0,B|132:192,1,85,8|0,0:0|0:0,0:0:0:0:
384,128,76874,21,0,0:0:0:0:
320,128,77174,1,0,0:0:0:0:
256,128,77474,1,8,0:0:0:0:
192,128,77774,1,0,0:0:0:0:
64,64,78074,5,0,0:0:0:0:
64,64,78374,1,0,0:0:0:0:
96,128,78524,2,0,B|144:128,2,42.5,0|8|0,0:0|0:0|0:0,0:0:0:0:
96,128,79124,1,0,0:0:0:0:
192,192,79274,6,0,B|144:192,3,42.5
48,256,79874,2,0,B|144:256,1,85,8|0,0:0|0:0,0:0:0:0:
464,320,80474,22,0,B|368:320,1,85
256,320,81074,1,8,0:0:0:0:
64,192,81674,1,0,0:0:0:0:
256,64,82274,1,8,0:0:0:0:
448,192,82874,5,0,0:0:0:0:
256,64,83474,1,8,0:0:0:0:
64,192,84074,1,0,0:0:0:0:
256,320,84674,1,8,0:0:0:0:
320,64,85274,6,0,B|384:64,1,42.5
352,128,85574,2,0,B|400:128,1,42.5
468,192,85874,2,0,B|380:192,1,85,8|0,0:0|0:0,0:0:0:0:
256,320,86474,21,0,0:0:0:0:
256,320,86624,2,0,B|192:320,1,42.5
80,272,87074,1,8,0:0:0:0:
80,272,87224,6,0,B|16:272,2,42.5
144,272,87674,2,0,B|320:272,1,170,0|8,0:0|0:0,0:0:0:0:
448,144,88574,1,0,0:0:0:0:
448,144,88874,2,0,B|352:144,1,85
160,80,89474,1,8,0:0:0:0:
224,80,89774,1,0,0:0:0:0:
288,80,90074,5,0,0:0:0:0:
288,80,90374,2,0,B|352:80,1,42.5
416,192,90824,22,0,B|464:192,2,42.5
352,192,91274,1,0,0:0:0:0:
288,192,91424,1,0,0:0:0:0:
224,192,91574,1,0,0:0:0:0:
160,192,91724,2,0,B|64:192,1,85
192,128,92024,2,0,B|96:128,1,85
140,64,92324,1,0,0:0:0:0:
140,64,92474,38,0,B|284:64,1,138.125,4|0,0:0|0:0,0:0:0:0:
224,192,100003,6,0,B|224:200|224:200|232:216|232:216|248:224|248:224|264:224|264:224|280:216|280:216|288:200|288:200|288:184|288:184|280:168|280:168|264:160|264:160|248:160|248:160|232:168|232:168|224:184|224:184|224:200|224:200|232:216|232:216|248:224|248:224|264:224|264:224|280:216|280:216|288:200|288:200|288:184|288:184|280:168|280:168|264:160|264:160|248:160|248:160|232:168|232:168|224:184|224:184|224:200|224:200|232:216|232:216|248:224|248:224|264:224|264:224|280:216|280:216|288:200|288:200|288:184|288:184|280:168|280:168|264:160|264:160|248:160|248:160|232:168|232:168|224:184|224:184|224:200|224:200|232:216|232:216|248:224|248:224|264:224|264:224|280:216|280:216|288:200|288:200|288:184|288:184|280:168|280:168|264:160|264:160|248:160|248:160|232:168|232:168|224:184|224:184|224:200|224:200|232:216|232:216|248:224|248:224|264:224|264:224|280:216|280:216|288:200|288:200|288:184|288:184|280:168|280:168|264:160|264:160|248:160|248:160|232:168|232:168|224:184|224:184|224:200|224:200|232:216|232:216|248:224|248:224|264:224|264:224|280:216|280:216|288:200|288:200|288:184|288:184|280:168|280:168|264:160|264:160|248:160|248:160|232:168|232:168|224:184|224:184|224:200|224:200|232:216|232:216|248:224|248:224|264:224|264:224|280:216|280:216|288:200|288:200|288:184|288:184|280:168|280:168|264:160|264:160|248:160|248:160|232:168|232:168|224:184|224:184|224:200|224:200|232:216|232:216|248:224|248:224|264:224|264:224|280:216|280:216|288:200|288:200|288:184|288:184|280:168|280:168|264:160|264:160|248:160|248:160|232:168|232:168|224:184|224:184|224:200|224:200|232:216|232:216|248:224|248:224|264:224|264:224|280:216|280:216|288:200|288:200|288:184|288:184|280:168|280:168|264:160|264:160|248:160|248:160|232:168|232:168|224:184|224:184|224:200|224:200|232:216|232:216|248:224|248:224|264:224|264:224|280:216|280:216|288:200|288:200|288:120,2,2040
224,192,101560,6,0,B|304:140|384:192,1,170,6|0,0:0|0:0,0:0:0:0:
496,96,102010,2,0,B|416:148|336:96,1,170,2|0,0:0|0:0,0:0:0:0:
176,32,102460,2,0,B|272:32,1,85,2|0,0:0|0:0,0:0:0:0:
208,144,102760,2,0,B|112:144,1,85,2|0,0:0|0:0,0:0:0:0:
112,16,103060,2,0,B|144:0|144:0|192:0,1,85,0|0,0:0|0:0,0:0:0:0:
256,160,103360,2,0,B|224:176|224:176|176:176,1,85
256,32,103660,1,2,0:0:0:0:
320,64,103810,1,0,0:0:0:0:
384,96,103960,6,0,B|416:176|416:176|384:256,1,170,2|0,0:0|0:0,0:0:0:0:
464,256,104410,2,0,B|272:256,1,170,2|0,0:0|0:0,0:0:0:0:
192,336,104860,2,0,B|288:336,1,85,2|0,0:0|0:0,0:0:0:0:
320,176,105160,1,2,0:0:0:0:
256,176,105310,1,0,0:0:0:0:
192,176,105460,1,0,0:0:0:0:
128,176,105610,1,0,0:0:0:0:
64,176,105760,2,0,B|32:192|32:192|16:240,1,85,2|0,0:0|0:0,0:0:0:0:
96,272,106060,2,0,B|64:352,1,85,2|0,0:0|0:0,0:0:0:0:
192,336,106360,22,0,B|140:256|192:176,1,170,2|0,0:0|0:0,0:0:0:0:
160,64,106810,2,0,B|80:224,1,170,2|0,0:0|0:0,0:0:0:0:
0,128,107260,2,0,B|96:128,1,85,2|0,0:0|0:0,0:0:0:0:
320,48,107560,6,0,B|372:128|320:208,1,170,2|0,0:0|0:0,0:0:0:0:
240,240,108010,2,0,B|400:176,1,170,2|0,0:0|0:0,0:0:0:0:
480,144,108460,1,2,0:0:0:0:
384,48,108760,5,0,0:0:0:0:
373,61,108835,1,0,0:0:0:0:
363,75,108910,1,0,0:0:0:0:
356,90,108985,1,0,0:0:0:0:
351,106,109060,1,0,0:0:0:0:
349,122,109135,1,0,0:0:0:0:
348,138,109210,1,0,0:0:0:0:
348,154,109285,1,0,0:0:0:0:
350,170,109360,1,0,0:0:0:0:
352,186,109435,1,0,0:0:0:0:
351,202,109510,1,0,0:0:0:0:
349,218,109585,1,0,0:0:0:0:
346,234,109660,1,0,0:0:0:0:
340,250,109735,1,0,0:0:0:0:
328,262,109810,1,0,0:0:0:0:
314,272,109885,1,0,0:0:0:0:
298,279,109960,21,0,0:0:0:0:
281,282,110035,1,0,0:0:0:0:
264,280,110110,1,0,0:0:0:0:
249,270,110185,1,0,0:0:0:0:
237,257,110260,1,0,0:0:0:0:
230,241,110335,1,0,0:0:0:0:
227,224,110410,1,0,0:0:0:0:
228,207,110485,1,0,0:0:0:0:
233,191,110560,1,0,0:0:0:0:
233,174,110635,1,0,0:0:0:0:
225,158,110710,1,0,0:0:0:0:
211,147,110785,1,0,0:0:0:0:
195,139,110860,1,0,0:0:0:0:
178,137,110935,1,0,0:0:0:0:
161,140,111010,1,0,0:0:0:0:
145,147,111085,1,0,0:0:0:0:
134,160,111160,6,0,B|80:240|128:320,1,170,6|0,0:0|0:0,0:0:0:0:
288,368,111610,2,0,B|192:368,1,85,2|0,0:0|0:0,0:0:0:0:
256,256,111910,1,0,0:0:0:0:
320,256,112060,1,2,0:0:0:0:
384,256,112210,1,0,0:0:0:0:
384,256,112360,2,0,B|332:176|384:96,1,170,2|0,0:0|0:0,0:0:0:0:
432,176,112810,1,0,0:0:0:0:
432,176,112960,2,0,B|256:176,1,170,0|2,0:0|0:0,0:0:0:0:
128,176,113410,1,0,0:0:0:0:
176,288,113560,6,0,B|208:208|208:208|176:128,1,170,2|0,0:0|0:0,0:0:0:0:
96,96,114010,2,0,B|256:160,1,170,2|0,0:0|0:0,0:0:0:0:
432,176,114460,1,2,0:0:0:0:
352,144,114610,1,0,0:0:0:0:
272,112,114760,2,0,B|192:144|192:144|160:224,1,170,2|0,0:0|0:0,0:0:0:0:
272,336,115210,1,0,0:0:0:0:
272,336,115360,2,0,B|352:304|352:304|384:224,1,170,0|2,0:0|0:0,0:0:0:0:
352,80,115810,1,0,0:0:0:0:
272,112,115960,22,0,B|192:144|192:144|96:144,1,170,2|0,0:0|0:0,0:0:0:0:
0,240,116410,2,0,B|176:240,1,170,2|0,0:0|0:0,0:0:0:0:
272,336,116860,2,0,B|176:336,1,85,2|0,0:0|0:0,0:0:0:0:
64,192,117160,1,0,0:0:0:0:
128,192,117310,1,0,0:0:0:0:
192,192,117460,1,2,0:0:0:0:
256,192,117610,1,0,0:0:0:0:
320,192,117760,2,0,B|352:112|352:112|320:32,1,170,0|2,0:0|0:0,0:0:0:0:
64,80,118360,5,0,0:0:0:0:
72,96,118435,1,0,0:0:0:0:
80,112,118510,1,0,0:0:0:0:
88,128,118585,1,0,0:0:0:0:
96,144,118660,1,0,0:0:0:0:
176,144,118810,5,0,0:0:0:0:
184,160,118885,1,0,0:0:0:0:
192,176,118960,1,0,0:0:0:0:
200,192,119035,1,0,0:0:0:0:
208,208,119110,1,0,0:0:0:0:
288,208,119260,22,0,B|304:248,2,42.5
448,304,119560,5,0,0:0:0:0:
440,288,119635,1,0,0:0:0:0:
432,272,119710,1,0,0:0:0:0:
424,256,119785,1,0,0:0:0:0:
416,240,119860,2,0,B|384:160,1,85
400,128,120085,2,0,B|360:112,1,42.5
360,32,120310,5,0,0:0:0:0:
344,40,120385,1,0,0:0:0:0:
328,48,120460,1,0,0:0:0:0:
312,56,120535,1,0,0:0:0:0:
296,64,120610,1,0,0:0:0:0:
192,48,120760,22,0,B|244:128|192:208,1,170,6|8,0:0|0:0,0:0:0:0:
64,160,121210,2,0,B|160:160,1,85,2|0,0:0|0:0,0:0:0:0:
320,256,121510,1,0,0:0:0:0:
320,256,121660,2,0,B|208:256,1,85,10|0,0:0|0:0,0:0:0:0:
96,256,121960,2,0,B|32:304|104:376|160:320,1,170,2|8,0:0|0:0,0:0:0:0:
256,352,122410,1,0,0:0:0:0:
256,352,122560,2,0,B|204:272|256:192,1,170,0|10,0:0|0:0,0:0:0:0:
224,32,123010,1,0,0:0:0:0:
192,96,123160,6,0,B|368:96,1,170,2|8,0:0|0:0,0:0:0:0:
512,176,123610,1,2,0:0:0:0:
448,176,123760,1,0,0:0:0:0:
384,176,123910,2,0,B|336:176|336:176|304:192,1,85,0|10,0:0|0:0,0:0:0:0:
320,256,124210,1,0,0:0:0:0:
336,320,124360,2,0,B|160:320,1,170,2|8,0:0|0:0,0:0:0:0:
64,320,124810,1,0,0:0:0:0:
64,320,124960,2,0,B|88:280|64:240,1,85,2|0,0:0|0:0,0:0:0:0:
128,80,125260,2,0,B|104:120|128:160,1,85,10|0,0:0|0:0,0:0:0:0:
208,192,125560,6,0,B|48:128,1,170,2|8,0:0|0:0,0:0:0:0:
256,112,126010,2,0,B|275:205|369:225,1,170,2|0,0:0|0:0,0:0:0:0:
496,304,126460,2,0,B|400:304,1,85,10|0,0:0|0:0,0:0:0:0:
208,352,126760,2,0,B|260:272|208:192,1,170,2|8,0:0|0:0,0:0:0:0:
144,160,127210,1,2,0:0:0:0:
80,192,127360,1,0,0:0:0:0:
48,256,127510,1,0,0:0:0:0:
80,320,127660,2,0,B|176:320,1,85,10|0,0:0|0:0,0:0:0:0:
304,352,127960,21,0,0:0:0:0:
293,339,128035,1,0,0:0:0:0:
283,325,128110,1,0,0:0:0:0:
276,310,128185,1,0,0:0:0:0:
271,294,128260,1,0,0:0:0:0:
269,278,128335,1,0,0:0:0:0:
268,262,128410,1,0,0:0:0:0:
268,246,128485,1,0,0:0:0:0:
270,230,128560,1,0,0:0:0:0:
272,214,128635,1,0,0:0:0:0:
271,198,128710,1,0,0:0:0:0:
269,182,128785,1,0,0:0:0:0:
266,166,128860,1,0,0:0:0:0:
260,150,128935,1,0,0:0:0:0:
248,138,129010,1,0,0:0:0:0:
234,128,129085,1,0,0:0:0:0:
218,121,129160,5,0,0:0:0:0:
201,118,129235,1,0,0:0:0:0:
184,120,129310,1,0,0:0:0:0:
169,130,129385,1,0,0:0:0:0:
157,143,129460,1,0,0:0:0:0:
150,159,129535,1,0,0:0:0:0:
147,176,129610,1,0,0:0:0:0:
148,193,129685,1,0,0:0:0:0:
153,209,129760,1,0,0:0:0:0:
153,226,129835,1,0,0:0:0:0:
145,242,129910,1,0,0:0:0:0:
131,253,129985,1,0,0:0:0:0:
115,261,130060,1,0,0:0:0:0:
98,263,130135,1,0,0:0:0:0:
81,260,130210,1,0,0:0:0:0:
65,253,130285,1,0,0:0:0:0:
54,240,130360,6,0,B|0:160|48:80,1,170,6|8,0:0|0:0,0:0:0:0:
256,192,130810,2,0,B|144:192,1,85,2|0,0:0|0:0,0:0:0:0:
224,80,131110,1,0,0:0:0:0:
288,80,131260,2,0,B|384:80,1,85,10|0,0:0|0:0,0:0:0:0:
512,192,131560,2,0,B|432:160|432:160|336:160,1,170,2|8,0:0|0:0,0:0:0:0:
176,160,132010,1,0,0:0:0:0:
176,160,132160,2,0,B|152:200|176:240,1,85
336,288,132460,2,0,B|360:248|336:208,1,85,10|0,0:0|0:0,0:0:0:0:
192,128,132760,22,0,B|16:128,1,170,2|8,0:0|0:0,0:0:0:0:
128,48,133210,1,2,0:0:0:0:
128,48,133285,1,0,0:0:0:0:
128,48,133360,2,0,B|224:48,1,85
384,48,133660,2,0,B|408:88|384:128,1,85,10|0,0:0|0:0,0:0:0:0:
448,320,133960,2,0,B|396:240|448:160,1,170,2|8,0:0|0:0,0:0:0:0:
304,192,134410,1,0,0:0:0:0:
304,192,134560,2,0,B|192:192,1,85,0|0,0:0|0:0,0:0:0:0:
240,256,134860,2,0,B|144:256,1,85,10|0,0:0|0:0,0:0:0:0:
48,256,135160,6,0,B|100:176|48:96,1,170,2|8,0:0|0:0,0:0:0:0:
128,96,135610,1,2,0:0:0:0:
128,96,135685,1,0,0:0:0:0:
128,96,135760,2,0,B|224:96,1,85,0|0,0:0|0:0,0:0:0:0:
208,192,136060,2,0,B|288:160,1,85,10|0,0:0|0:0,0:0:0:0:
368,128,136360,6,0,B|316:208|368:288,1,170,0|10,0:0|0:0,0:0:0:0:
288,288,136810,1,0,0:0:0:0:
288,288,136885,1,0,0:0:0:0:
288,288,136960,2,0,B|192:288,1,85,0|0,0:0|0:0,0:0:0:0:
80,224,137260,2,0,B|176:224,1,85,10|0,0:0|0:0,0:0:0:0:
368,128,137560,22,0,B|320:112,15,42.5,0|0|0|0|8|0|0|0|0|0|0|0|8|0|0|0,0:0|0:0|0:0|0:0|0:0|0:0|0:0|0:0|0:0|0:0|0:0|0:0|0:0|0:0|0:0|0:0,0:0:0:0:
336,160,138760,6,0,B|320:208,3,42.5
288,176,139060,2,0,B|240:192,3,42.5,8|0|0|0,0:0|0:0|0:0|0:0,0:0:0:0:
272,224,139360,2,0,B|256:272,3,42.5
224,240,139660,2,0,B|176:256,3,42.5,8|0|0|0,0:0|0:0|0:0|0:0,0:0:0:0:
208,288,139960,6,0,B|176:368,1,85,4|0,0:0|0:0,0:0:0:0:
112,368,140260,1,0,0:0:0:0:
48,368,140410,1,0,0:0:0:0:
112,240,140710,1,0,0:0:0:0:
48,112,141010,1,0,0:0:0:0:
112,240,141310,1,0,0:0:0:0:
176,240,141460,1,0,0:0:0:0:
240,240,141610,2,0,B|336:240,2,85
272,176,142060,21,0,0:0:0:0:
208,176,142210,1,0,0:0:0:0:
144,176,142360,1,0,0:0:0:0:
80,176,142510,1,0,0:0:0:0:
336,176,142810,1,0,0:0:0:0:
144,176,143110,1,0,0:0:0:0:
400,176,143410,1,0,0:0:0:0:
368,240,143560,1,0,0:0:0:0:
336,304,143710,1,0,0:0:0:0:
304,368,143860,2,0,B|208:368,2,85
336,304,144310,5,0,0:0:0:0:
272,304,144460,1,0,0:0:0:0:
208,304,144610,2,0,B|240:224,1,85
176,224,144910,1,0,0:0:0:0:
112,224,145060,1,0,0:0:0:0:
48,224,145210,2,0,B|80:144,1,85
144,144,145510,1,0,0:0:0:0:
208,144,145660,1,0,0:0:0:0:
272,144,145810,2,0,B|304:64,2,85
240,208,146260,5,0,0:0:0:0:
208,272,146410,1,0,0:0:0:0:
176,336,146560,1,0,0:0:0:0:
208,272,146710,1,0,0:0:0:0:
144,144,147010,1,0,0:0:0:0:
112,208,147160,21,0,0:0:0:0:
176,208,147310,1,0,0:0:0:0:
240,208,147460,1,0,0:0:0:0:
304,208,147610,1,0,0:0:0:0:
368,208,147760,1,0,0:0:0:0:
432,208,147910,2,0,B|528:208,1,85
400,144,148210,2,0,B|496:144,1,85
336,272,148660,5,0,0:0:0:0:
272,272,148810,1,0,0:0:0:0:
208,144,149110,1,0,0:0:0:0:
144,272,149410,1,0,0:0:0:0:
272,272,149710,1,0,0:0:0:0:
240,208,149860,1,0,0:0:0:0:
208,144,150010,2,0,B|176:224,1,85
112,224,150310,2,0,B|80:144,1,85
48,80,150610,5,0,0:0:0:0:
112,80,150760,1,0,0:0:0:0:
176,80,150910,1,0,0:0:0:0:
240,208,151210,1,0,0:0:0:0:
176,336,151510,1,0,0:0:0:0:
304,336,151810,21,0,0:0:0:0:
336,272,151960,1,0,0:0:0:0:
304,208,152110,1,0,0:0:0:0:
272,272,152260,1,0,0:0:0:0:
240,208,152410,1,0,0:0:0:0:
208,144,152560,2,0,B|176:64,1,85
112,64,152860,2,0,B|80:144,1,85
16,272,153310,1,0,0:0:0:0:
80,272,153460,6,0,B|176:272,1,85
304,208,153910,1,0,0:0:0:0:
240,208,154060,2,0,B|144:208,2,85
256,192,154510,12,4,156760,0:0:0:0:
256,192,164485,22,0,B|256:208,1,10.625
