osu file format v9

[General]
AudioFilename: Zzz.mp3
AudioLeadIn: 0
PreviewTime: 20239
Countdown: 0
SampleSet: Soft
StackLeniency: 0.7
Mode: 0
LetterboxInBreaks: 0

[Editor]
Bookmarks: 96603,245434
DistanceSpacing: 1
BeatDivisor: 4
GridSize: 4

[Metadata]
Title:Zzz
Artist:Sasaki Sayaka
Creator:Sumisola
Version:Insane
Source:Nichijou
Tags:Aria Okamiroy hakase nano richang sleep aoi

[Difficulty]
HPDrainRate:8
CircleSize:4
OverallDifficulty:7
ApproachRate:8
SliderMultiplier:1.9
SliderTickRate:1

[Events]
//Background and Video events
0,0,"BG1.jpg"
//Break Periods
2,76543,88060
2,166932,178450
2,191867,197151
//Storyboard Layer 0 (Background)
//Storyboard Layer 1 (Fail)
//Storyboard Layer 2 (Pass)
//Storyboard Layer 3 (Foreground)
//Storyboard Sound Samples
//Background Colour Transformations
3,100,163,162,255

[TimingPoints]
4655,389.61038961039,4,2,2,50,1,0
5044,-100,4,2,1,50,0,0
10888,-100,4,2,1,50,0,0
17122,-100,4,2,0,50,0,0
17219,-100,4,2,1,50,0,0
17901,-100,4,2,1,50,0,0
18291,-100,4,2,1,40,0,0
18486,-100,4,2,1,50,0,0
18875,-100,4,2,1,50,0,0
19460,-100,4,2,1,30,0,0
20239,-100,4,2,1,50,0,0
25693,-100,4,2,1,50,0,0
26473,-100,4,2,1,50,0,0
31148,-100,4,2,1,30,0,0
31635,-100,4,2,1,50,0,0
31927,-200,4,2,1,5,0,0
32414,-100,4,2,1,50,0,0
32706,-100,4,2,1,50,0,0
38161,-100,4,2,1,50,0,0
38940,-100,4,2,1,50,0,0
44395,-100,4,1,1,40,0,0
44784,-100,4,2,1,60,0,0
45077,-100,4,2,1,60,0,0
45174,-100,4,2,2,60,0,0
47901,-100,4,1,1,30,0,0
47999,-100,4,2,1,30,0,0
48193,-100,4,2,1,30,0,0
48291,-100,4,2,2,60,0,0
51408,-100,4,2,1,60,0,0
56083,-100,4,2,1,60,0,0
57447,-100,4,2,1,50,0,1
57544,-100,4,2,1,70,0,0
58031,-100,4,2,1,70,0,0
58421,-100,4,2,1,70,0,0
59103,-100,4,2,1,70,0,0
59590,-100,4,2,1,70,0,0
59979,-100,4,2,1,70,0,0
60758,-100,4,2,1,50,0,0
61148,-100,4,2,1,70,0,0
73031,-100,4,1,1,40,0,0
73323,-100,4,2,1,70,0,0
74005,-100,4,2,1,70,0,0
74590,-100,4,2,1,40,0,0
74784,-100,4,2,1,50,0,0
88762,-100,4,2,1,5,0,0
91148,-100,4,2,1,50,0,0
101278,-100,4,2,1,50,0,0
109849,-100,4,2,1,50,0,0
110629,-100,4,2,1,50,0,0
116083,-100,4,1,1,40,0,0
116862,-100,4,2,1,70,0,1
116911,-100,4,2,1,70,0,0
117252,-100,4,1,0,60,0,0
117349,-100,4,2,1,60,0,0
118031,-100,4,1,0,60,0,0
118129,-100,4,2,1,60,0,0
118810,-100,4,1,0,60,0,0
118908,-100,4,2,1,60,0,0
119590,-100,4,1,0,60,0,0
119979,-100,4,2,1,60,0,0
120369,-100,4,1,0,60,0,0
120466,-100,4,2,1,60,0,0
121148,-100,4,1,0,60,0,0
121245,-100,4,2,1,60,0,0
121927,-100,4,1,0,60,0,0
122025,-100,4,2,1,60,0,0
122512,-100,4,1,0,60,0,0
122999,-100,4,2,1,60,0,0
127771,-100,4,2,1,60,0,0
129330,-100,4,2,1,70,0,1
134005,-100,4,2,1,70,0,1
135856,-100,4,2,1,70,0,1
136927,-100,4,2,1,70,0,1
138680,-100,4,2,1,70,0,1
140044,-100,4,2,1,70,0,1
141797,-100,4,2,1,60,0,0
142187,-100,4,1,0,40,0,0
142284,-100,4,2,1,60,0,0
142966,-100,4,1,0,40,0,0
143064,-100,4,2,1,50,0,0
143745,-100,4,1,0,40,0,0
143843,-100,4,2,1,50,0,0
144525,-100,4,1,0,40,0,0
144622,-100,4,2,1,50,0,0
145304,-100,4,1,0,40,0,0
145401,-100,4,2,1,50,0,0
146083,-100,4,1,0,40,0,0
146180,-100,4,2,1,50,0,0
146862,-100,4,1,0,40,0,0
146960,-100,4,2,1,50,0,0
147642,-100,4,1,0,40,0,0
147739,-100,4,2,1,50,0,0
148421,-100,4,1,0,40,0,0
148518,-100,4,2,1,50,0,0
149200,-100,4,1,0,40,0,0
149297,-100,4,2,1,50,0,0
149979,-100,4,1,0,40,0,0
150077,-100,4,2,1,50,0,0
150758,-100,4,1,0,40,0,0
150856,-100,4,2,1,50,0,0
151538,-100,4,1,0,40,0,0
151635,-100,4,2,1,50,0,0
152317,-100,4,1,0,40,0,0
152414,-100,4,2,1,50,0,0
152706,-100,4,1,1,30,0,0
153486,-100,4,2,1,50,0,0
154265,-100,4,2,1,50,0,0
154655,-100,4,1,0,40,0,0
154752,-100,4,2,1,50,0,0
155434,-100,4,1,0,40,0,0
155531,-100,4,2,1,50,0,0
156213,-100,4,1,0,40,0,0
156310,-100,4,2,1,50,0,0
156992,-100,4,1,0,40,0,0
157090,-100,4,2,1,50,0,0
157771,-100,4,1,0,40,0,0
157869,-100,4,2,1,50,0,0
158551,-100,4,1,0,40,0,0
158648,-100,4,2,1,50,0,0
158940,-100,4,2,1,50,0,0
159330,-100,4,1,0,40,0,0
159427,-100,4,2,1,50,0,0
160109,-100,4,1,1,40,0,0
160401,-100,4,2,1,50,0,0
160888,-100,4,1,0,40,0,0
160986,-100,4,2,1,50,0,0
161667,-100,4,1,0,40,0,0
161765,-100,4,2,1,50,0,0
162447,-100,4,1,0,40,0,0
162544,-100,4,2,1,50,0,0
163226,-100,4,1,0,40,0,0
163323,-100,4,2,1,50,0,0
164005,-100,4,1,0,40,0,0
164103,-100,4,2,1,50,0,0
164784,-100,4,1,0,40,0,0
164882,-100,4,2,1,50,0,0
165369,-100,4,1,0,40,0,0
165758,-100,4,2,1,50,0,0
165953,-100,4,1,0,40,0,0
166051,-100,4,2,1,50,0,0
166343,-100,4,1,0,40,0,0
166732,-100,4,2,1,50,0,0
179200,-100,4,2,1,50,0,1
179297,-100,4,2,1,50,0,0
179590,-100,4,1,0,50,0,0
179687,-100,4,2,1,50,0,0
180369,-100,4,1,1,50,0,0
180466,-100,4,2,1,50,0,0
181148,-100,4,1,1,50,0,0
181245,-100,4,2,1,50,0,0
181927,-100,4,1,0,50,0,0
182025,-100,4,2,1,50,0,0
182706,-100,4,1,0,50,0,0
182804,-100,4,2,1,50,0,0
183486,-100,4,1,0,50,0,0
183583,-100,4,2,1,50,0,0
184265,-100,4,1,0,50,0,0
184362,-100,4,2,1,50,0,0
185823,-100,4,1,0,50,0,0
185921,-100,4,2,1,50,0,0
186603,-100,4,1,0,50,0,0
186700,-100,4,2,1,50,0,0
187382,-100,4,1,0,50,0,0
187479,-100,4,2,1,50,0,0
188161,-100,4,1,0,50,0,0
188258,-100,4,2,1,50,0,0
188940,-100,4,1,0,50,0,0
189038,-100,4,2,1,50,0,0
189719,-100,4,1,0,50,0,0
189817,-100,4,2,1,50,0,0
190304,-100,4,1,1,40,0,0
190693,-100,4,2,1,50,0,0
190791,-100,4,1,1,40,0,0
191667,-100,4,2,1,40,0,0
197901,-100,4,2,1,50,0,0
202577,-100,4,2,1,50,0,0
204135,-100,4,2,1,60,0,0
204914,-100,4,2,1,60,0,0
205693,-100,4,2,1,60,0,0
206473,-100,4,2,1,60,0,0
207057,-100,4,2,1,60,0,0
211732,-100,4,2,1,60,0,0
213096,-100,4,2,1,60,0,0
216603,-100,4,2,1,5,0,0
220791,-100,4,2,1,5,0,0
220986,-100,4,2,1,50,0,0
224005,-100,4,2,1,50,0,0
236862,-100,4,2,1,5,0,0
239103,-100,4,2,1,5,0,0
239784,-100,4,2,1,50,0,0
241538,-100,4,2,1,5,0,0

[Colours]
Combo1 : 255,151,47
Combo2 : 0,236,60
Combo3 : 40,148,255
Combo4 : 252,71,71
Combo5 : 252,84,239
SliderBorder : 255,255,255

[HitObjects]
256,192,4655,2,0,B|256:96,2,95,2|0|0
256,192,5239,2,0,B|220:236|256:284|288:332|256:372,1,190,0|0
256,372,5823,1,0
256,192,6213,6,0,B|160:192,2,95,2|0|0
256,192,6797,2,0,B|300:156|348:192|396:224|436:192,1,190
436,192,7382,1,0
256,192,7771,5,2
336,144,7966,1,0
336,240,8161,1,0
256,192,8356,2,0,B|212:228|164:192|116:160|76:192,1,190
76,192,8940,1,0
256,136,9330,5,2
256,100,9719,1,2
256,64,10109,1,2
256,32,10499,1,2
164,200,10888,6,0,B|256:252|344:200,1,190,2|8
384,112,11473,1,2
304,60,11667,1,0
208,60,11862,1,0
132,116,12057,1,8
348,184,12447,6,0,B|256:132|168:184,1,190,2|8
128,272,13031,1,2
208,324,13226,1,0
304,324,13421,1,0
380,268,13616,1,8
256,124,14005,6,0,B|256:224,2,95,2|0|8
176,76,14590,2,0,B|204:36|256:16|308:36|340:80,1,190,2|0
256,124,15174,1,8
196,200,15369,2,0,B|136:288|200:384,1,190
312,376,15953,2,0,B|372:284|308:192,1,190,8|0
256,124,16538,2,0,B|256:224,2,95,0|8|0
200,44,17122,5,6
316,44,17317,1,0
256,236,17512,1,8
160,172,17706,1,2
256,124,17901,1,0
352,172,18096,1,0
256,336,18291,1,10
176,288,18486,6,0,B|176:192,1,95,6|2
80,188,18875,1,2
128,108,19070,1,10
224,108,19265,1,2
272,192,19460,6,0,B|296:192,15,23.75
256,192,20239,2,0,B|156:192,1,95,6|0
64,192,20629,1,8
100,104,20823,2,0,B|144:84|192:104|240:128|288:104,1,190,2|0
416,192,21408,5,8
328,328,21603,1,0
416,192,21797,2,0,B|520:192,2,95,2|0|8
320,192,22382,2,0,B|284:228|240:192|196:160|140:192,1,190,2|0
180,336,22966,5,8
64,192,23161,1,0
180,336,23356,2,0,B|224:368|268:336,2,95,2|0|8
128,272,23940,2,0,B|160:228|128:192|80:148|132:96,1,190,2|0
208,56,24525,2,0,B|312:56,1,95,8|0
256,268,24914,5,2
196,192,25109,1,0
360,116,25304,1,8
316,192,25499,1,2
148,116,25693,1,0
256,116,25888,1,0
256,268,26083,1,8
196,192,26278,1,0
256,116,26473,6,0,B|348:76|440:116,1,190,2|8
440,268,27057,2,0,B|348:308|256:268,1,190,2|0
320,120,27642,5,8
348,104,27739,1,0
380,100,27836,1,0
412,104,27934,1,0
440,124,28031,2,0,B|472:172|444:216,2,95,2|0|8
400,36,28616,2,0,B|288:36,1,95,2|0
256,120,29005,1,0
260,216,29200,2,0,B|356:252|448:212,1,190,8|2
388,140,29784,6,0,B|416:96|472:96,1,95,0|8
320,140,30174,2,0,B|292:96|236:96,1,95,2|0
144,96,30564,1,0
96,176,30758,1,8
48,96,30953,1,0
144,96,31148,1,2
176,108,31245,1,0
204,128,31343,1,0
224,152,31440,1,0
236,184,31538,1,8
256,276,31732,1,0
352,276,31927,2,0,B|464:276,1,95
388,96,32706,5,6
388,192,32901,1,0
388,192,32999,1,0
388,192,33096,1,8
344,276,33291,2,0,B|256:312|152:276,1,190,0|0
256,100,33875,5,8
200,184,34070,1,0
256,100,34265,2,0,B|352:100,2,95,2|0|8
256,100,34849,5,2
200,264,35044,1,0
340,172,35239,1,0
172,168,35434,1,10
312,264,35629,1,0
256,100,35823,5,2
256,100,36018,1,0
256,192,36213,1,8
172,252,36408,2,0,B|200:284|256:300|312:284|348:248,1,190,2|0
344,252,36992,1,8
212,120,37382,5,2
300,120,37577,1,0
208,264,37771,1,8
168,192,37966,1,2
344,192,38161,1,0
256,332,38356,1,0
256,192,38551,1,2
300,264,38745,1,2
208,264,38940,6,0,B|108:264,2,95,2|0|8
316,280,39525,2,0,B|376:192|312:104,1,190,2|0
256,192,40109,2,0,B|160:192,1,95,8|0
76,148,40499,1,2
172,148,40693,1,0
200,148,40791,1,0
228,148,40888,1,8
220,244,41083,2,0,B|132:304|40:244,1,190,2|0
44,152,41667,2,0,B|-16:152,2,47.5,8|0|0
112,88,42057,6,0,B|156:64|200:88|256:116|300:88,1,190,2|8
364,156,42642,2,0,B|364:260,1,95,2|0
320,336,43031,2,0,B|368:352|416:336,2,95,0|8|0
192,288,43616,5,2
316,240,43810,1,0
192,192,44005,1,8
316,144,44200,1,2
192,92,44395,1,0
184,92,44492,1,0
176,92,44590,1,0
168,92,44687,1,0
160,92,44784,2,0,B|60:92,1,95,2|2
36,192,45174,6,0,B|140:192,2,95,6|0|8
36,280,45758,2,0,B|128:332|216:280,1,190,2|0
296,104,46343,1,8
256,192,46538,1,0
296,104,46732,2,0,B|392:68|484:108,1,190,2|8
484,284,47317,2,0,B|388:320|296:280,1,190,2|0
256,192,47901,5,0
240,168,47999,1,0
220,148,48096,1,0
196,132,48193,1,0
172,124,48291,2,0,B|68:160|56:260,1,190,6|8
132,316,48875,2,0,B|132:204|256:188,1,190,2|0
344,192,49460,1,8
344,192,49655,1,0
256,240,49849,6,0,B|160:284|68:240,1,190,6|8
32,156,50434,1,2
104,96,50629,1,4
144,180,50823,1,8
72,242,51018,5,8
104,96,51213,1,0
72,243,51408,6,0,B|75:190|110:158,1,95,6|0
204,160,51797,2,0,B|204:211|167:245,2,95,0|2|0
132,100,52382,1,0
104,192,52577,1,0
128,284,52771,2,0,B|224:248|256:152,1,190,0|0
256,56,53356,1,0
256,152,53551,2,0,B|292:248|384:288,1,190,0|0
392,192,54135,1,0
348,108,54330,2,0,B|304:128|256:108|204:84|152:112,1,190
72,276,54914,5,0
116,192,55109,1,0
72,276,55304,2,0,B|120:296|164:276,1,95,0|0
248,264,55693,2,0,B|256:208|296:176,1,95
304,100,56083,2,0,B|256:76|208:100,1,95,2|0
208,288,56473,2,0,B|256:312|304:288,1,95,2|0
328,104,56862,1,2
296,88,56960,1,0
256,80,57057,1,0
216,88,57155,1,0
184,104,57252,1,2
256,168,57447,6,0,B|256:268,2,95,4|0|0
256,80,58031,1,8
340,124,58226,1,0
408,192,58421,2,0,B|504:192,1,95,2|0
460,276,58810,2,0,B|352:276,1,95,8|0
292,228,59200,5,0
220,156,59395,1,0
220,156,59492,1,0
220,156,59590,1,8
292,88,59784,1,0
220,28,59979,2,0,B|120:28,1,95,2|0
24,112,60369,2,0,B|128:112,1,95,8|0
172,192,60758,5,2
256,240,60953,1,0
336,192,61148,1,8
348,100,61343,2,0,B|256:40|168:96,1,190,0|0
169,96,61830,1,0
168,96,61927,2,0,B|168:144|168:192,1,95,8|0
168,192,62317,5,0
296,120,62512,1,0
212,120,62706,1,8
296,264,62901,1,0
256,56,63096,1,0
216,264,63291,1,0
344,192,63486,1,8
256,192,63680,6,0,B|208:192|160:192,2,95,0|6|0
308,116,64265,2,0,B|352:116|404:116,2,95,8|0|0
256,192,64849,1,0
312,268,65044,1,8
376,340,65239,5,2
136,340,65629,1,2
256,32,66018,2,0,B|352:-8|440:32,1,190,2|0
440,32,66603,1,8
356,192,66992,6,0,B|472:192,2,95,0|0|8
256,192,67577,1,0
208,112,67771,2,0,B|164:140|148:192|168:252|220:280,1,190,0|8
256,192,68356,1,0
328,128,68551,5,4
344,156,68648,1,0
352,188,68745,1,0
344,220,68843,1,0
328,248,68940,1,8
256,308,69135,1,0
184,256,69330,5,4
168,228,69427,1,0
160,196,69525,1,0
168,164,69622,1,0
184,136,69719,1,8
256,76,69914,1,0
328,128,70109,6,0,B|428:128,1,95,4|0
424,224,70499,1,8
328,224,70693,1,0
288,320,70888,2,0,B|384:360|472:320,1,190,0|8
184,128,71667,6,0,B|84:128,1,95,4|0
88,224,72057,1,8
184,224,72252,1,0
224,320,72447,2,0,B|128:360|40:320,1,190,0|8
40,224,73031,5,0
40,192,73129,1,0
40,160,73226,1,0
100,88,73421,1,0
164,160,73616,2,0,B|164:256,1,95,8|2
256,288,74005,1,0
256,288,74103,1,0
256,288,74200,1,0
256,288,74297,1,0
256,288,74395,2,0,B|256:192,1,95,8|0
256,96,74784,5,2
184,236,74979,1,2
328,144,75174,1,2
184,148,75369,1,2
328,236,75564,1,2
184,56,75758,1,2
256,192,75953,1,2
328,56,76148,1,2
256,288,76343,1,4
256,192,88810,12,0,90369
260,344,91148,5,0
324,272,91343,1,0
324,176,91538,1,0
256,108,91732,1,0
212,192,91927,6,0,B|172:164|124:192|72:228|28:192,1,190,4|0
30,194,92512,1,0
129,355,92901,1,2
77,275,93096,1,0
30,194,93291,1,0
60,108,93486,6,0,B|100:80|148:108|196:136|244:104,1,190
243,105,94070,1,0
329,274,94460,1,2
282,191,94655,1,0
243,105,94849,1,0
308,40,95044,6,0,B|352:12|396:44|444:80|488:44,2,190
256,120,96018,5,0
352,120,96213,1,0
308,40,96408,1,0
256,208,96603,5,2
204,40,96797,1,0
332,168,96992,1,2
184,168,97187,1,0
256,28,97382,1,2
256,320,97771,1,2
124,100,98161,6,0,B|76:192|128:284,1,190,0|0
127,282,98745,1,0
384,280,99135,1,2
384,260,99232,1,2
384,240,99330,2,0,B|384:144,1,95,2|0
308,84,99719,1,0
384,28,99914,1,0
460,84,100109,1,0
476,176,100304,2,0,B|384:220|284:176,1,190
256,92,100888,1,0
72,192,101278,6,0,B|164:236|256:192,1,190,0|8
439,192,102057,2,0,B|347:236|255:192,1,190,0|8
116,64,102836,2,0,B|164:48|212:64,1,95
304,64,103226,2,0,B|352:48|400:64,1,95,8|0
352,148,103616,1,0
320,148,103713,1,0
288,148,103810,1,0
256,148,103908,1,0
224,148,104005,2,0,B|108:148,1,95,8|0
36,128,104395,6,0,B|48:80|96:60,1,95,6|0
192,60,104784,1,8
288,60,104979,2,0,B|332:80|380:60|432:36|476:60,1,190,2|0
474,59,105466,1,0
474,59,105564,1,8
476,156,105758,1,0
396,212,105953,6,0,B|416:260|472:268,2,95,2|0|8
336,136,106538,1,2
148,60,106927,1,0
156,72,107025,1,0
164,84,107122,2,0,B|224:164,1,95,8|0
312,192,107512,2,0,B|360:224|368:280,1,95
272,288,107901,2,0,B|284:340|332:364,2,95,8|0|0
176,288,108486,1,0
176,288,108680,2,0,B|184:236|240:200,1,95,8|0
336,112,109070,5,2
176,112,109265,1,0
304,200,109460,1,8
256,56,109655,1,2
208,200,109849,1,0
336,112,110044,1,2
176,112,110239,6,0,B|92:172|92:276,1,190,8|2
172,312,110823,1,0
172,312,110921,1,0
172,312,111018,1,8
256,280,111213,2,0,B|340:220|340:116,1,190,2|0
296,32,111797,6,0,B|340:16|388:32,1,95,8|0
488,192,112187,1,2
432,116,112382,1,0
488,192,112577,1,8
436,272,112771,2,0,B|344:328|256:272,1,190,2|0
257,273,113258,1,0
257,273,113356,1,8
216,192,113551,1,0
292,136,113745,6,0,B|388:100|480:136,1,190,2|8
480,248,114330,2,0,B|384:284|292:248,1,190,2|0
200,240,114914,1,8
200,144,115109,1,0
300,144,115304,2,0,B|320:192|300:240,1,95,2|0
104,240,115693,2,0,B|88:192|104:144,1,95,8|2
152,64,116083,5,0
172,64,116180,1,0
188,64,116278,1,0
204,64,116375,1,0
224,64,116473,2,0,B|268:40|320:64|368:88|412:64,1,190,8|6
496,112,117057,1,0
412,160,117252,1,0
496,204,117447,1,2
416,252,117642,1,0
416,252,117836,1,0
332,204,118031,2,0,B|236:204,1,95
152,160,118421,5,2
152,256,118616,1,0
236,204,118810,1,0
316,136,119005,1,2
336,124,119103,1,0
356,112,119200,1,0
376,100,119297,1,0
396,88,119395,1,4
476,268,119590,5,0
476,108,119784,1,0
476,268,119979,2,0,B|428:288|384:268,1,95,6|0
328,192,120369,1,0
388,116,120564,1,2
400,128,120661,1,0
408,144,120758,2,0,B|428:192|408:236,1,95
288,192,121148,2,0,B|264:144|288:100,1,95
368,48,121538,1,6
200,152,121732,1,0
368,48,121927,1,0
200,152,122122,1,0
368,48,122317,6,0,B|392:92|368:140,1,95,2|4
256,260,122706,2,0,B|229:218|257:170,1,95
112,120,123096,6,0,B|68:212|116:304,2,190,0|8|0
288,192,124265,1,8
384,192,124460,2,0,B|396:264|324:312|256:288,1,190
288,192,125044,1,8
316,96,125239,2,0,B|244:68|180:136|190:193,1,190
256,276,125823,1,8
256,276,126018,1,0
352,264,126213,6,0,B|388:232|396:180,1,95
332,40,126603,2,0,B|316:92|360:132,1,95,8|0
456,224,126992,2,0,B|480:272|456:316,1,95
256,192,127382,2,0,B|228:148|256:100,1,95,8|0
400,40,127771,5,0
200,232,128161,1,2
472,104,128551,1,0
256,312,128940,6,0,B|348:340|448:316,1,190,2|4
444,232,129525,1,0
416,216,129622,1,0
384,204,129719,1,0
300,192,129914,2,0,B|256:168|208:192|160:216|116:192,1,190,0|0
116,192,130499,1,8
256,60,130693,6,0,B|300:36|348:60|396:84|440:60,1,190,0|0
476,148,131278,1,8
392,192,131473,2,0,B|292:192,2,95,0|0|0
476,236,132057,1,8
348,360,132252,6,0,B|304:336|256:360|208:384|164:360,1,190,0|0
164,264,132836,1,8
164,264,133031,2,0,B|208:240|256:264|304:288|348:264,1,190
336,168,133616,1,8
256,116,133810,1,0
160,156,134005,6,0,B|60:156,1,95,2|0
352,156,134395,2,0,B|452:156,1,95,2|0
256,52,134784,1,2
256,144,134979,1,0
256,240,135174,1,2
256,336,135369,6,0,B|148:316|116:220,1,190
168,144,135953,1,8
220,224,136148,2,0,B|188:318|80:338,1,190
36,252,136732,1,8
108,192,136927,5,2
256,32,137317,1,2
412,192,137706,2,0,B|412:296,1,95,2|0
328,244,138096,2,0,B|328:348,1,95,0|8
232,340,138486,5,0
200,336,138583,1,0
172,320,138680,2,0,B|136:280|136:220,1,95,0|0
220,92,139070,1,8
248,204,139265,1,0
132,172,139460,1,0
256,52,139655,1,0
296,184,139849,1,8
180,160,140044,1,2
436,56,140434,5,2
76,56,140823,1,2
260,372,141213,2,0,B|324:288|256:192,1,190,2|0
180,248,141797,5,6
168,256,141895,1,0
156,264,141992,1,0
144,272,142090,1,0
132,280,142187,2,0,B|32:280,2,95,0|2|0
192,356,142771,1,0
256,284,142966,1,0
316,356,143161,1,0
380,284,143356,1,2
380,284,143745,6,0,B|424:192|380:96,2,190,0|0|0
316,356,144719,1,0
256,288,144914,1,2
196,356,145109,1,0
132,288,145304,1,0
132,288,145499,2,0,B|96:196|132:100,1,190,2|0
204,40,146083,2,0,B|252:40,2,47.5
256,120,146473,5,2
320,192,146667,1,0
256,260,146862,1,0
192,192,147057,1,2
256,120,147252,2,0,B|304:96|352:120|396:148|444:120,1,190,0|0
256,72,148031,6,0,B|152:92|120:192,1,190,2|0
216,192,148616,2,0,B|196:88|96:56,1,190,2|0
44,136,149200,1,0
120,192,149395,1,0
196,252,149590,2,0,B|292:252,1,95,2|0
360,108,149979,2,0,B|252:108,1,95,0|2
260,328,150369,2,0,B|360:328,1,95
432,192,150758,2,0,B|328:192,1,95
240,192,151148,6,0,B|248:248|288:272,1,95
288,116,151538,2,0,B|240:96|184:120,1,95
164,316,151927,2,0,B|256:356|348:316,1,190,0|0
408,240,152512,1,0
404,140,152706,5,0
396,132,152804,1,0
388,124,152901,1,0
380,116,152999,1,0
372,108,153096,1,0
364,100,153193,1,0
356,92,153291,1,0
348,84,153388,1,0
340,76,153486,2,0,B|284:76|228:76,1,95
200,164,153875,1,0
188,260,154070,5,0
180,288,154167,1,0
172,312,154265,2,0,B|76:312,2,95,6|0|0
176,216,154849,2,0,B|220:188|264:212|312:236|360:212,1,190,0|0
360,116,155434,2,0,B|328:76|280:64,1,95
172,128,155823,5,2
300,192,156018,1,0
256,96,156213,1,0
176,260,156408,1,2
340,260,156603,1,0
216,192,156797,1,0
256,296,156992,1,0
336,124,157187,1,0
160,116,157382,6,0,B|124:148|124:200,2,95,2|0|0
208,36,157966,1,2
304,36,158161,1,0
352,116,158356,2,0,B|452:116,2,95
256,116,158940,2,0,B|208:132|188:184,1,95
100,208,159330,2,0,B|104:268|152:296,1,95
216,352,159719,2,0,B|320:328|360:240,1,190
360,240,160304,1,0
448,192,160499,5,2
448,192,160888,1,0
444,96,161083,2,0,B|404:72|356:96|304:120|256:100,1,190,2|0
164,100,161667,1,0
84,148,161862,2,0,B|64:192|84:240,1,95,0|2
164,192,162252,2,0,B|184:236|164:284,1,95
84,336,162642,1,2
64,312,162739,1,0
52,280,162836,2,0,B|52:184,1,95
52,185,163226,1,0
204,72,163616,6,0,B|304:72,1,95,2|0
304,256,164005,2,0,B|204:256,1,95,0|2
148,172,164395,2,0,B|196:144|244:168|296:192|340:168,1,190
352,76,164979,1,0
256,96,165174,5,2
204,176,165369,1,0
296,176,165564,1,0
180,52,165758,6,0,B|140:84|132:132,1,95,2|0
124,216,166148,1,0
260,312,166343,6,0,B|304:280|304:228,1,95
304,232,166732,1,4
288,144,179200,6,0,B|388:116|476:144,1,190,6|0
476,240,179784,2,0,B|376:268|288:240,1,190,2|0
288,144,180369,1,0
288,144,180564,2,0,B|240:132|200:156|164:176|100:144,1,190
20,192,181148,1,0
24,288,181343,2,0,B|64:264|112:284|160:304|212:288,1,190
304,316,181927,5,0
312,316,182025,1,0
320,316,182122,1,0
328,316,182219,1,0
336,316,182317,2,0,B|364:216|336:128,1,190,6|0
256,80,182901,2,0,B|156:52|68:80,1,190,2|0
68,176,183486,1,0
68,176,183680,1,0
68,272,183875,2,0,B|112:248|164:272|212:292|256:272,1,190,6|0
384,192,184460,2,0,B|340:168|288:192|240:212|196:192,1,190,6|0
156,108,185044,5,4
156,108,185434,1,6
156,12,185629,1,0
80,64,185823,1,0
80,160,186018,1,2
156,220,186213,1,0
156,220,186603,1,0
252,220,186797,1,0
348,220,186992,6,0,B|296:304,1,95,6|0
348,220,187382,2,0,B|300:140,1,95,0|2
204,128,187771,2,0,B|152:220|204:308,1,190
300,308,188356,1,0
396,308,188551,6,0,B|448:219|396:127,2,190,6|0|0
336,236,189525,1,0
284,308,189719,6,0,B|240:284|188:308|140:328|96:308,1,190,0|6
76,216,190304,1,0
136,144,190499,1,0
176,228,190693,5,2
136,144,190888,1,4
184,60,191083,1,0
244,136,191278,5,0
184,60,191473,2,0,B|228:24,2,47.5
480,312,197901,6,0,B|388:340|292:316,1,190,6|8
256,228,198486,1,2
256,132,198680,1,0
256,132,199070,1,8
220,44,199265,6,0,B|128:16|32:40,1,190,2|0
28,136,199849,1,8
28,232,200044,6,0,B|120:260|216:236,1,190,2|0
216,140,200629,1,8
256,56,200823,5,0
300,140,201018,2,0,B|323:235|295:327,1,190,2|8
216,272,201603,1,2
296,328,201797,6,0,B|388:356|484:332,1,190,0|8
420,260,202382,1,0
484,192,202577,5,2
256,32,202966,1,2
32,192,203356,1,2
256,348,203745,6,0,B|288:256|256:160,1,190,2|4
160,164,204330,1,0
64,164,204525,1,8
116,84,204719,1,0
308,84,205109,5,2
388,136,205304,1,8
388,213,205499,2,0,B|388:308,1,95,0|0
312,364,205887,1,0
252,292,206083,1,8
304,212,206278,1,0
408,44,206667,5,2
312,44,206862,1,8
216,44,207057,2,0,B|168:44|148:100|148:100|52:100,1,190,0|0
36,192,207642,1,8
60,284,207836,2,0,B|156:284|156:284|176:340|224:340,1,190,0|0
256,240,208421,1,8
256,144,208616,1,0
256,48,208810,6,0,B|304:32|352:48,1,95,0|0
372,64,209103,1,0
388,88,209200,2,0,B|408:132|392:180,1,95,8|0
396,276,209590,1,0
116,276,209979,5,8
116,276,210174,2,0,B|116:176,2,95,0|6|0
188,340,210758,1,8
188,340,210953,1,0
256,276,211148,2,0,B|256:180,2,95,0|0|8
324,340,211732,2,0,B|404:280|404:176,2,190,2|2|2
204,192,212901,1,0
304,192,213096,1,8
256,32,213486,5,4
180,88,213680,1,0
256,32,213875,1,8
332,88,214070,1,0
256,32,214265,2,0,B|256:224,1,190,0|8
308,300,214849,6,0,B|384:232|480:232,1,190
204,300,215629,2,0,B|128:232|32:232,1,190
256,192,216408,12,0,220888
196,260,221278,6,0,B|148:284|132:332,2,95,2|2|2
256,192,221862,1,2
200,116,222057,6,0,B|152:92|136:44,2,95,2|2|2
256,192,222642,1,2
352,192,222836,6,0,B|352:292,2,95,4|0|8
352,100,223421,2,0,B|256:68|160:100,1,190
144,192,224005,1,8
144,192,224395,6,0,B|144:292,2,95,4|0|8
200,116,224979,1,0
256,192,225174,1,0
312,116,225369,1,0
368,192,225564,2,0,B|348:292|256:340,1,190,8|4
220,252,226148,5,0
216,156,226343,1,8
176,68,226538,2,0,B|128:88|120:144,2,95
216,156,227122,1,8
388,240,227512,6,0,B|332:148|332:148|324:96|324:96|300:72,1,190,4|0
208,76,228096,2,0,B|187:96|187:96|179:148|179:148|123:240,1,190,4|0
164,328,228680,2,0,B|256:356|256:356|352:328,1,190,4|4
304,232,229265,1,0
256,148,229460,1,8
208,232,229655,1,0
208,232,230044,2,0,B|156:232,2,47.5,0|0|8
208,232,230629,5,4
168,132,230823,1,0
256,64,231018,1,8
336,132,231213,1,0
208,272,231603,1,0
304,272,231797,1,8
336,132,232187,6,0,B|256:176|256:176|164:128,1,190,4|8
168,130,232771,2,0,B|148:224|148:224|184:316,1,190,4|0
256,360,233356,1,8
256,360,233745,1,4
256,24,234525,1,4
300,264,235304,6,0,B|256:288|208:264,2,95,4|0|8
344,132,235888,2,0,B|256:80|164:132,1,190
256,192,236473,1,8
256,192,236862,12,0,239590
188,192,239979,5,0
256,120,240174,1,0
328,192,240369,1,0
348,284,240564,2,0,B|256:336|164:280,1,190
256,192,241148,1,0
256,192,241343,1,0
256,192,241538,12,0,245434
