osu file format v9

[General]
AudioFilename: Zzz.mp3
AudioLeadIn: 0
PreviewTime: 20239
Countdown: 0
SampleSet: Soft
StackLeniency: 0.7
Mode: 0
LetterboxInBreaks: 0

[Editor]
Bookmarks: 10888,20239,32706,45174,57642,70109,76343,76440,91830,91927,104395,116862,129330,143356,165174,165564,165953,166343,166732,178226,179103,179200,191278,191667,197901,222836,239979,241148,241343
DistanceSpacing: 1
BeatDivisor: 4
GridSize: 4

[Metadata]
Title:Zzz
Artist:Sasaki Sayaka
Creator:Sumisola
Version:Aria
Source:Nichijou
Tags:Aria Okamiroy hakase nano richang sleep aoi

[Difficulty]
HPDrainRate:5
CircleSize:4
OverallDifficulty:6
ApproachRate:8
SliderMultiplier:1.8
SliderTickRate:1

[Events]
//Background and Video events
0,0,"BG6.jpg"
//Break Periods
2,76543,91177
2,166932,177476
2,191867,197151
//Storyboard Layer 0 (Background)
//Storyboard Layer 1 (Fail)
//Storyboard Layer 2 (Pass)
//Storyboard Layer 3 (Foreground)
//Storyboard Sound Samples
//Background Colour Transformations
3,100,163,162,255

[TimingPoints]
4655,389.61038961039,4,2,1,50,1,0
45174,-100,4,2,2,50,0,0
51408,-100,4,2,1,50,0,0
101229,-200,4,2,1,50,0,0
104346,-100,4,2,1,50,0,0
116862,-100,4,2,2,50,0,0
123096,-100,4,2,1,50,0,0
179200,-100,4,2,2,50,0,0
197901,-100,4,2,1,50,0,0
241343,-100,4,2,1,5,0,0

[Colours]
Combo1 : 255,151,47
Combo2 : 0,236,60
Combo3 : 40,148,255
Combo4 : 252,71,71
Combo5 : 252,84,239
SliderBorder : 255,255,255

[HitObjects]
200,212,4655,2,0,B|152:196|132:144,2,90,2|0|0
232,128,5239,2,0,B|308:124|336:184|424:180,1,180,0|0
402,180,5823,1,0
256,288,6213,6,0,B|276:340|332:348,2,90,2|0|0
200,212,6797,2,0,B|120:228|120:300|28:296,1,180
44,295,7382,1,0
136,140,7771,6,0,B|84:124|52:88,2,90,2|0|0
224,120,8356,2,0,B|288:112|328:168|400:168,1,180
436,88,8940,1,0
395,167,9135,1,0
352,248,9330,5,2
344,264,9719,1,2
336,280,10109,1,2
328,296,10499,1,2
156,248,10888,6,0,B|136:296|76:312,2,90,0|0|10
72,216,11473,1,0
144,160,11667,2,0,B|228:96,1,90
215,105,12057,1,10
340,236,12447,5,0
280,172,12642,1,0
215,105,12836,2,0,B|188:60|196:4,2,90,10|0|0
188,192,13421,1,0
168,280,13616,1,10
344,320,14005,6,0,B|384:360|444:364,2,90,0|0|10
260,284,14590,2,0,B|232:224|144:216|116:156,1,180
123,169,15174,1,10
60,108,15369,6,0,B|112:72|164:96|164:96|244:92,1,180
312,44,15953,1,10
234,92,16148,2,0,B|264:136|336:136,1,90
310,134,16538,1,0
312,224,16732,2,0,B|368:220|404:168,1,90,10|0
392,96,17122,5,0
310,134,17317,1,0
388,180,17512,1,10
392,96,17706,1,0
312,52,17901,5,0
240,180,18096,1,0
388,180,18291,1,10
312,52,18486,2,0,B|224:80|120:44,1,180
80,120,19070,2,0,B|104:164|88:216,1,90,10|0
80,296,20239,6,0,B|164:324|272:296,1,180,4|8
316,232,20823,2,0,B|224:204|128:232,1,180
172,312,21408,1,8
224,240,21603,1,0
272,164,21797,6,0,B|312:136|368:164|368:164|456:164,1,180,0|8
420,248,22382,1,0
447,164,22577,2,0,B|484:68,1,90
424,8,22966,2,0,B|392:96,1,90,8|0
308,120,23356,6,0,B|240:104|176:152|108:116,1,180,0|8
64,64,23940,1,0
129,124,24135,1,0
64,184,24330,1,0
129,124,24525,2,0,B|164:164|156:212,1,90,8|0
184,292,24914,6,0,B|212:248|268:232,2,90,0|0|8
268,328,25499,1,0
253,236,25693,5,0
184,292,25888,1,0
268,328,26083,2,0,B|316:336|360:328,1,90,10|0
408,252,26473,6,0,B|420:304|472:332,2,90,0|0|8
336,196,27057,2,0,B|296:148|240:152|240:152|176:96,1,180
136,32,27642,1,8
186,105,27836,1,0
100,112,28031,6,0,B|60:148|72:200|72:200|16:280,1,180,0|8
116,268,28616,1,0
156,188,28810,2,0,B|204:200|256:164,1,90
304,108,29200,2,0,B|300:152|340:192,1,90,8|0
424,172,29590,6,0,B|432:228|388:260,1,90
396,253,29979,1,8
476,292,30174,2,0,B|440:340|392:336|392:336|312:348,1,180
240,292,30758,1,8
304,228,30953,2,0,B|264:196|208:208,1,90
160,140,31343,2,0,B|156:192|116:224,1,90,0|8
72,144,31732,1,0
44,228,31927,2,0,B|36:248|36:248|48:248|48:248|36:256|36:256|48:256|48:256|36:264|36:264|48:264|48:264|36:272|36:272|48:272|48:272|36:280|36:280|48:280|48:280|36:288|36:288|48:288|48:288|44:300,1,180,0|8
220,268,32706,6,0,B|280:216|336:252|408:192,1,180,4|8
424,124,33291,1,0
387,207,33486,1,0
424,288,33680,1,0
387,207,33875,2,0,B|312:128,1,90,8|0
240,112,34265,2,0,B|252:64|320:56,1,90
256,192,34655,2,0,B|252:248|200:280,1,90,8|0
136,308,35044,2,0,B|112:260|144:220,1,90
224,188,35434,2,0,B|232:248|200:288,1,90,8|0
116,220,35823,6,0,B|100:164|44:160|44:160|44:68,1,180,0|8
124,36,36408,1,0
44,80,36603,1,0
124,36,36797,2,0,B|168:52|212:32,2,90,0|8|0
172,112,37382,5,2
260,108,37577,1,0
211,32,37771,1,10
172,112,37966,1,0
220,188,38161,5,2
308,180,38356,1,0
348,100,38551,1,10
296,28,38745,1,0
260,108,38940,6,0,B|220:144|220:232|164:272,1,180,0|8
112,200,39525,1,0
84,284,39719,2,0,B|64:336|16:360,2,90,0|0|8
173,264,40304,1,0
260,244,40499,6,0,B|336:220|376:256|464:232,1,180,0|8
468,152,41083,2,0,B|392:176|352:140|264:164,1,180
204,184,41667,2,0,B|212:236|264:248,1,90,8|0
288,160,42057,6,0,B|268:104|212:92|212:92|152:24,1,180,0|8
136,124,42642,2,0,B|100:152|44:148,2,90
200,180,43226,1,8
288,160,43421,1,0
260,244,43616,6,0,B|320:248|364:208|364:208|448:204,1,180,0|8
452,292,44200,1,0
432,204,44395,2,0,B|412:96,1,90
496,76,44784,2,0,B|408:12,1,90,8|0
344,64,45174,6,0,B|256:76,1,90,4|0
254,76,45564,1,8
168,92,45758,1,0
156,84,45856,1,0
144,76,45953,2,0,B|68:148,1,90
72,228,46343,1,8
160,244,46538,5,0
168,256,46635,1,0
176,268,46732,2,0,B|232:284|288:240,1,90
248,168,47122,1,8
262,256,47317,1,0
272,268,47414,1,0
280,280,47512,1,0
288,292,47609,1,0
296,304,47706,2,0,B|340:324|392:324,1,90,0|8
364,188,48096,1,8
432,72,48291,6,0,B|388:36|324:56|324:56|244:32,1,180,0|8
172,28,48875,2,0,B|132:56|128:112,1,90
40,120,49265,2,0,B|48:184|124:204,1,90,0|8
76,280,49655,5,0
84,288,49752,1,0
92,296,49849,2,0,B|140:320|184:304,1,90
276,220,50239,1,8
344,336,50434,2,0,B|280:340|248:280,1,90
284,172,50823,1,0
248,40,51018,2,0,B|312:36|344:96,1,90,8|0
372,152,51408,5,0
284,172,51603,1,0
336,244,51797,1,8
248,260,51992,1,0
204,132,52187,5,0
172,48,52382,1,0
116,120,52577,1,8
84,36,52771,1,0
40,164,52966,5,0
72,248,53161,1,0
148,200,53356,1,8
188,280,53551,1,0
116,332,53745,6,0,B|148:372|204:368,1,90
188,280,54135,1,8
264,232,54330,2,0,B|228:184|168:192|168:192|84:148,1,180
180,108,54914,1,8
260,68,55109,2,0,B|356:88|456:32,1,180
496,112,55693,1,8
420,160,55888,1,0
500,200,56083,6,0,B|476:244|416:248,1,90,2|0
436,336,56473,2,0,B|384:344|328:280,1,90,10|0
304,380,56862,2,0,B|252:352|252:276,1,90,2|0
296,132,57252,1,10
296,132,57447,6,0,B|248:104|168:164|100:116,1,180
152,44,58031,1,8
119,126,58226,1,0
64,56,58421,2,0,B|24:88|32:152,1,90,2|0
88,204,58810,1,10
148,272,59005,6,0,B|200:244|172:176,1,90
88,204,59395,1,0
0,224,59590,2,0,B|8:276|72:284,1,90,8|0
148,272,59979,1,2
236,264,60174,2,0,B|336:252,1,90,0|10
408,292,60564,6,0,B|432:248|396:196|396:196|420:108,1,180
476,56,61148,2,0,B|520:92|500:144,1,90,8|0
416,120,61538,1,0
328,112,61732,2,0,B|208:88,1,90,0|8
180,28,62122,6,0,B|140:120|44:148,1,180
44,236,62706,1,8
52,148,62901,1,0
128,200,63096,2,0,B|244:204,1,90
217,203,63486,1,10
256,284,63680,6,0,B|308:264|312:212|312:212|424:216,1,180,4|0
448,140,64265,2,0,B|356:132,1,90,8|0
328,48,64655,1,0
358,132,64849,5,2
196,348,65239,1,2
84,100,65629,1,2
358,132,66018,5,0
308,208,66213,1,0
268,128,66408,1,0
358,132,66603,2,0,B|460:136,1,90,8|0
400,212,66992,6,0,B|396:276|340:296|340:296|284:368,1,180,4|8
248,276,67577,1,0
168,232,67771,1,0
244,188,67966,1,0
248,276,68161,2,0,B|220:324|156:320,1,90,8|0
96,276,68551,5,4
92,188,68745,1,0
88,100,68940,2,0,B|192:40,1,90,8|0
260,140,69330,1,4
332,196,69525,1,0
408,244,69719,2,0,B|416:156,1,90,8|0
428,64,70109,6,0,B|352:40|304:60|236:40,1,180,4|8
160,48,70693,2,0,B|104:40,2,45
216,120,71083,2,0,B|252:164|244:212,1,90,0|8
156,188,71473,1,0
108,264,71667,6,0,B|60:228|68:172|68:172|16:104,1,180,4|8
112,112,72252,2,0,B|160:96,2,45
156,188,72642,2,0,B|272:220,1,90,0|8
284,292,73031,1,0
316,376,73226,6,0,B|360:352|368:300|368:300|468:328,1,180,4|8
416,240,73810,2,0,B|468:220,2,45
332,212,74200,2,0,B|288:116,1,90,0|8
294,130,74590,1,0
228,12,74784,5,0
160,132,74979,1,0
232,248,75174,1,2
294,130,75369,1,0
160,132,75564,5,0
88,248,75758,1,0
232,248,75953,1,2
368,248,76148,1,0
294,130,76343,5,0
216,136,91927,6,0,B|288:128|288:128|344:88|400:120,1,180,4|8
352,192,92512,1,0
184,248,92901,1,0
144,264,93096,1,8
104,280,93291,1,0
64,296,93486,6,0,B|16:256|48:200|48:200|40:128,1,180,0|8
120,96,94070,1,0
300,160,94460,1,0
312,72,94655,2,0,B|400:40,1,90,8|0
384,128,95044,6,0,B|280:168,1,90
299,160,95434,1,8
216,184,95629,2,0,B|224:240|296:248|296:248|268:328,1,180
188,340,96213,2,0,B|300:308,1,90,8|0
360,296,96603,5,0
432,244,96797,1,0
348,208,96992,1,8
264,172,97187,1,0
336,120,97382,5,0
432,244,97577,1,0
276,268,97771,2,0,B|160:272,1,90,8|0
104,304,98161,6,0,B|88:248|128:200|128:200|80:128,1,180,0|8
88,56,98745,2,0,B|192:88|280:16,1,180
259,30,99330,1,8
368,168,99719,6,0,B|336:208|272:200,1,90
296,116,100109,1,8
368,168,100304,2,0,B|392:240|392:240|448:272|416:336,1,180
336,304,100888,2,0,B|240:304,1,90,8|0
152,304,101278,6,0,B|96:304|80:240,1,90,0|8
64,296,101862,2,0,B|32:256|56:200,1,90
64,168,102447,1,8
64,120,102642,2,0,B|120:128|128:192,1,90
168,184,103226,1,8
212,192,103421,1,0
256,200,103616,2,0,B|360:216,1,90,0|8
344,213,104395,6,0,B|388:136|388:136|444:112|424:44,1,180,4|8
340,68,104979,2,0,B|244:96|148:12,1,180
170,30,105564,1,8
28,132,105953,6,0,B|80:220|52:316,1,180,0|8
54,305,106538,1,0
144,316,106732,2,0,B|272:288,2,90,0|0|8
320,276,107512,6,0,B|360:236|348:180|348:180|412:96,1,180,0|8
340,48,108096,2,0,B|248:100|144:36,1,180
88,88,108680,1,8
167,49,108875,1,0
160,140,109070,6,0,B|188:236,1,90
252,168,109460,1,8
272,256,109655,1,0
276,268,109752,1,0
280,280,109849,1,0
284,292,109947,1,0
288,304,110044,2,0,B|308:348|356:364,1,90,0|10
448,224,110629,6,0,B|408:124|476:40,1,180,0|8
376,64,111213,2,0,B|300:116|192:88,1,180
132,36,111797,1,8
80,160,111992,2,0,B|156:228|120:340,1,180
212,304,112577,1,8
300,284,112771,1,0
388,268,112966,2,0,B|492:240,2,90,0|0|8
472,68,113745,6,0,B|376:88|296:28,1,180,0|8
220,68,114330,2,0,B|112:120,1,90
196,176,114719,2,0,B|104:228,1,90,0|8
84,304,115109,1,0
164,348,115304,2,0,B|252:308|268:208,1,180,0|8
380,352,116083,2,0,B|448:288|464:196,1,180,0|8
356,56,116862,6,0,B|304:84|240:60,1,90,4|0
184,40,117252,1,8
112,96,117447,1,0
108,108,117544,1,0
104,120,117642,2,0,B|96:176|44:192,1,90
136,296,118031,2,0,B|160:248|208:212,1,90,8|0
260,168,118421,5,0
272,160,118518,1,0
284,152,118616,1,0
296,144,118713,1,0
308,136,118810,1,8
380,80,119005,2,0,B|404:40,1,45
460,116,119297,2,0,B|504:104,1,45
472,204,119590,2,0,B|436:240|376:240,1,90,8|0
220,180,119979,6,0,B|268:140|320:152|320:152|396:128,1,180,4|8
360,216,120564,1,0
280,256,120758,2,0,B|184:304,1,90
68,268,121148,2,0,B|164:220,1,90,8|0
220,172,121538,2,0,B|184:136|136:144|136:144|92:56,1,180,4|8
180,32,122122,1,0
184,44,122219,1,0
188,56,122317,2,0,B|312:56,1,90,4|8
316,136,122706,2,0,B|428:136,1,90,8|8
416,228,123096,5,4
336,272,123291,1,0
256,316,123486,1,8
168,316,123680,1,0
168,180,123875,5,0
244,132,124070,1,0
324,88,124265,1,8
416,88,124460,2,0,B|380:184|464:276,1,180
500,332,125044,1,8
412,340,125239,6,0,B|328:280|216:324,1,180
152,312,125823,2,0,B|68:232,1,90,8|0
60,164,126213,6,0,B|124:140|160:184|160:184|240:184,1,180,0|8
304,236,126797,2,0,B|344:192|308:136,1,90
396,108,127187,1,0
317,152,127382,1,8
230,184,127577,1,0
160,132,127771,6,0,B|128:176|152:232,1,90,2|0
56,224,128161,2,0,B|68:280|132:300,1,90,10|0
52,360,128551,2,0,B|96:392|160:372,1,90,2|0
256,244,128940,1,8
256,336,129135,6,0,B|324:332|344:276|344:276|448:276,1,180
496,244,129719,2,0,B|460:152,1,90,8|0
484,72,130109,2,0,B|392:28,1,90
312,48,130499,1,8
224,68,130693,6,0,B|152:128|28:96,1,180
116,36,131278,1,8
53,101,131473,1,0
52,192,131667,2,0,B|104:296,1,90
92,272,132057,1,8
140,348,132252,6,0,B|192:312|192:268|192:268|292:260,1,180
316,340,132836,2,0,B|364:320|364:260,1,90,8|0
448,300,133226,2,0,B|464:248|428:200,1,90
376,148,133616,1,8
408,64,133810,6,0,B|348:44|312:80|312:80|216:64,1,180
144,56,134395,2,0,B|144:116|84:140,1,90,8|0
132,216,134784,2,0,B|176:192|236:224,1,90
218,215,135174,1,8
184,300,135369,6,0,B|248:312|284:276|284:276|356:304,1,180
424,248,135953,1,8
496,192,136148,2,0,B|320:104,1,180
256,64,136732,1,8
335,111,136927,5,2
216,356,137317,1,2
24,168,137706,1,2
112,172,137901,6,0,B|88:80,1,90
24,168,138291,2,0,B|48:260,1,90,8|0
72,340,138680,6,0,B|120:320|136:268|136:268|232:268,1,180,4|8
308,265,139265,1,0
256,340,139460,2,0,B|312:260,1,90
360,192,139849,1,8
432,244,140044,6,0,B|468:192|440:144|440:144|484:76,1,180
400,40,140629,1,8
312,40,140823,2,0,B|140:128,1,180
68,88,141408,1,8
151,121,141603,1,0
80,176,141797,6,0,B|116:220|168:208|168:208|184:308,1,180,4|8
104,332,142382,1,0
180,288,142577,2,0,B|280:240,1,90
392,284,142966,2,0,B|300:328,1,90,8|0
261,248,143356,1,0
92,40,143745,6,0,B|48:248,1,180,8|0
96,296,144330,1,0
54,216,144525,1,8
292,88,144914,2,0,B|392:88|492:48,1,180,0|8
440,144,145499,2,0,B|384:232|400:324,1,180
398,315,145986,1,0
398,315,146083,1,8
312,296,146278,1,0
224,304,146473,6,0,B|212:240|264:216|264:216|268:168,1,135
252,144,146862,1,8
168,108,147057,1,0
84,72,147252,1,2
84,72,147642,1,10
84,72,148031,6,0,B|56:136|108:172|108:172|60:248,1,180,0|8
64,320,148616,1,0
240,288,149005,1,0
328,272,149200,1,8
416,256,149395,1,0
244,200,149784,5,0
248,108,149979,1,8
252,20,150174,1,0
248,108,150369,2,0,B|336:124|424:68,1,180,0|8
424,160,150953,1,0
340,196,151148,2,0,B|380:296,2,90,0|0|8
172,196,151927,6,0,B|132:296,2,90,0|0|8
92,152,152512,1,0
88,140,152609,1,0
84,128,152706,2,0,B|104:72|156:68|156:68|180:32,1,135
208,68,153096,1,8
296,56,153291,2,0,B|360:116|492:104,1,180
464,105,153875,1,8
348,240,154265,6,0,B|252:208|152:248,1,180,4|8
171,240,154849,1,0
24,344,155239,1,0
96,292,155434,1,8
171,240,155629,1,0
244,188,155823,6,0,B|352:100,1,135
380,72,156213,1,8
468,64,156408,2,0,B|480:124|424:148|424:148|464:252,1,180
451,219,156992,1,8
288,300,157382,6,0,B|192:272|120:340,1,180,0|8
80,260,157966,2,0,B|120:168|48:80,1,180
124,28,158551,2,0,B|212:60,1,90,8|0
296,40,158940,2,0,B|312:96|256:128,1,90,2|0
224,128,159232,1,0
180,140,159330,2,0,B|136:168|148:232,1,90,8|0
136,308,159719,2,0,B|248:264,1,90,2|0
392,216,160109,1,10
392,216,160499,5,0
300,60,160888,1,8
344,140,161083,1,0
444,288,161473,1,0
356,296,161667,1,8
268,304,161862,1,0
92,348,162252,5,0
180,328,162447,1,8
268,304,162642,1,0
356,296,162836,2,0,B|344:244|280:212,1,90
296,136,163226,1,8
248,60,163421,1,0
208,140,163616,6,0,B|144:208|20:212,1,180,0|8
68,128,164200,1,0
176,268,164590,1,0
264,280,164784,1,8
352,292,164979,1,0
440,304,165174,5,2
448,288,165564,1,2
456,272,165953,1,2
464,256,166343,1,2
472,240,166732,5,4
256,40,178226,6,0,B|304:124|252:224,1,180
124,332,178810,2,0,B|188:324|220:280,1,90,8|0
384,332,179200,6,0,B|320:324|288:280,1,90,4|0
252,220,179590,1,8
192,152,179784,1,0
188,140,179882,1,0
184,128,179979,2,0,B|96:68,1,90
32,120,180369,2,0,B|108:172,1,90,8|0
108,260,180758,6,0,B|172:256|188:220|188:220|248:220,1,135
252,260,181148,1,8
316,324,181343,2,0,B|360:284|336:232|336:232|404:160,1,180
456,112,181927,1,8
456,112,182122,1,0
388,56,182317,6,0,B|296:104|192:60,1,180,4|8
124,68,182901,1,0
112,64,182999,1,0
100,60,183096,2,0,B|60:144,1,90
152,144,183486,2,0,B|108:240,1,90,8|0
44,280,183875,6,0,B|76:332|144:304,1,90,4|0
164,296,184167,1,0
208,284,184265,2,0,B|280:284|304:328,1,90,8|4
380,336,184655,1,0
416,252,184849,2,0,B|400:188|440:148,1,90,0|8
424,76,185239,1,0
340,112,185434,6,0,B|252:152|148:104,1,180,4|8
100,172,186018,2,0,B|128:224|92:276,2,90
84,84,186603,1,8
168,112,186797,6,0,B|220:136|280:108,1,90,0|4
328,64,187187,1,0
255,117,187382,1,8
340,144,187577,1,0
340,144,187674,1,0
340,144,187772,1,0
412,192,187966,2,0,B|432:288,1,90,0|8
431,280,188356,1,0
432,364,188551,6,0,B|380:368|352:328|352:328|252:348,1,180,4|8
180,316,189135,1,0
168,308,189232,1,0
156,300,189330,1,0
128,216,189525,1,0
60,156,189719,2,0,B|96:120|148:132,1,90,8|0
212,188,190109,6,0,B|280:192|304:152,1,90,4|8
344,88,190499,1,0
424,128,190693,2,0,B|452:88,2,45,0|0|8
492,184,191083,2,0,B|416:264,1,90,8|8
430,250,191667,1,4
172,72,197901,6,0,B|256:120|348:68,1,180,4|8
424,32,198486,1,0
504,68,198680,2,0,B|492:112|428:124|428:124|404:204,1,180,0|8
456,276,199265,6,0,B|412:308|356:288|356:288|268:332,1,180
200,320,199849,1,8
116,288,200044,6,0,B|120:192|40:100,1,180
16,44,200629,1,8
104,44,200823,6,0,B|184:24|228:72|300:44,1,180
264,140,201408,2,0,B|328:152|364:100,1,90,8|0
420,68,201797,1,0
456,152,201992,2,0,B|500:248,1,90,0|8
493,233,202382,1,0
480,324,202577,6,0,B|424:316|396:244,1,90,2|0
328,312,202966,2,0,B|304:252|336:216,1,90,10|0
244,196,203356,2,0,B|260:144|316:136,1,90,2|0
306,137,203745,1,8
376,80,203940,6,0,B|328:48|280:60|280:60|192:44,1,180
112,36,204525,1,8
148,116,204719,2,0,B|168:216,1,90
76,188,205109,2,0,B|100:300,1,90,0|8
68,364,205499,6,0,B|124:376|156:340|156:340|248:340,1,180
240,340,206083,1,8
332,340,206278,2,0,B|376:244,1,90
436,320,206667,2,0,B|480:224,1,90,0|8
476,148,207057,6,0,B|380:112|332:16,1,180
252,56,207642,2,0,B|124:92,1,90,8|0
76,100,208031,1,0
56,188,208226,1,0
144,164,208421,1,8
232,140,208616,6,0,B|292:104|348:112|428:76,1,180
480,40,209200,2,0,B|504:88|476:132,1,90,8|0
436,204,209590,1,0
380,272,209784,1,0
324,344,209979,1,8
380,272,210174,6,0,B|328:240|284:268|284:268|192:252,1,180
124,288,210758,2,0,B|124:232|52:192,1,90,8|0
82,211,211148,1,0
48,128,211343,5,0
312,64,211732,1,2
244,324,212122,1,2
192,152,212512,5,2
216,240,212706,1,0
304,260,212901,1,0
392,288,213096,2,0,B|516:324,1,90,8|0
460,224,213486,6,0,B|400:136|432:28,1,180,4|8
425,52,214070,1,0
336,68,214265,2,0,B|248:100|144:64,1,180,0|8
88,124,214849,5,2
80,140,215239,1,2
72,156,215629,1,2
64,172,216018,1,2
56,188,216408,1,2
100,264,216603,6,0,B|208:280|256:360,1,180,4|8
328,304,217187,1,0
340,296,217284,1,0
352,288,217382,2,0,B|436:232,1,90
424,148,217771,2,0,B|344:200,1,90,8|0
260,200,218161,6,0,B|260:152|304:120,1,90,4|0
268,40,218551,1,8
188,76,218745,1,0
176,84,218843,1,0
164,92,218940,2,0,B|68:144,1,90
124,216,219330,2,0,B|28:272,1,90,8|0
128,304,219719,6,0,B|232:288|308:348,1,180,4|8
360,276,220304,1,0
364,264,220401,1,0
368,252,220499,1,0
396,168,220693,1,0
424,84,220888,1,8
336,100,221083,1,0
308,184,221278,5,4
220,196,221473,1,0
132,208,221667,1,10
92,288,221862,1,0
132,208,222057,5,0
168,124,222252,1,0
200,40,222447,2,0,B|312:24,1,90,10|0
380,36,222836,6,0,B|372:140|472:212,1,180,4|8
449,194,223421,1,0
208,332,223810,2,0,B|304:356,2,90,0|8|0
120,324,224395,6,0,B|136:216|44:144,1,180,4|8
100,80,224979,1,0
372,72,225369,2,0,B|332:44|284:44,2,90,0|8|0
432,128,225953,6,0,B|400:216|472:312,1,180,4|8
368,316,226538,2,0,B|288:256|180:268,1,180
112,296,227122,2,0,B|128:220|92:188,1,90,8|0
108,116,227512,6,0,B|204:144|292:60,1,180,4|8
356,116,228096,2,0,B|312:204|384:292,1,180,4|0
288,280,228680,2,0,B|188:324,1,90,12|0
128,268,229070,5,4
184,96,229460,1,8
156,180,229655,1,0
328,224,230044,1,0
240,200,230239,1,8
156,180,230434,1,0
184,96,230629,6,0,B|284:112|372:52,1,180,4|8
436,108,231213,2,0,B|400:192|448:300,1,180
368,340,231797,2,0,B|320:244,1,90,8|0
360,176,232187,5,4
272,184,232382,1,0
184,188,232577,2,0,B|64:196,1,90,8|0
192,344,233161,1,0
232,264,233356,1,8
272,184,233551,1,0
312,104,233745,5,4
140,48,234135,1,8
224,76,234330,1,0
396,128,234719,1,0
312,104,234914,1,8
272,184,235109,1,0
320,260,235304,6,0,B|268:280|212:252|212:252|144:324,1,180,4|8
100,240,235888,2,0,B|96:152,2,90
188,212,236473,2,0,B|300:176,1,90,8|0
360,160,236862,1,0
216,56,237252,2,0,B|292:112,1,90,8|0
256,192,237495,12,0,239590
256,192,239979,6,0,B|352:192,3,90,2|2|2|2
172,148,240953,2,0,B|144:192|168:232,1,90,2|2
256,192,241343,12,0,245434
