osu file format v13

[General]
AudioFilename: World End.mp3
AudioLeadIn: 0
PreviewTime: 135051
Countdown: 0
SampleSet: Soft
StackLeniency: 0.7
Mode: 0
LetterboxInBreaks: 0
EpilepsyWarning: 1
WidescreenStoryboard: 1

[Editor]
DistanceSpacing: 1
BeatDivisor: 4
GridSize: 4
TimelineZoom: 1

[Metadata]
Title:World End
TitleUnicode:ワールドエンド
Artist:Sasaki Sayaka
ArtistUnicode:佐咲紗花
Creator:Byakugan249
Version:Hard
Source:グリザイアの迷宮 -LE LABYRINTHE DE LA GRISAIA-
Tags:Meikyuu opening frontwing eroge Xinely
BeatmapID:334617
BeatmapSetID:132392

[Difficulty]
HPDrainRate:5
CircleSize:4
OverallDifficulty:6
ApproachRate:7.4
SliderMultiplier:1.5
SliderTickRate:1

[Events]
//Background and Video events
0,0,"BG.jpg",0,0
//Break Periods
2,96842,102204
//Storyboard Layer 0 (Background)
//Storyboard Layer 1 (Fail)
//Storyboard Layer 2 (Pass)
//Storyboard Layer 3 (Foreground)
//Storyboard Sound Samples
//Background Colour Transformations
3,100,163,162,255

[TimingPoints]
643,400,4,2,1,80,1,0
6243,-100,4,2,1,60,0,0
6443,-100,4,2,1,80,0,0
6843,-100,4,2,1,60,0,0
7043,-100,4,2,1,80,0,0
16643,-100,4,2,1,60,0,0
16843,-100,4,2,1,80,0,0
19243,-100,4,2,1,40,0,0
19843,-100,4,2,1,60,0,0
32843,-100,4,2,1,80,0,0
38443,-100,4,2,1,60,0,0
39043,-100,4,2,1,80,0,0
44843,-100,4,2,1,40,0,0
45443,-133.333333333333,4,2,1,70,0,0
51443,-100,4,2,1,80,0,0
58243,-100,4,2,1,80,0,1
58443,-100,4,2,1,80,0,0
71043,-100,4,2,1,80,0,1
71243,-100,4,2,1,80,0,0
78243,-100,4,2,1,50,0,0
78643,-100,4,2,1,80,0,0
81243,-100,4,2,1,50,0,0
81843,-100,4,2,1,80,0,0
84843,-100,4,2,1,50,0,0
85443,-100,4,2,1,80,0,0
89843,-100,4,2,1,50,0,0
90243,-100,4,2,1,80,0,0
96643,-100,4,2,1,60,0,0
103043,-133.333333333333,4,2,1,70,0,0
106243,-100,4,2,1,70,0,0
109643,-100,4,2,1,80,0,0
121643,-100,4,2,1,50,0,0
122243,-133.333333333333,4,2,1,70,0,0
128243,-100,4,2,1,80,0,0
135043,-100,4,2,1,80,0,1
135243,-100,4,2,1,80,0,0
147843,-100,4,2,1,80,0,1
148043,-100,4,2,1,80,0,0
154843,-100,4,2,1,50,0,0
155443,-100,4,2,1,80,0,0
158043,-100,4,2,1,50,0,0
158643,-100,4,2,1,80,0,0
161643,-100,4,2,1,50,0,0
162643,-100,4,2,1,80,0,0
163443,-100,4,2,2,60,0,0
163843,-100,4,2,1,60,0,0
176643,-100,4,2,1,80,0,0
194243,-133.333333333333,4,2,1,70,0,0
195643,-133.333333333333,4,2,1,50,0,0
195843,-133.333333333333,4,2,1,70,0,0
199043,-100,4,2,1,70,0,0
200643,-100,4,2,1,80,0,1
200843,-100,4,2,1,80,0,0
207843,-100,4,2,1,50,0,0
208243,-100,4,2,1,80,0,0
210843,-100,4,2,1,50,0,0
211443,-100,4,2,1,80,0,0
214643,-100,4,2,1,50,0,0
215043,-100,4,2,1,80,0,0
216443,-100,4,2,1,50,0,0
216643,-100,4,2,1,80,0,0
225843,-100,4,2,1,50,0,0
226243,-100,4,2,1,80,0,0
230643,-100,4,2,1,50,0,0
230843,-100,4,2,1,80,0,0
231443,-100,4,2,1,70,0,0
232243,-100,4,2,1,60,0,0
233043,-100,4,2,1,50,0,0
233443,-100,4,2,1,45,0,0
233843,-100,4,2,1,40,0,0
234243,-100,4,2,1,30,0,0

[Colours]
Combo1 : 206,160,111
Combo2 : 255,159,207
Combo3 : 255,255,108
Combo4 : 255,6,131
Combo5 : 105,0,210

[HitObjects]
196,313,6243,6,0,P|245:316|279:298,1,75,8|0,3:0|0:0,0:0:0:0:
314,247,6643,2,0,P|334:172|306:83,1,150,8|4,3:0|0:0,0:0:0:0:
265,49,7243,5,0,0:0:0:0:
190,49,7443,1,8,0:0:0:0:
139,105,7643,2,0,P|119:180|147:269,1,150,0|0,0:0|0:0,0:0:0:0:
191,299,8243,1,8,0:0:0:0:
265,299,8443,1,0,0:0:0:0:
335,272,8643,6,0,P|415:263|465:339,1,150,2|8,0:0|0:0,0:0:0:0:
386,334,9243,1,0,0:0:0:0:
335,272,9443,2,0,P|302:203|319:121,1,150,2|8,0:0|0:0,0:0:0:0:
346,65,10043,1,2,0:0:0:0:
289,15,10243,1,0,0:0:0:0:
214,15,10443,5,0,0:0:0:0:
143,39,10643,2,0,P|108:80|100:132,1,75,8|0,0:0|0:0,0:0:0:0:
96,136,10943,2,0,L|96:259,1,112.5,0|0,0:0|0:0,0:0:0:0:
120,319,11443,1,8,0:0:0:0:
183,279,11643,1,0,0:0:0:0:
185,204,11843,6,0,P|244:170|311:173,1,112.5,4|8,0:0|0:0,0:0:0:0:
324,173,12243,1,8,0:0:0:0:
397,258,12443,2,0,P|338:292|241:285,1,150,4|0,0:0|0:0,0:0:0:0:
185,204,13043,1,8,0:0:0:0:
53,132,13443,6,0,P|31:211|63:283,1,150,4|8,0:0|0:0,0:0:0:0:
110,322,14043,2,0,B|181:348|181:348|256:322,1,150,0|0,0:0|0:0,0:0:0:0:
315,283,14643,1,8,0:0:0:0:
363,225,14843,6,0,P|384:145|356:64,1,150,0|0,0:0|0:0,0:0:0:0:
315,27,15443,1,8,0:0:0:0:
264,82,15643,2,0,P|243:162|271:243,1,150,0|0,0:0|0:0,0:0:0:0:
315,283,16243,2,0,P|349:306|399:300,1,75,8|0,0:0|0:0,0:0:0:0:
435,254,16643,6,0,P|471:237|510:241,2,75,4|0|8,0:0|0:0|0:0,0:0:0:0:
382,307,17243,2,0,P|310:338|247:307,1,150,4|0,0:0|0:0,0:0:0:0:
194,258,17843,1,8,0:0:0:0:
160,191,18043,6,0,B|159:117|159:117|222:56,1,150,4|0,0:0|0:0,0:0:0:0:
281,153,18643,1,8,0:0:0:0:
356,67,18843,2,0,B|410:119|410:119|409:193,1,150,4|4,0:0|3:0,0:0:0:0:
388,266,19443,2,0,P|362:298|311:311,1,75,4|4,3:0|3:0,0:0:0:0:
256,315,19843,5,4,0:0:0:0:
177,285,20043,1,0,0:0:0:0:
122,234,20243,2,0,P|104:194|108:133,1,75,0|0,0:0|0:0,0:0:0:0:
117,89,20643,1,0,0:0:0:0:
191,80,20843,2,0,P|252:122|259:203,1,150,2|0,0:0|0:0,0:0:0:0:
271,267,21443,6,0,P|356:324|406:323,1,150,2|0,0:0|0:0,0:0:0:0:
454,271,22043,1,0,0:0:0:0:
484,202,22243,1,0,0:0:0:0:
454,133,22443,2,0,L|454:38,2,75,2|0|0,0:0|0:0|0:0,0:0:0:0:
395,180,23043,6,0,P|323:204|249:176,1,150,2|0,0:0|0:0,0:0:0:0:
197,132,23643,1,0,0:0:0:0:
127,160,23843,2,0,P|83:233|109:300,1,150,0|0,0:0|0:0,0:0:0:0:
161,335,24443,1,0,0:0:0:0:
161,335,24643,6,0,L|327:335,1,150,2|0,0:0|0:0,0:0:0:0:
360,234,25243,2,0,L|194:234,1,150,2|0,0:0|0:0,0:0:0:0:
161,335,25843,1,0,0:0:0:0:
139,263,26043,1,0,0:0:0:0:
210,234,26243,5,2,0:0:0:0:
223,160,26443,1,0,0:0:0:0:
250,90,26643,2,0,P|282:75|335:82,1,75,0|0,0:0|0:0,0:0:0:0:
388,109,27043,1,0,0:0:0:0:
403,182,27243,2,0,P|380:228|351:243,1,75,0|0,0:0|0:0,0:0:0:0:
285,244,27643,6,0,P|179:210|66:255,1,225,0|0,0:0|0:0,0:0:0:0:
78,322,28443,2,0,P|184:356|297:311,1,225,0|0,0:0|0:0,0:0:0:0:
351,278,29243,1,0,0:0:0:0:
408,229,29443,6,0,P|434:175|436:148,1,75,2|0,0:0|0:0,0:0:0:0:
434,123,29743,2,0,P|406:80|349:56,1,112.5
278,39,30243,2,0,P|193:42|146:106,1,150,0|0,0:0|0:0,0:0:0:0:
115,194,30843,6,0,P|200:191|247:127,1,150,0|0,0:0|0:0,0:0:0:0:
278,39,31443,2,0,P|343:53|392:121,1,150,0|0,0:0|0:0,0:0:0:0:
393,192,32043,1,0,0:0:0:0:
359,259,32243,2,0,P|321:286|282:289,1,75,8|0,0:0|0:0,0:0:0:0:
218,290,32643,5,4,0:0:0:0:
150,323,32843,1,0,0:0:0:0:
79,297,33043,2,0,P|52:261|48:168,1,112.5,8|0,0:0|0:0,0:0:0:0:
52,159,33443,1,0,0:0:0:0:
90,94,33643,2,0,L|90:10,2,75,0|8|0,0:0|0:0|0:0,0:0:0:0:
127,159,34243,6,0,P|168:176|202:172,1,75,0|0,0:0|0:0,0:0:0:0:
272,163,34643,1,8,0:0:0:0:
336,200,34843,1,0,0:0:0:0:
336,200,34943,2,0,P|389:202|436:154,1,112.5,0|0,0:0|0:0,0:0:0:0:
423,89,35443,1,8,0:0:0:0:
359,128,35643,1,0,0:0:0:0:
336,200,35843,6,0,P|325:282|366:346,1,150,0|8,0:0|0:0,0:0:0:0:
430,354,36443,1,0,0:0:0:0:
470,290,36643,2,0,P|489:241|472:178,1,112.5,0|0,0:0|0:0,0:0:0:0:
456,152,37043,1,8,0:0:0:0:
402,99,37243,6,0,P|327:64|243:69,1,150,0|0,0:0|0:0,0:0:0:0:
191,91,37843,1,8,0:0:0:0:
132,138,38043,2,0,B|89:204|89:204|89:294,1,150,0|4,0:0|0:0,0:0:0:0:
120,343,38643,1,4,3:0:0:0:
192,361,38843,1,4,3:0:0:0:
251,315,39043,6,0,P|282:246|256:170,1,150,4|8,0:0|0:0,0:0:0:0:
191,91,39643,2,0,P|160:160|186:236,1,150,4|0,0:0|0:0,0:0:0:0:
251,315,40243,1,8,0:0:0:0:
362,320,40443,1,0,0:0:0:0:
450,250,40643,6,0,P|473:173|444:100,1,150,4|8,0:0|0:0,0:0:0:0:
356,49,41243,2,0,P|333:126|362:199,1,150,4|0,0:0|0:0,0:0:0:0:
450,250,41843,1,8,0:0:0:0:
362,320,42043,1,0,0:0:0:0:
273,251,42243,6,0,P|191:236|113:259,1,150,4|8,0:0|0:0,0:0:0:0:
128,140,42843,2,0,P|210:155|288:132,1,150,4|0,0:0|0:0,0:0:0:0:
356,62,43443,1,8,0:0:0:0:
446,129,43643,1,0,0:0:0:0:
446,129,43843,6,0,P|469:187|449:251,1,112.5,4|0,0:0|0:0,0:0:0:0:
437,265,44243,1,8,0:0:0:0:
383,317,44443,2,0,P|331:336|229:319,1,150,4|4,0:0|3:0,0:0:0:0:
170,294,45043,2,0,P|134:282|93:284,1,75,4|4,3:0|3:0,0:0:0:0:
43,233,45443,6,0,P|31:178|70:123,1,112.500004291535,4|0,0:0|0:0,0:0:0:0:
120,92,46043,2,0,L|251:92,1,112.500004291535,4|0,3:0|0:0,0:0:0:0:
300,119,46643,1,8,0:0:0:0:
342,178,46843,1,0,0:0:0:0:
345,251,47043,6,0,P|381:281|431:286,1,84.3750032186509,4|4,3:0|3:0,0:0:0:0:
484,201,47643,2,0,P|486:145|420:53,1,168.750006437302,4|8,3:0|0:0,0:0:0:0:
350,65,48443,1,0,0:0:0:0:
277,56,48643,6,0,P|206:53|153:71,1,112.500004291535,4|0,3:0|0:0,0:0:0:0:
117,118,49243,2,0,L|116:239,1,112.500004291535,4|0,3:0|0:0,0:0:0:0:
163,286,49843,1,8,0:0:0:0:
226,321,50043,1,0,0:0:0:0:
298,312,50243,6,0,P|334:278|334:229,1,84.3750032186509,4|4,3:0|3:0,0:0:0:0:
325,136,50843,2,0,P|360:97|436:85,1,112.500004291535,4|0,3:0|0:0,0:0:0:0:
461,143,51443,6,0,P|481:191|476:229,1,75,12|0,0:0|0:0,0:0:0:0:
471,287,51843,6,0,P|445:334|375:367,2,112.5,4|4|4,0:0|0:0|0:0,0:0:0:0:
401,258,52643,2,0,P|350:218|331:150,1,112.5,4|0,0:0|0:0,0:0:0:0:
329,137,53043,1,8,0:0:0:0:
322,62,53243,1,0,0:0:0:0:
249,39,53443,6,0,P|191:49|145:85,2,112.5,4|4|4,0:0|0:0|0:0,0:0:0:0:
265,112,54243,2,0,P|247:183|192:214,1,112.5,4|0,0:0|0:0,0:0:0:0:
182,218,54643,1,8,0:0:0:0:
108,222,54843,1,0,0:0:0:0:
71,156,55043,6,0,P|89:85|166:47,1,150,4|8,0:0|0:0,0:0:0:0:
227,46,55643,1,0,0:0:0:0:
299,64,55843,2,0,P|351:96|381:153,1,112.5,4|0,0:0|0:0,0:0:0:0:
379,176,56243,1,8,0:0:0:0:
380,250,56443,6,0,P|376:296|345:328,1,75,4|0,0:0|0:0,0:0:0:0:
290,347,56843,2,0,L|127:347,1,150,8|0,0:0|0:0,0:0:0:0:
79,301,57443,5,12,0:0:0:0:
34,173,57743,1,12,0:0:0:0:
102,56,58043,1,12,0:0:0:0:
170,24,58243,5,4,0:0:0:0:
231,67,58443,2,0,L|322:67,1,75,0|8,0:0|0:0,0:0:0:0:
364,113,58843,1,0,0:0:0:0:
364,113,58943,2,0,P|384:169|363:238,1,112.5,0|0,0:0|0:0,0:0:0:0:
332,283,59443,1,8,0:0:0:0:
266,318,59643,1,0,0:0:0:0:
192,334,59843,6,0,P|106:326|59:259,2,150,2|10|2,0:0|0:0|0:0,0:0:0:0:
175,184,61043,1,10,0:0:0:0:
125,42,61443,5,2,0:0:0:0:
66,88,61643,1,0,0:0:0:0:
31,155,61843,2,0,P|32:217|57:254,1,75,8|0,0:0|0:0,0:0:0:0:
54,260,62143,2,0,P|97:306|164:316,1,112.5,0|0,0:0|0:0,0:0:0:0:
208,280,62643,1,8,0:0:0:0:
276,310,62843,1,0,0:0:0:0:
345,280,63043,6,0,P|362:230|339:156,1,112.5,12|12,0:0|0:0,0:0:0:0:
332,139,63443,1,0,0:0:0:0:
348,65,63643,2,0,P|441:59|492:113,1,150,12|0,0:0|0:0,0:0:0:0:
488,167,64243,1,8,0:0:0:0:
475,241,64443,1,0,0:0:0:0:
430,301,64643,6,0,P|365:348|289:345,1,150,4|8,0:0|0:0,0:0:0:0:
228,319,65243,2,0,L|178:319,2,37.5
250,247,65643,2,0,P|255:211|250:149,2,75,0|8|0,0:0|0:0|0:0,0:0:0:0:
175,242,66243,6,0,P|122:238|77:198,1,112.5,0|0,0:0|0:0,0:0:0:0:
61,166,66643,1,8,0:0:0:0:
87,93,66843,1,0,0:0:0:0:
147,48,67043,2,0,P|221:46|307:88,1,150,0|8,0:0|0:0,0:0:0:0:
344,127,67643,1,0,0:0:0:0:
313,195,67843,6,0,P|290:267|329:344,1,150,4|8,0:0|0:0,0:0:0:0:
388,356,68443,1,4,3:0:0:0:
454,320,68643,2,0,P|477:280|477:244,1,75,0|4,0:0|3:0,0:0:0:0:
478,178,69043,1,8,0:0:0:0:
423,126,69243,1,0,0:0:0:0:
350,107,69443,5,4,0:0:0:0:
277,126,69643,2,0,P|197:163|122:156,1,150,8|0,0:0|0:0,0:0:0:0:
93,98,70243,5,10,0:0:0:0:
200,15,70543,1,10,0:0:0:0:
323,68,70843,1,10,0:0:0:0:
277,126,71043,5,4,0:0:0:0:
311,192,71243,2,0,P|316:237|297:273,1,75,0|8,0:0|0:0,0:0:0:0:
250,316,71643,1,0,0:0:0:0:
250,316,71743,2,0,P|188:318|129:303,1,112.5,0|0,0:0|0:0,0:0:0:0:
96,245,72243,1,8,0:0:0:0:
109,171,72443,1,0,0:0:0:0:
161,117,72643,5,2,0:0:0:0:
362,56,73043,1,10,0:0:0:0:
331,266,73443,1,2,0:0:0:0:
126,309,73843,1,10,0:0:0:0:
199,295,74043,1,0,0:0:0:0:
271,312,74243,5,2,0:0:0:0:
331,266,74443,1,0,0:0:0:0:
404,249,74643,2,0,P|419:205|412:174,1,75,8|0,0:0|0:0,0:0:0:0:
401,142,74943,2,0,P|363:101|295:89,1,112.5,0|0,0:0|0:0,0:0:0:0:
234,90,75443,1,8,0:0:0:0:
172,46,75643,1,0,0:0:0:0:
111,87,75843,6,0,B|68:141|68:141|68:206,1,112.5,12|12,0:0|0:0,0:0:0:0:
76,220,76243,1,0,0:0:0:0:
106,288,76443,2,0,P|148:317|241:282,1,150,12|0,0:0|0:0,0:0:0:0:
286,232,77043,2,0,P|294:198|284:147,1,75,8|0,0:0|0:0,0:0:0:0:
255,91,77443,6,0,P|324:39|405:39,1,150,4|8,0:0|0:0,0:0:0:0:
456,57,78043,2,0,L|505:58,2,37.5,4|4|0,3:0|3:0|0:0,0:0:0:0:
428,127,78443,1,4,3:0:0:0:
438,201,78643,2,0,P|423:250|397:272,1,75,8|0,0:0|0:0,0:0:0:0:
348,313,79043,6,0,B|285:352|285:352|183:352,1,150,0|8,0:0|0:0,0:0:0:0:
107,303,79643,2,0,B|170:264|170:264|272:264,1,150,0|0,0:0|0:0,0:0:0:0:
348,313,80243,1,8,0:0:0:0:
395,211,80443,1,0,0:0:0:0:
348,108,80643,6,0,P|308:66|198:54,1,150,4|8,0:0|0:0,0:0:0:0:
147,66,81243,2,0,L|95:66,2,37.5,4|4|0,3:0|3:0|0:0,0:0:0:0:
190,127,81643,1,4,3:0:0:0:
147,188,81843,1,8,0:0:0:0:
172,258,82043,1,0,0:0:0:0:
172,258,82243,6,0,P|131:311|64:320,1,112.5,12|4,0:0|0:0,0:0:0:0:
51,322,82643,1,0,0:0:0:0:
0,222,82843,2,0,P|60:162|122:155,1,150,12|0,0:0|0:0,0:0:0:0:
192,182,83443,1,8,0:0:0:0:
172,258,83643,1,0,0:0:0:0:
172,258,83843,6,0,P|208:301|275:320,1,112.5,4|0,0:0|0:0,0:0:0:0:
296,314,84243,1,8,0:0:0:0:
357,271,84443,1,0,0:0:0:0:
399,209,84643,2,0,P|406:168|393:125,1,75,0|8,0:0|0:0,0:0:0:0:
293,94,85043,2,0,P|286:135|299:178,1,75,8|8,0:0|3:0,0:0:0:0:
399,209,85443,1,0,0:0:0:0:
399,209,85843,6,0,P|343:263|246:269,1,150,4|0,0:0|0:0,0:0:0:0:
203,249,86443,2,0,P|163:241|110:241,1,75,0|2,0:0|0:0,0:0:0:0:
62,204,86843,1,0,0:0:0:0:
62,204,87043,6,0,P|57:144|91:76,1,112.5,4|4,0:0|3:0,0:0:0:0:
103,70,87443,1,0,0:0:0:0:
174,92,87643,2,0,P|248:121|321:82,1,150,4|0,3:0|0:0,0:0:0:0:
372,55,88243,1,8,0:0:0:0:
426,105,88443,6,0,B|448:190|448:190|448:273,2,150,4|2|2,0:0|0:0|0:0,0:0:0:0:
292,172,89643,1,8,0:0:0:0:
237,223,89843,1,8,0:0:0:0:
162,222,90043,1,4,3:0:0:0:
90,245,90243,6,0,P|91:306|147:339,1,112.5,4|0,0:0|0:0,0:0:0:0:
164,344,90643,1,8,0:0:0:0:
238,353,90843,2,0,L|410:353,1,150,0|0,0:0|0:0,0:0:0:0:
455,320,91443,1,8,0:0:0:0:
485,251,91643,1,0,0:0:0:0:
450,184,91843,6,0,P|426:103|453:30,2,150,2|8|0,0:0|0:0|0:0,0:0:0:0:
485,251,92843,1,0,0:0:0:0:
455,320,93043,1,8,0:0:0:0:
382,299,93243,1,0,0:0:0:0:
382,299,93443,6,0,P|304:273|268:277,1,112.5,12|10,0:0|0:0,0:0:0:0:
238,281,93843,1,0,0:0:0:0:
164,294,94043,2,0,P|81:238|79:160,1,150,10|8,0:0|0:0,0:0:0:0:
93,122,94643,1,8,3:0:0:0:
150,73,94843,6,0,B|225:73|225:73|314:121,1,150,4|8,0:0|0:0,0:0:0:0:
328,173,95443,2,0,P|338:215|329:255,1,75,8|8,0:0|0:0,0:0:0:0:
307,316,95843,5,10,0:0:0:0:
179,359,96143,1,10,0:0:0:0:
78,268,96443,2,0,L|77:175,1,75,10|2,0:0|0:0,0:0:0:0:
327,195,103043,6,0,P|363:223|375:295,2,112.500004291535,4|0|2,0:0|0:0|0:0,0:0:0:0:
254,184,104043,2,0,P|207:148|195:93,1,112.500004291535,0|0,0:0|0:0,0:0:0:0:
124,76,104643,6,0,B|72:90|72:90|36:146,1,112.500004291535,4|0,0:0|0:0,0:0:0:0:
31,211,105243,1,0,0:0:0:0:
31,211,105443,2,0,P|49:256|95:285,2,84.3750032186509,8|8|4,3:0|3:0|3:0,0:0:0:0:
90,165,106243,6,0,P|127:123|201:123,1,112.5,4|0,0:0|0:0,0:0:0:0:
216,127,106643,1,0,0:0:0:0:
273,175,106843,1,0,0:0:0:0:
326,121,107043,6,0,P|380:128|426:188,1,112.5,4|0,0:0|0:0,0:0:0:0:
434,202,107443,1,0,0:0:0:0:
416,274,107643,1,0,0:0:0:0:
353,314,107843,5,4,0:0:0:0:
219,331,108143,1,4,0:0:0:0:
154,212,108443,2,0,B|153:99|153:99|220:42|220:42|333:42,1,300,4|2,0:0|0:0,0:0:0:0:
468,58,109643,6,0,L|468:13,2,37.5,0|0|12,0:0|0:0|0:0,0:0:0:0:
479,132,110043,1,0,0:0:0:0:
479,132,110143,2,0,P|480:200|449:242,1,112.5,0|0,0:0|0:0,0:0:0:0:
400,285,110643,1,8,0:0:0:0:
325,291,110843,1,0,0:0:0:0:
250,278,111043,5,0,0:0:0:0:
250,278,111243,1,0,0:0:0:0:
179,252,111443,2,0,P|113:241|91:250,1,75,8|0,0:0|0:0,0:0:0:0:
69,246,111743,2,0,P|30:206|24:143,1,112.5,0|0,0:0|0:0,0:0:0:0:
57,85,112243,1,8,0:0:0:0:
125,53,112443,1,0,0:0:0:0:
125,53,112643,6,0,P|203:35|281:58,1,150,0|8,0:0|0:0,0:0:0:0:
308,116,113243,1,0,0:0:0:0:
308,116,113443,2,0,P|328:196|300:258,1,150,0|8,0:0|0:0,0:0:0:0:
209,320,114043,6,0,P|189:240|217:178,1,150,0|0,0:0|0:0,0:0:0:0:
308,116,114643,1,8,0:0:0:0:
308,116,114843,2,0,P|371:81|435:115,1,150,0|4,0:0|0:0,0:0:0:0:
463,183,115443,1,8,0:0:0:0:
443,255,115643,1,0,0:0:0:0:
396,314,115843,6,0,P|354:338|291:338,1,112.5,4|0,0:0|0:0,0:0:0:0:
254,331,116243,1,8,0:0:0:0:
188,294,116443,2,0,P|162:223|186:142,1,150,4|0,0:0|0:0,0:0:0:0:
214,86,117043,1,8,0:0:0:0:
143,60,117243,1,0,0:0:0:0:
86,109,117443,6,0,P|56:159|66:235,1,112.5,4|0,0:0|0:0,0:0:0:0:
65,248,117843,1,8,0:0:0:0:
110,307,118043,2,0,P|190:282|254:313,1,150,4|0,0:0|0:0,0:0:0:0:
313,342,118643,1,8,0:0:0:0:
376,302,118843,1,0,0:0:0:0:
415,238,119043,6,0,L|416:100,1,112.5,4|0,0:0|0:0,0:0:0:0:
415,87,119443,1,8,0:0:0:0:
316,33,119643,2,0,L|316:188,1,150,4|0,0:0|0:0,0:0:0:0:
415,238,120243,1,8,0:0:0:0:
376,302,120443,1,0,0:0:0:0:
376,302,120643,6,0,B|328:331|328:331|253:333,1,112.5,4|4,0:0|0:0,0:0:0:0:
234,325,121043,1,8,0:0:0:0:
170,284,121243,2,0,P|146:214|171:131,1,150,4|4,0:0|3:0,0:0:0:0:
214,86,121843,2,0,L|306:86,1,75,4|4,3:0|3:0,0:0:0:0:
358,109,122243,5,4,0:0:0:0:
330,176,122443,1,0,0:0:0:0:
256,173,122643,2,0,P|232:178|201:206,1,56.2500021457673,0|4,0:0|3:0,0:0:0:0:
183,224,122943,2,0,P|152:249|98:249,1,84.3750032186509,0|0,0:0|0:0,0:0:0:0:
123,180,123443,1,8,0:0:0:0:
183,224,123643,1,0,0:0:0:0:
225,283,123843,6,0,B|260:307|260:307|311:309,1,84.3750032186509,4|4,3:0|3:0,0:0:0:0:
398,256,124443,2,0,B|430:186|430:186|430:92,1,168.750006437302,4|8,3:0|0:0,0:0:0:0:
373,48,125243,1,0,0:0:0:0:
304,72,125443,6,0,P|248:100|190:100,1,112.500004291535,4|0,3:0|0:0,0:0:0:0:
125,101,126043,2,0,P|71:138|61:187,1,112.500004291535,4|0,3:0|0:0,0:0:0:0:
69,254,126643,1,8,0:0:0:0:
125,301,126843,1,0,0:0:0:0:
194,278,127043,5,4,3:0:0:0:
258,313,127243,2,0,L|259:357,2,28.1250010728836,0|4|0,0:0|3:0|0:0,0:0:0:0:
307,258,127643,2,0,P|337:206|340:144,1,112.500004291535,4|0,3:0|0:0,0:0:0:0:
347,79,128243,6,0,L|414:32,1,75,4|0,0:0|0:0,0:0:0:0:
347,79,128643,6,0,P|287:98|222:83,1,112.5,4|4,0:0|0:0,0:0:0:0:
128,68,129243,1,4,0:0:0:0:
128,68,129443,2,0,P|68:115|55:177,1,112.5,4|0,0:0|0:0,0:0:0:0:
51,184,129843,1,8,0:0:0:0:
72,256,130043,1,0,0:0:0:0:
136,293,130243,6,0,P|186:266|242:266,1,112.5,4|4,0:0|0:0,0:0:0:0:
353,271,130843,1,4,0:0:0:0:
410,223,131043,2,0,P|431:183|423:103,1,112.5,4|0,0:0|0:0,0:0:0:0:
411,83,131443,1,8,0:0:0:0:
341,54,131643,1,0,0:0:0:0:
341,54,131843,6,0,P|259:86|234:146,1,150,4|8,0:0|0:0,0:0:0:0:
253,213,132443,1,0,0:0:0:0:
253,213,132643,2,0,P|250:288|185:330,1,150,4|8,0:0|0:0,0:0:0:0:
94,275,133243,6,0,P|97:200|162:158,1,150,4|8,0:0|0:0,0:0:0:0:
225,137,133843,2,0,P|261:127|310:127,1,75,0|0,0:0|0:0,0:0:0:0:
356,174,134243,5,12,0:0:0:0:
337,307,134543,1,12,0:0:0:0:
207,269,134843,1,12,0:0:0:0:
153,217,135043,5,4,0:0:0:0:
87,180,135243,2,0,P|78:223|105:276,1,75,0|8,0:0|0:0,0:0:0:0:
120,318,135643,1,0,0:0:0:0:
120,318,135743,2,0,P|185:346|234:348,1,112.5,0|0,0:0|0:0,0:0:0:0:
284,301,136243,1,8,0:0:0:0:
338,352,136443,1,0,0:0:0:0:
392,303,136643,6,0,B|446:245|446:245|446:159,2,150,2|10|2,0:0|0:0|0:0,0:0:0:0:
275,208,137843,1,10,0:0:0:0:
348,77,138243,5,2,0:0:0:0:
416,109,138443,2,0,P|440:139|445:181,1,75,0|8,0:0|0:0,0:0:0:0:
421,245,138843,1,0,0:0:0:0:
421,245,138943,2,0,P|383:283|306:294,1,112.5,0|0,0:0|0:0,0:0:0:0:
254,275,139443,2,0,P|208:273|175:293,1,75,8|0,0:0|0:0,0:0:0:0:
107,285,139843,6,0,P|57:239|53:183,1,112.5,12|12,0:0|0:0,0:0:0:0:
51,159,140243,1,0,0:0:0:0:
94,97,140443,2,0,B|144:65|144:65|172:106|243:106,1,150,12|0,0:0|0:0,0:0:0:0:
296,100,141043,1,8,0:0:0:0:
367,123,141243,1,0,0:0:0:0:
438,100,141443,6,0,B|515:100|515:100|483:166|515:240|515:240|420:240,1,300,4|0,0:0|0:0,0:0:0:0:
367,209,142443,1,0,0:0:0:0:
295,232,142643,2,0,P|255:254|238:288,1,75,8|0,0:0|0:0,0:0:0:0:
179,322,143043,6,0,P|134:309|89:250,1,112.5,0|0,0:0|0:0,0:0:0:0:
77,225,143443,1,8,0:0:0:0:
84,149,143643,1,0,0:0:0:0:
131,90,143843,2,0,P|206:45|273:47,1,150,0|8,0:0|0:0,0:0:0:0:
336,72,144443,1,0,0:0:0:0:
291,132,144643,6,0,B|260:182|260:182|260:246,1,112.5,4|0,0:0|0:0,0:0:0:0:
269,271,145043,1,8,0:0:0:0:
324,321,145243,1,4,3:0:0:0:
394,347,145443,2,0,L|477:347,1,75,0|4,0:0|3:0,0:0:0:0:
488,274,145843,1,8,0:0:0:0:
488,199,146043,1,0,0:0:0:0:
453,132,146243,5,4,0:0:0:0:
392,87,146443,2,0,P|330:121|248:120,1,150,8|0,0:0|0:0,0:0:0:0:
177,119,147043,5,12,0:0:0:0:
75,30,147343,1,12,0:0:0:0:
58,162,147643,1,12,0:0:0:0:
62,236,147843,5,4,0:0:0:0:
80,308,148043,2,0,P|107:347|149:348,1,75,0|8,0:0|0:0,0:0:0:0:
205,335,148443,1,0,0:0:0:0:
205,335,148543,2,0,P|225:280|211:213,1,112.5,0|0,0:0|0:0,0:0:0:0:
221,152,149043,1,8,0:0:0:0:
289,120,149243,1,0,0:0:0:0:
363,126,149443,5,2,0:0:0:0:
472,305,149843,1,10,0:0:0:0:
363,126,150243,1,2,0:0:0:0:
209,268,150643,1,10,0:0:0:0:
241,335,150843,1,0,0:0:0:0:
316,329,151043,5,2,0:0:0:0:
381,292,151243,2,0,P|421:278|461:279,1,75,0|8,0:0|0:0,0:0:0:0:
479,207,151643,1,0,0:0:0:0:
479,207,151743,2,0,B|479:145|479:145|436:81,1,112.5,0|0,0:0|0:0,0:0:0:0:
382,72,152243,1,8,0:0:0:0:
307,72,152443,1,0,0:0:0:0:
237,99,152643,6,0,B|208:140|208:140|208:202,1,112.5,4|0,0:0|0:0,0:0:0:0:
221,238,153043,1,8,0:0:0:0:
178,299,153243,2,0,P|111:344|44:296,1,150,4|0,0:0|0:0,0:0:0:0:
26,247,153843,2,0,L|26:162,1,75,8|0,0:0|0:0,0:0:0:0:
115,129,154243,6,0,P|136:203|99:281,1,150,4|8,0:0|0:0,0:0:0:0:
142,336,154843,1,4,3:0:0:0:
142,336,155043,2,0,P|191:350|222:345,1,75,0|4,0:0|3:0,0:0:0:0:
282,315,155443,1,8,0:0:0:0:
356,324,155643,1,0,0:0:0:0:
414,276,155843,6,0,B|447:232|447:232|447:172,1,112.5,0|0,0:0|0:0,0:0:0:0:
435,138,156243,1,8,0:0:0:0:
387,80,156443,2,0,B|322:44|322:44|238:44,1,150,0|0,0:0|0:0,0:0:0:0:
195,99,157043,1,8,0:0:0:0:
248,151,157243,1,0,0:0:0:0:
321,167,157443,6,0,P|352:230|279:301,1,150,4|8,0:0|0:0,0:0:0:0:
244,323,158043,2,0,L|244:365,2,37.5
170,306,158443,1,4,3:0:0:0:
106,266,158643,2,0,P|76:233|67:192,1,75,8|0,0:0|0:0,0:0:0:0:
70,129,159043,6,0,P|134:66|173:66,1,112.5,12|4,0:0|0:0,0:0:0:0:
189,63,159443,1,0,0:0:0:0:
274,139,159643,2,0,P|210:202|131:202,1,150,12|0,0:0|0:0,0:0:0:0:
70,129,160243,1,8,0:0:0:0:
123,75,160443,1,0,0:0:0:0:
123,75,160643,6,0,P|174:38|233:38,1,112.5,4|0,0:0|0:0,0:0:0:0:
257,47,161043,1,8,0:0:0:0:
316,92,161243,1,0,0:0:0:0:
348,159,161443,2,0,P|357:200|350:243,1,75,0|0,0:0|0:0,0:0:0:0:
322,300,161843,1,8,0:0:0:0:
362,363,162043,1,4,3:0:0:0:
427,327,162243,1,2,0:0:0:0:
427,327,162643,6,0,P|466:248|460:179,1,150,4|0,0:0|0:0,0:0:0:0:
424,123,163243,1,0,0:0:0:0:
353,97,163443,1,4,0:0:0:0:
206,66,163843,6,0,P|121:83|68:143,1,150,4|8,0:0|0:0,0:0:0:0:
48,235,164443,2,0,P|133:218|186:158,1,150,0|0,0:0|0:0,0:0:0:0:
206,66,165043,1,8,0:0:0:0:
281,72,165243,1,2,0:0:0:0:
340,116,165443,6,0,P|382:130|428:131,2,75,0|0|8,0:0|0:0|0:0,0:0:0:0:
281,72,166043,2,0,P|252:151|286:215,1,150,2|0,0:0|0:0,0:0:0:0:
320,269,166643,1,8,0:0:0:0:
312,343,166843,1,0,0:0:0:0:
237,358,167043,6,0,B|161:358|161:358|92:315,1,150,2|8,0:0|0:0,0:0:0:0:
60,212,167643,2,0,B|136:212|136:212|205:255,1,150,2|0,0:0|0:0,0:0:0:0:
237,358,168243,1,8,0:0:0:0:
335,303,168443,1,0,0:0:0:0:
378,199,168643,6,0,P|379:127|308:65,1,150,2|8,0:0|0:0,0:0:0:0:
258,45,169243,2,0,L|203:45,1,37.5,4|4,3:0|3:0,0:0:0:0:
109,62,169543,2,0,L|81:99,1,37.5,4|4,3:0|3:0,0:0:0:0:
39,194,169843,2,0,P|30:245|44:284,1,75,8|0,0:0|0:0,0:0:0:0:
83,325,170243,5,4,0:0:0:0:
153,351,170443,1,0,0:0:0:0:
227,342,170643,2,0,P|270:271|258:224,1,112.5,10|0,0:0|0:0,0:0:0:0:
257,209,171043,2,0,P|249:150|281:104,1,112.5,2|0,0:0|0:0,0:0:0:0:
310,90,171443,2,0,P|338:82|410:94,1,75,8|0,0:0|0:0,0:0:0:0:
447,122,171843,5,0,0:0:0:0:
469,193,172043,1,0,0:0:0:0:
453,266,172243,2,0,P|421:311|388:326,1,75,8|0,0:0|0:0,0:0:0:0:
331,304,172643,2,0,P|247:288|175:313,1,150,2|8,0:0|0:0,0:0:0:0:
116,334,173243,1,0,0:0:0:0:
56,288,173443,6,0,B|18:223|18:223|18:137,1,150,4|8,0:0|0:0,0:0:0:0:
96,66,174043,2,0,B|134:131|134:131|134:217,1,150,2|0,0:0|0:0,0:0:0:0:
56,288,174643,1,8,0:0:0:0:
134,206,174843,1,2,0:0:0:0:
211,288,175043,6,0,P|299:289|350:245,1,150,4|8,0:0|0:0,0:0:0:0:
380,186,175643,1,0,0:0:0:0:
380,186,175843,2,0,P|380:125|347:69,2,112.5,4|4|4,0:0|0:0|0:0,0:0:0:0:
351,255,176643,5,4,3:0:0:0:
379,324,176843,2,0,P|418:343|457:346,1,75,8|8,0:0|0:0,0:0:0:0:
492,284,177243,2,0,B|502:202|502:202|486:132,1,150,4|0,0:0|0:0,0:0:0:0:
437,80,177843,1,8,0:0:0:0:
371,44,178043,6,0,L|213:44,1,150,4|0,0:0|0:0,0:0:0:0:
153,77,178643,2,0,P|121:108|114:142,1,75,8|0,0:0|0:0,0:0:0:0:
160,241,179043,2,0,P|192:210|199:176,1,75,8|0,0:0|0:0,0:0:0:0:
153,77,179443,2,0,P|197:59|227:62,1,75,8|0,0:0|0:0,0:0:0:0:
290,95,179843,5,4,0:0:0:0:
360,119,180043,2,0,L|404:119,2,37.5,8|8|8,0:0|0:0|0:0,0:0:0:0:
305,170,180443,2,0,P|298:229|328:323,1,150,4|0,0:0|0:0,0:0:0:0:
389,351,181043,1,8,0:0:0:0:
323,315,181243,6,0,P|235:317|170:359,1,150,4|0,0:0|0:0,0:0:0:0:
108,337,181843,1,8,0:0:0:0:
44,296,182043,2,0,B|22:225|22:225|22:145,1,150,0|0,0:0|0:0,0:0:0:0:
69,91,182643,1,8,0:0:0:0:
136,57,182843,6,0,B|214:57|214:57|283:99,1,150,4|0,0:0|0:0,0:0:0:0:
290,168,183443,1,8,0:0:0:0:
329,231,183643,2,0,B|391:267|391:267|469:267,1,150,0|0,0:0|0:0,0:0:0:0:
495,196,184243,1,8,0:0:0:0:
473,124,184443,1,4,0:0:0:0:
256,192,184543,12,0,186643,0:0:0:0:
132,278,187043,6,0,P|181:311|247:303,2,112.5,12|12|12,0:0|0:0|0:0,0:0:0:0:
99,210,187843,1,4,0:0:0:0:
110,179,189443,5,4,0:0:0:0:
125,153,191043,5,4,0:0:0:0:
144,129,192643,6,0,P|198:89|291:89,1,150,4|8,0:0|0:0,0:0:0:0:
368,154,193243,2,0,P|314:194|221:194,1,150,4|0,0:0|0:0,0:0:0:0:
144,129,193843,2,0,P|95:150|69:172,1,75,8|0,0:0|0:0,0:0:0:0:
62,234,194243,6,0,P|86:289|149:321,1,112.500004291535,4|0,0:0|0:0,0:0:0:0:
201,327,194843,1,0,0:0:0:0:
272,311,195043,2,0,P|320:310|390:333,1,112.500004291535,8|0,0:0|0:0,0:0:0:0:
444,291,195643,1,0,0:0:0:0:
475,225,195843,6,0,P|495:166|485:108,1,112.500004291535,8|0,0:0|0:0,0:0:0:0:
428,74,196443,1,0,0:0:0:0:
362,40,196643,2,0,P|292:41|248:66,2,112.500004291535,8|8|4,0:0|0:0|0:0,0:0:0:0:
411,177,197843,5,0,0:0:0:0:
371,238,198043,1,0,0:0:0:0:
311,280,198243,2,0,P|272:302|211:298,2,84.3750032186509,8|0|0,0:0|0:0|0:0,0:0:0:0:
306,204,199043,5,4,0:0:0:0:
271,137,199243,2,0,B|208:84|208:84|131:84,1,150,8|0,0:0|0:0,0:0:0:0:
78,127,199843,5,12,0:0:0:0:
2,239,200143,1,12,0:0:0:0:
52,364,200443,1,12,0:0:0:0:
112,319,200643,5,4,0:0:0:0:
180,349,200843,2,0,P|229:363|262:361,1,75,0|8,0:0|0:0,0:0:0:0:
326,345,201243,1,0,0:0:0:0:
326,345,201343,2,0,P|367:304|376:237,1,112.5,0|0,0:0|0:0,0:0:0:0:
361,178,201843,1,8,0:0:0:0:
309,123,202043,1,0,0:0:0:0:
244,84,202243,5,2,0:0:0:0:
37,130,202643,1,10,0:0:0:0:
180,285,203043,1,2,0:0:0:0:
244,84,203443,1,10,0:0:0:0:
305,40,203643,1,0,0:0:0:0:
375,65,203843,5,2,0:0:0:0:
416,127,204043,2,0,P|429:172|431:214,1,75,0|8,0:0|0:0,0:0:0:0:
415,273,204443,1,0,0:0:0:0:
415,273,204543,2,0,B|366:311|366:311|301:311,1,112.5,0|0,0:0|0:0,0:0:0:0:
243,291,205043,1,8,0:0:0:0:
170,309,205243,1,0,0:0:0:0:
95,306,205443,6,0,P|47:261|36:203,1,112.5,12|12,0:0|0:0,0:0:0:0:
34,179,205843,1,0,0:0:0:0:
49,105,206043,2,0,B|53:60|82:41|82:41|107:77|163:77,1,150,12|0,0:0|0:0,0:0:0:0:
220,86,206643,1,8,0:0:0:0:
283,125,206843,1,0,0:0:0:0:
342,170,207043,6,0,P|416:203|473:159,1,150,4|8,0:0|0:0,0:0:0:0:
484,94,207643,2,0,L|484:43,2,37.5,4|4|0,3:0|3:0|0:0,0:0:0:0:
469,169,208043,2,0,P|465:225|476:258,2,75,4|8|0,3:0|0:0|0:0,0:0:0:0:
414,117,208643,6,0,P|351:73|268:73,1,150,0|8,0:0|0:0,0:0:0:0:
189,136,209243,2,0,P|252:180|335:180,1,150,0|0,0:0|0:0,0:0:0:0:
414,117,209843,1,8,0:0:0:0:
469,216,210043,1,0,0:0:0:0:
413,315,210243,6,0,B|350:353|350:353|253:353,1,150,4|8,0:0|0:0,0:0:0:0:
200,337,210843,1,4,3:0:0:0:
143,287,211043,1,0,0:0:0:0:
68,279,211243,2,0,P|46:245|46:203,1,75,4|8,3:0|0:0,0:0:0:0:
65,139,211643,1,0,0:0:0:0:
65,139,211843,6,0,P|76:89|124:56,1,112.5,12|12,0:0|0:0,0:0:0:0:
162,55,212243,1,0,0:0:0:0:
200,119,212443,2,0,P|178:196|216:254,1,150,12|0,0:0|0:0,0:0:0:0:
272,296,213043,1,8,0:0:0:0:
346,299,213243,1,0,0:0:0:0:
346,299,213443,6,0,B|395:264|395:264|413:215,1,112.5,4|0,0:0|0:0,0:0:0:0:
407,177,213843,1,8,0:0:0:0:
383,105,214043,1,0,0:0:0:0:
324,58,214243,2,0,L|240:58,1,75,0|0,0:0|0:0,0:0:0:0:
185,150,214643,2,0,L|273:149,1,75,8|4,0:0|3:0,0:0:0:0:
324,58,215043,1,2,0:0:0:0:
324,58,215443,6,0,P|248:26|210:29,1,112.5,4|0,0:0|0:0,0:0:0:0:
183,39,215843,1,8,0:0:0:0:
113,67,216043,2,0,P|54:143|64:205,1,150,0|8,0:0|3:0,0:0:0:0:
104,251,216643,6,0,B|170:288|170:288|224:288,1,112.5,4|0,0:0|0:0,0:0:0:0:
244,288,217043,1,8,0:0:0:0:
333,218,217243,2,0,B|267:181|267:181|182:181,1,150,0|0,0:0|0:0,0:0:0:0:
104,251,217843,1,8,0:0:0:0:
193,182,218043,1,0,0:0:0:0:
104,112,218243,6,0,P|107:69|158:22,1,112.5,12|10,0:0|0:0,0:0:0:0:
192,23,218643,1,0,0:0:0:0:
263,46,218843,2,0,B|333:89|333:89|411:89,1,150,10|0,0:0|0:0,0:0:0:0:
452,143,219443,1,8,0:0:0:0:
468,216,219643,1,0,0:0:0:0:
468,216,219843,6,0,P|448:269|395:299,1,112.5,4|0,0:0|0:0,0:0:0:0:
364,300,220243,1,8,0:0:0:0:
294,271,220443,1,0,0:0:0:0:
320,200,220643,5,12,0:0:0:0:
300,66,220943,1,12,0:0:0:0:
166,76,221243,1,12,0:0:0:0:
166,76,221843,6,0,P|91:93|68:129,1,112.5,4|0,0:0|0:0,0:0:0:0:
61,154,222243,1,8,0:0:0:0:
55,265,222443,2,0,P|130:248|164:185,1,150,4|0,3:0|0:0,0:0:0:0:
166,76,223043,6,0,P|212:43|277:38,1,112.5,4|4,0:0|3:0,0:0:0:0:
361,96,223643,2,0,B|405:158|405:158|406:263,1,150,4|0,3:0|0:0,0:0:0:0:
363,292,224243,1,8,0:0:0:0:
298,329,224443,6,0,L|137:329,2,150,4|2|2,0:0|0:0|0:0,0:0:0:0:
317,180,225643,1,8,0:0:0:0:
336,107,225843,2,0,P|366:78|402:73,1,75,8|4,0:0|3:0,0:0:0:0:
463,110,226243,6,0,P|489:172|481:232,1,112.5,4|0,0:0|0:0,0:0:0:0:
475,252,226643,1,8,0:0:0:0:
428,310,226843,2,0,B|365:343|365:343|266:343,1,150,0|0,0:0|0:0,0:0:0:0:
211,353,227443,2,0,P|165:343|142:310,1,75,8|0,0:0|0:0,0:0:0:0:
107,259,227843,6,0,P|82:183|100:101,1,150,0|8,0:0|0:0,0:0:0:0:
146,62,228443,1,0,0:0:0:0:
205,107,228643,2,0,P|221:156|219:196,1,75,0|0,0:0|0:0,0:0:0:0:
216,253,229043,1,8,0:0:0:0:
267,307,229243,1,0,0:0:0:0:
267,307,229443,6,0,P|346:335|382:323,2,112.5,4|4|12,0:0|0:0|0:0,0:0:0:0:
256,157,230443,2,0,L|256:73,2,75,8|4|4,0:0|3:0|0:0,0:0:0:0:
256,192,230943,12,0,234243,0:0:0:0:
