osu file format v13

[General]
AudioFilename: World End.mp3
AudioLeadIn: 0
PreviewTime: 135051
Countdown: 0
SampleSet: Soft
StackLeniency: 0.7
Mode: 0
LetterboxInBreaks: 0
EpilepsyWarning: 1
WidescreenStoryboard: 1

[Editor]
DistanceSpacing: 1
BeatDivisor: 4
GridSize: 4
TimelineZoom: 1

[Metadata]
Title:World End
TitleUnicode:ワールドエンド
Artist:Sasaki Sayaka
ArtistUnicode:佐咲紗花
Creator:Byakugan249
Version:Easy
Source:グリザイアの迷宮 -LE LABYRINTHE DE LA GRISAIA-
Tags:Meikyuu opening frontwing eroge Xinely
BeatmapID:332976
BeatmapSetID:132392

[Difficulty]
HPDrainRate:2
CircleSize:3
OverallDifficulty:2
ApproachRate:3
SliderMultiplier:0.8
SliderTickRate:1

[Events]
//Background and Video events
0,0,"BG.jpg",0,0
//Break Periods
2,96843,101603
//Storyboard Layer 0 (Background)
//Storyboard Layer 1 (Fail)
//Storyboard Layer 2 (Pass)
//Storyboard Layer 3 (Foreground)
//Storyboard Sound Samples
//Background Colour Transformations
3,100,163,162,255

[TimingPoints]
643,400,4,2,1,80,1,0
6243,-100,4,2,1,60,0,0
7043,-100,4,2,1,80,0,0
16643,-100,4,2,1,60,0,0
16843,-100,4,2,1,80,0,0
19243,-100,4,2,1,40,0,0
19843,-100,4,2,1,80,0,0
38443,-100,4,2,1,60,0,0
39043,-100,4,2,1,80,0,0
44843,-100,4,2,1,40,0,0
45443,-100,4,2,1,70,0,0
51443,-100,4,2,1,60,0,0
51843,-100,4,2,1,80,0,0
58243,-100,4,2,1,80,0,1
58443,-100,4,2,1,80,0,0
71043,-100,4,2,1,80,0,1
71243,-100,4,2,1,80,0,0
96643,-100,4,2,1,60,0,0
103043,-100,4,2,1,70,0,0
109643,-100,4,2,1,80,0,0
121643,-100,4,2,1,50,0,0
122243,-100,4,2,1,70,0,0
128243,-100,4,2,1,80,0,0
135043,-100,4,2,1,80,0,1
135243,-100,4,2,1,80,0,0
147843,-100,4,2,1,80,0,1
148043,-100,4,2,1,80,0,0
163443,-100,4,2,2,60,0,0
163843,-100,4,2,1,60,0,0
176643,-100,4,2,1,80,0,0
194243,-100,4,2,1,70,0,0
200643,-100,4,2,1,80,0,1
200843,-100,4,2,1,80,0,0
231443,-100,4,2,1,70,0,0
232243,-100,4,2,1,60,0,0
233043,-100,4,2,1,50,0,0
233443,-100,4,2,1,45,0,0
233843,-100,4,2,1,40,0,0
234243,-100,4,2,1,30,0,0

[Colours]
Combo1 : 206,160,111
Combo2 : 255,159,207
Combo3 : 255,255,108
Combo4 : 255,6,131
Combo5 : 105,0,210

[HitObjects]
87,142,6243,6,0,P|83:195|163:271,1,160,8|4,3:0|0:0,0:0:0:0:
229,248,7443,6,0,P|274:225|314:227,1,80,8|0,0:0|0:0,0:0:0:0:
377,251,8243,1,8,0:0:0:0:
441,203,8643,2,0,B|441:123|441:123|382:50,2,160,2|2|0,0:0|0:0|0:0,0:0:0:0:
457,281,10643,5,8,0:0:0:0:
393,329,11043,1,0,0:0:0:0:
313,331,11443,1,8,0:0:0:0:
235,312,11843,2,0,P|183:266|175:209,2,120,4|4|8,0:0|0:0|0:0,0:0:0:0:
289,253,13443,6,0,P|343:236|406:254,2,120,4|0|8,0:0|0:0|0:0,0:0:0:0:
235,312,15043,2,0,P|177:280|149:184,1,160,0|0,0:0|0:0,0:0:0:0:
177,120,16243,1,8,0:0:0:0:
233,63,16643,6,0,P|303:44|362:61,1,120,4|4,0:0|0:0,0:0:0:0:
385,125,17643,1,0,0:0:0:0:
376,204,18043,2,0,P|306:234|216:214,1,160,4|4,0:0|0:0,0:0:0:0:
139,136,19443,1,4,3:0:0:0:
121,214,19843,6,0,P|148:278|240:320,1,160,4|0,0:0|0:0,0:0:0:0:
288,270,21043,1,0,0:0:0:0:
316,195,21443,2,0,P|389:168|463:195,1,160,2|0,0:0|0:0,0:0:0:0:
489,270,22643,1,0,0:0:0:0:
454,342,23043,6,0,P|416:363|372:361,1,80,2|0,0:0|0:0,0:0:0:0:
330,300,23843,2,0,B|272:284|272:284|212:299,2,120,0|0|0,0:0|0:0|0:0,0:0:0:0:
387,243,25443,1,0,0:0:0:0:
406,165,25843,1,0,0:0:0:0:
354,103,26243,6,0,P|299:54|205:49,1,160,2|0,0:0|0:0,0:0:0:0:
144,83,27443,1,0,0:0:0:0:
96,147,27843,2,0,P|60:201|66:260,2,120,0|0|0,0:0|0:0|0:0,0:0:0:0:
173,168,29443,6,0,B|219:181|219:181|237:172|266:172|283:181|283:181|329:164,2,160,2|0|0,0:0|0:0|0:0,0:0:0:0:
93,161,31443,1,0,0:0:0:0:
41,222,31843,2,0,P|25:266|26:304,1,80,0|8,0:0|0:0,0:0:0:0:
96,334,32643,5,4,0:0:0:0:
173,352,33043,2,0,P|246:352|314:300,1,160,8|8,0:0|0:0,0:0:0:0:
329,222,34243,1,0,0:0:0:0:
318,142,34643,2,0,P|341:100|386:88,1,80,8|0,0:0|0:0,0:0:0:0:
449,91,35443,1,8,0:0:0:0:
471,170,35843,6,0,B|470:249|470:249|408:321,1,160,0|0,0:0|0:0,0:0:0:0:
341,335,37043,1,8,0:0:0:0:
265,308,37443,2,0,P|211:289|148:314,2,120,0|0|4,0:0|0:0|3:0,0:0:0:0:
334,268,39043,6,0,P|367:221|367:149,2,120,4|4|8,0:0|0:0|0:0,0:0:0:0:
253,268,40643,2,0,P|190:268|143:300,2,120,4|4|8,0:0|0:0|0:0,0:0:0:0:
334,268,42243,6,0,P|397:268|444:300,2,120,4|4|8,0:0|0:0|0:0,0:0:0:0:
294,198,43843,2,0,P|291:133|321:78,1,120,4|4,0:0|0:0,0:0:0:0:
429,49,45043,1,4,3:0:0:0:
469,117,45443,6,0,P|488:172|488:243,2,120,4|4|8,0:0|3:0|0:0,0:0:0:0:
389,117,47043,2,0,L|264:117,2,120,4|4|8,3:0|3:0|0:0,0:0:0:0:
408,194,48643,6,0,P|395:259|337:291,2,120,4|4|8,3:0|3:0|0:0,0:0:0:0:
389,117,50243,2,0,P|376:60|415:9,2,120,4|4|12,3:0|3:0|0:0,0:0:0:0:
408,194,51843,5,4,0:0:0:0:
280,297,52643,1,4,0:0:0:0:
157,194,53443,1,4,0:0:0:0:
280,92,54243,1,4,0:0:0:0:
408,194,55043,6,0,P|410:247|390:280,1,80,4|8,0:0|0:0,0:0:0:0:
341,326,55843,2,0,P|272:355|214:340,1,120,4|4,0:0|0:0,0:0:0:0:
256,192,56843,12,4,58243,0:0:0:0:
160,229,59443,5,8,0:0:0:0:
229,189,59843,2,0,P|262:133|252:34,2,160,2|2|2,0:0|0:0|0:0,0:0:0:0:
160,149,61843,5,8,0:0:0:0:
160,229,62243,2,0,P|194:262|239:264,1,80,0|8,0:0|0:0,0:0:0:0:
302,244,63043,2,0,P|362:223|430:222,2,120,12|12|8,0:0|0:0|0:0,0:0:0:0:
252,182,64643,6,0,P|253:110|335:59,1,160,4|0,0:0|0:0,0:0:0:0:
398,53,65843,1,8,0:0:0:0:
459,104,66243,2,0,P|477:164|452:222,2,120,0|0|8,0:0|0:0|0:0,0:0:0:0:
398,53,67843,6,0,P|308:29|232:40,1,160,4|0,0:0|0:0,0:0:0:0:
169,68,69043,1,8,0:0:0:0:
114,126,69443,2,0,B|91:187|149:225|149:225|91:266|111:334,1,240,4|8,0:0|0:0,0:0:0:0:
187,363,71043,6,0,P|250:363|317:292,1,160,4|0,0:0|0:0,0:0:0:0:
341,221,72243,1,8,0:0:0:0:
352,141,72643,2,0,P|387:77|477:44,2,160,2|2|2,0:0|0:0|0:0,0:0:0:0:
277,169,74643,5,8,0:0:0:0:
215,118,75043,2,0,P|166:116|128:138,1,80,0|8,0:0|0:0,0:0:0:0:
79,182,75843,2,0,P|50:250|50:306,2,120,12|12|8,0:0|0:0|0:0,0:0:0:0:
108,107,77443,6,0,P|181:40|249:40,1,160,4|0,0:0|0:0,0:0:0:0:
313,64,78643,1,8,0:0:0:0:
376,112,79043,2,0,L|376:236,2,120,0|0|8,0:0|0:0|0:0,0:0:0:0:
313,64,80643,6,0,B|208:64|208:64|208:138|246:192|246:192|208:242|208:323|208:323|309:323,1,480,4|0,0:0|0:0,0:0:0:0:
383,292,83443,1,8,0:0:0:0:
444,239,83843,6,0,P|486:173|471:97,1,160,4|0,0:0|0:0,0:0:0:0:
422,35,85043,1,8,0:0:0:0:
343,19,85443,1,2,0:0:0:0:
270,54,85843,2,0,P|227:119|242:195,1,160,4|2,0:0|0:0,0:0:0:0:
293,258,87043,5,4,0:0:0:0:
256,192,87643,12,4,90243,0:0:0:0:
283,342,91443,5,8,0:0:0:0:
334,280,91843,2,0,P|344:236|333:203,1,80,2|8,0:0|0:0,0:0:0:0:
283,140,92643,2,0,L|218:88,1,80,0|8,0:0|0:0,0:0:0:0:
147,57,93443,6,0,P|68:72|53:107,2,120,4|4|8,0:0|0:0|3:0,0:0:0:0:
256,192,94843,12,2,96643,0:0:0:0:
138,269,103043,6,0,P|96:187|96:117,1,160,4|2,0:0|0:0,0:0:0:0:
235,42,104643,2,0,P|307:39|380:97,1,160,4|8,0:0|3:0,0:0:0:0:
412,244,106243,6,0,P|370:297|268:308,2,160,4|4|4,0:0|0:0|0:0,0:0:0:0:
395,165,108243,1,0,0:0:0:0:
361,92,108643,2,0,P|297:40|246:34,1,120,0|2,0:0|0:0,0:0:0:0:
149,75,109843,6,0,P|112:133|122:231,1,160,12|8,0:0|0:0,0:0:0:0:
162,287,111043,1,0,0:0:0:0:
227,333,111443,2,0,P|267:355|303:353,1,80,8|0,0:0|0:0,0:0:0:0:
378,339,112243,1,8,0:0:0:0:
433,281,112643,6,0,P|458:240|458:204,1,80,0|8,0:0|0:0,0:0:0:0:
428,134,113443,2,0,P|380:80|288:71,1,160,0|0,0:0|0:0,0:0:0:0:
220,94,114643,1,8,0:0:0:0:
150,134,115043,2,0,P|108:155|74:156,1,80,0|8,0:0|0:0,0:0:0:0:
40,228,115843,6,0,P|58:296|104:318,1,120,4|4,0:0|0:0,0:0:0:0:
217,335,117043,1,8,0:0:0:0:
295,322,117443,2,0,P|348:281|359:217,1,120,4|4,0:0|0:0,0:0:0:0:
334,116,118643,1,8,0:0:0:0:
268,69,119043,6,0,L|139:69,1,120,4|4,0:0|0:0,0:0:0:0:
49,137,120243,1,8,0:0:0:0:
43,216,120643,2,0,P|67:274|116:301,1,120,4|4,0:0|0:0,0:0:0:0:
234,309,121843,1,4,3:0:0:0:
313,299,122243,6,0,B|354:249|354:249|354:188,1,120,4|4,0:0|3:0,0:0:0:0:
296,88,123443,1,8,0:0:0:0:
223,53,123843,2,0,L|96:53,1,120,4|4,3:0|3:0,0:0:0:0:
59,164,125043,1,8,0:0:0:0:
90,237,125443,6,0,P|138:259|209:255,1,120,4|4,3:0|3:0,0:0:0:0:
319,217,126643,1,8,0:0:0:0:
366,152,127043,2,0,P|386:89|366:27,1,120,4|4,3:0|3:0,0:0:0:0:
254,59,128243,1,4,0:0:0:0:
183,96,128643,6,0,B|139:163|139:163|139:259,2,160,4|4|4,0:0|0:0|0:0,0:0:0:0:
342,96,131043,2,0,B|386:163|386:163|386:259,1,160,4|4,0:0|0:0,0:0:0:0:
343,311,132243,1,8,0:0:0:0:
271,346,132643,6,0,P|200:363|148:340,2,120,4|4|8,0:0|0:0|0:0,0:0:0:0:
290,268,134243,2,0,L|290:175,1,80,0|2,0:0|0:0,0:0:0:0:
271,110,135043,6,0,P|197:77|112:96,1,160,4|0,0:0|0:0,0:0:0:0:
100,167,136243,1,8,0:0:0:0:
130,240,136643,2,0,P|168:250|223:241,2,80,2|10|2,0:0|0:0|0:0,0:0:0:0:
100,167,137843,1,10,0:0:0:0:
130,93,138243,6,0,B|199:50|199:50|287:50,1,160,2|0,0:0|0:0,0:0:0:0:
340,100,139443,1,8,0:0:0:0:
386,165,139843,2,0,B|415:223|415:223|415:294,1,120,12|12,0:0|0:0,0:0:0:0:
321,353,141043,1,8,0:0:0:0:
241,360,141443,6,0,P|162:354|114:288,1,160,4|0,0:0|0:0,0:0:0:0:
96,215,142643,1,8,0:0:0:0:
164,173,143043,2,0,P|241:183|294:241,1,160,0|0,0:0|0:0,0:0:0:0:
309,320,144243,1,8,0:0:0:0:
385,344,144643,6,0,P|439:299|453:211,1,160,4|0,0:0|0:0,0:0:0:0:
416,142,145843,1,8,0:0:0:0:
338,120,146243,2,0,P|261:131|208:189,1,160,4|10,0:0|0:0,0:0:0:0:
191,268,147443,1,0,0:0:0:0:
250,320,147843,6,0,B|283:367|338:367|338:367|399:367,1,160,4|0,0:0|0:0,0:0:0:0:
445,306,149043,1,8,0:0:0:0:
435,226,149443,2,0,B|402:179|347:179|347:179|286:179,1,160,2|2,0:0|0:0,0:0:0:0:
229,229,150643,1,10,0:0:0:0:
165,180,151043,5,2,0:0:0:0:
85,180,151443,2,0,P|69:222|69:268,1,80,8|0,0:0|0:0,0:0:0:0:
123,313,152243,1,8,0:0:0:0:
194,349,152643,2,0,P|248:368|318:367,1,120,4|4,0:0|0:0,0:0:0:0:
417,314,153843,1,8,0:0:0:0:
413,234,154243,6,0,P|379:157|302:109,1,160,4|0,0:0|0:0,0:0:0:0:
244,85,155443,1,8,0:0:0:0:
187,140,155843,2,0,P|126:183|77:183,2,120,0|0|8,0:0|0:0|0:0,0:0:0:0:
244,85,157443,6,0,P|339:54|404:72,1,160,4|0,0:0|0:0,0:0:0:0:
453,122,158643,1,8,0:0:0:0:
485,195,159043,2,0,P|482:259|447:307,1,120,12|12,0:0|0:0,0:0:0:0:
337,340,160243,1,8,0:0:0:0:
257,350,160643,6,0,L|170:350,1,80,4|8,0:0|0:0,0:0:0:0:
111,306,161443,2,0,P|81:250|92:151,1,160,0|2,0:0|0:0,0:0:0:0:
134,89,162643,1,4,0:0:0:0:
288,42,163443,6,0,L|372:42,1,80,4|4,0:0|0:0,0:0:0:0:
439,78,164243,2,0,B|478:121|478:121|494:174|458:232,1,160,8|8,0:0|0:0,0:0:0:0:
416,282,165443,1,0,0:0:0:0:
344,317,165843,2,0,L|178:317,1,160,8|8,0:0|0:0,0:0:0:0:
111,282,167043,6,0,B|65:235|65:235|65:165,2,120,0|0|8,0:0|0:0|0:0,0:0:0:0:
184,317,168643,2,0,B|238:317|238:317|285:271,2,120,0|0|8,0:0|0:0|0:0,0:0:0:0:
176,237,170243,5,4,0:0:0:0:
179,157,170643,1,8,0:0:0:0:
238,103,171043,2,0,P|283:72|395:71,1,160
453,110,172243,1,8,0:0:0:0:
482,184,172643,2,0,L|482:269,1,80,2|8,0:0|0:0,0:0:0:0:
434,327,173443,6,0,P|363:324|288:185,1,240,4|8,0:0|0:0,0:0:0:0:
265,112,175043,2,0,P|158:68|111:86,1,160,4|12,0:0|0:0,0:0:0:0:
126,280,176843,6,0,P|171:290|220:280,1,80,4|4,0:0|0:0,0:0:0:0:
276,252,177643,1,8,0:0:0:0:
315,182,178043,1,4,0:0:0:0:
270,70,178643,2,0,B|181:69|181:69|106:98,1,160,8|8,0:0|0:0,0:0:0:0:
93,172,179843,6,0,P|93:237|121:298,1,120,4|4,0:0|0:0,0:0:0:0:
173,339,180843,1,0,0:0:0:0:
252,347,181243,2,0,P|330:321|370:255,1,160,4|0,0:0|0:0,0:0:0:0:
404,185,182443,1,0,0:0:0:0:
383,107,182843,2,0,P|336:71|273:66,2,120,4|8|0,0:0|0:0|0:0,0:0:0:0:
256,192,184443,12,4,187843,0:0:0:0:
439,338,189443,5,4,0:0:0:0:
439,18,191043,1,4,0:0:0:0:
171,193,192643,2,0,L|43:193,1,120,4|4,0:0|0:0,0:0:0:0:
54,312,193843,1,8,0:0:0:0:
124,349,194243,6,0,P|215:364|285:328,2,160,4|8|8,0:0|0:0|0:0,0:0:0:0:
70,288,196243,1,0,0:0:0:0:
46,211,196643,2,0,P|44:150|115:76,1,160,8|4,0:0|0:0,0:0:0:0:
186,64,197843,5,0,0:0:0:0:
265,64,198243,2,0,P|310:66|350:87,1,80,8|0,0:0|0:0,0:0:0:0:
389,144,199043,2,0,P|391:261|281:324,1,240,4|0,0:0|0:0,0:0:0:0:
216,320,200643,5,4,0:0:0:0:
152,272,201043,2,0,P|126:230|126:185,1,80,8|0,0:0|0:0,0:0:0:0:
168,134,201843,1,8,0:0:0:0:
224,77,202243,6,0,B|263:77|295:51|295:51|327:77|378:77,1,160,2|2,0:0|0:0,0:0:0:0:
428,134,203443,1,10,0:0:0:0:
447,211,203843,5,2,0:0:0:0:
402,277,204243,1,8,0:0:0:0:
330,313,204643,2,0,P|290:325|243:316,1,80,0|8,0:0|0:0,0:0:0:0:
184,277,205443,2,0,P|165:219|186:150,1,120,12|12,0:0|0:0,0:0:0:0:
256,72,206643,1,8,0:0:0:0:
319,17,207043,6,0,P|338:79|275:153,1,160,4|0,0:0|0:0,0:0:0:0:
209,179,208243,1,8,0:0:0:0:
136,213,208643,2,0,P|84:270|101:345,1,160,0|0,0:0|0:0,0:0:0:0:
181,355,209843,1,8,0:0:0:0:
252,319,210243,6,0,B|328:296|328:296|414:323,1,160,4|0,0:0|0:0,0:0:0:0:
467,270,211443,1,8,0:0:0:0:
488,192,211843,2,0,P|490:124|449:79,1,120,12|12,0:0|0:0,0:0:0:0:
344,50,213043,1,8,0:0:0:0:
264,40,213443,6,0,B|184:40|184:40|107:87,1,160,4|0,0:0|0:0,0:0:0:0:
69,147,214643,1,8,0:0:0:0:
69,226,215043,1,2,0:0:0:0:
117,289,215443,2,0,B|185:330|185:330|265:330,1,160,4|0,0:0|0:0,0:0:0:0:
330,283,216643,6,0,P|365:243|371:167,1,120,4|0,0:0|0:0,0:0:0:0:
298,85,217843,1,8,0:0:0:0:
225,51,218243,2,0,P|147:49|97:77,2,120,12|10|8,0:0|0:0|0:0,0:0:0:0:
298,85,219843,6,0,P|329:118|373:122,1,80,4|8,0:0|0:0,0:0:0:0:
442,132,220643,2,0,P|473:196|455:251,1,120,12|12,0:0|0:0,0:0:0:0:
366,313,221843,5,4,0:0:0:0:
288,333,222243,1,8,0:0:0:0:
141,268,223043,6,0,B|104:200|104:200|104:111,1,160,4|0,0:0|0:0,0:0:0:0:
155,55,224243,1,8,0:0:0:0:
256,192,224443,12,4,226243,0:0:0:0:
184,189,227443,5,8,0:0:0:0:
250,144,227843,2,0,P|297:140|333:154,1,80,0|8,0:0|0:0,0:0:0:0:
381,209,228643,1,0,0:0:0:0:
371,288,229043,1,8,0:0:0:0:
307,336,229443,6,0,L|176:336,2,120,4|4|4,0:0|0:0|3:0,0:0:0:0:
256,192,230843,12,0,234243,0:0:0:0:
