osu file format v9

[General]
AudioFilename: world end.mp3
AudioLeadIn: 0
PreviewTime: 58869
Countdown: 0
SampleSet: Soft
StackLeniency: 0.7
Mode: 0
LetterboxInBreaks: 0

[Editor]
DistanceSpacing: 1.2
BeatDivisor: 4
GridSize: 4

[Metadata]
Title:World End
Artist:Sasaki Sayaka
Creator:Aenna
Version:Normal
Source:Grisaia no Meikyuu
Tags:FrontWing Apriy LE LABYRINTHE DE LA GRISAIA

[Difficulty]
HPDrainRate:3
CircleSize:3
OverallDifficulty:3
ApproachRate:3
SliderMultiplier:0.999999999999999
SliderTickRate:1

[Events]
//Background and Video events
Video,-1300,"opening theme.avi"
0,0,"bgp.jpg"
//Break Periods
//Storyboard Layer 0 (Background)
//Storyboard Layer 1 (Fail)
//Storyboard Layer 2 (Pass)
//Storyboard Layer 3 (Foreground)
//Storyboard Sound Samples
//Background Colour Transformations
3,100,163,162,255

[TimingPoints]
-331,400,4,2,1,60,1,0
45869,-133.333333333333,4,2,1,60,0,0
51869,-100,4,2,1,70,0,0
58869,-100,4,2,1,80,0,1
84374,-100,4,2,1,60,0,1
84474,-100,4,2,1,60,0,0
85574,-100,4,1,1,40,0,0
86074,-100,4,2,1,60,0,0
98874,-100,4,1,1,5,0,0

[Colours]
Combo1 : 255,147,38
Combo2 : 255,81,168
Combo3 : 62,255,255

[HitObjects]
176,264,7669,2,0,B|208:312|280:304,1,99.9999999999999,4|0
364,296,8469,1,0
364,296,8869,1,0
440,228,9269,2,0,B|464:180|448:124,1,99.9999999999999,4|0
376,64,10069,2,0,B|332:32|264:44,1,99.9999999999999,4|0
180,40,10869,5,0
104,104,11269,2,0,B|80:148|96:204,1,99.9999999999999
140,292,12069,1,0
240,280,12469,2,0,B|320:280,2,74.9999999999999,4|4|4
192,136,13669,2,0,B|184:80|232:48,1,99.9999999999999,0|4
328,40,14469,5,0
428,48,14869,1,0
460,144,15269,1,0
364,124,15669,2,0,B|324:160|340:236,2,99.9999999999999
272,80,16869,1,0
172,64,17269,6,0,B|116:52|68:100,1,99.9999999999999,4|0
52,132,17869,2,0,B|12:208|88:288,1,150,4|2
116,296,18669,2,0,B|272:296,1,150,4|0
316,284,19469,2,0,B|340:200|432:172,1,150,4|0
464,92,20469,6,0,B|392:16|268:40,1,200,4|0
84,76,22069,1,2
132,164,22469,2,0,B|144:216|116:264,2,99.9999999999999,0|0|0
224,124,23669,6,0,B|300:40|428:84,2,200,2|0|2
272,212,25669,1,0
200,280,26069,1,0
72,124,26869,5,2
108,320,27669,1,0
308,348,28469,1,2
408,328,28869,2,0,B|448:296|440:228,2,99.9999999999999
340,252,30069,6,0,B|232:216|160:320,2,200,2|0|2
392,164,32069,1,0
324,92,32469,2,0,B|224:64,1,99.9999999999999,0|4
132,32,33269,5,4
56,96,33669,1,0
116,176,34069,1,0
256,320,34869,1,2
312,236,35269,1,0
408,260,35669,1,0
364,64,36469,6,0,B|264:116|160:24,2,200,2|0|2
444,124,38469,1,0
460,224,38869,2,0,B|468:280|428:320,1,99.9999999999999
336,340,39669,6,0,B|256:256|136:296,1,200,4|0
56,268,40869,1,0
80,172,41269,2,0,B|56:96,2,74.9999999999999,4|4|4
176,152,42269,2,0,B|236:152,1,50
320,116,42869,6,0,B|416:168|376:304,1,200,4|0
296,344,44069,1,0
204,308,44469,2,0,B|124:316,2,74.9999999999999,4|4|4
244,88,46069,6,0,B|156:100,1,74.9999977648258
80,108,46869,1,2
48,192,47269,1,0
92,272,47669,2,0,B|152:328|248:296,1,149.999995529652,2|2
320,328,48869,1,0
384,264,49269,6,0,B|436:204|400:108,1,149.999995529652,2|2
352,48,50469,1,0
264,72,50869,2,0,B|196:68,2,56.2499983236194,2|2|2
348,196,52069,1,0
300,284,52469,6,0,B|192:324|108:232,1,200,4|0
212,100,54069,2,0,B|320:60|404:152,1,200,4|0
256,284,55669,5,4
80,192,56469,2,0,B|56:104,2,74.9999999999999,4|4|4
256,192,57269,12,4,58869
408,124,59669,6,0,B|372:164|384:224,1,99.9999999999999,2|0
328,304,60469,2,0,B|236:368|120:308,1,200,2|2
72,240,61669,1,2
100,144,62069,6,0,B|164:48|288:84,1,200,2|2
360,132,63269,1,0
292,204,63669,2,0,B|280:248|312:288,2,74.9999999999999,4|4|4
152,152,64869,2,0,B|44:160,1,99.9999999999999,4|4
24,256,65669,5,2
104,316,66069,1,2
200,336,66469,1,0
300,320,66869,2,0,B|328:276|392:280,2,99.9999999999999,2|0|2
248,236,68069,1,0
152,204,68469,6,0,B|100:88|216:16,2,200,4|0|4
352,192,70869,2,0,B|440:180,2,74.9999999999999,4|4|4
304,204,71669,6,0,B|192:220|136:96,1,200,4|0
344,104,73269,2,0,B|420:176|380:296,1,200,2|2
296,340,74469,1,2
204,300,74869,6,0,B|168:184|36:200,1,200,2|0
36,100,76069,1,0
128,60,76469,2,0,B|216:44,2,74.9999999999999,4|4|4
228,172,77669,2,0,B|272:200|328:188,1,99.9999999999999,4|4
408,132,78469,5,0
468,212,78869,1,0
420,300,79269,1,0
320,284,79669,2,0,B|212:236|132:328,1,200,2|0
52,268,80869,1,0
92,176,81269,6,0,B|48:80,2,99.9999999999999,2|0|0
188,148,82469,1,0
268,208,82869,2,0,B|344:240|416:188,1,150,4|4
452,100,83869,2,0,B|452:52,1,50,0|2
352,48,84469,6,0,B|280:128|156:84,1,200,4|0
72,60,85669,2,0,B|36:20,2,50,0|0|4
48,156,86469,2,0,B|32:212|68:264,1,99.9999999999999,4|0
148,304,87269,1,0
240,268,87669,6,0,B|312:180|444:232,1,200,4|0
484,144,88869,1,0
484,144,89069,2,0,B|408:72,1,99.9999999999999,4|4
316,44,89869,1,4
228,88,90269,2,0,B|144:108|80:52,1,150,4|4
32,140,91269,5,0
96,216,91669,1,0
192,248,92069,1,0
292,252,92469,2,0,B|348:240|388:284,1,99.9999999999999,2|0
464,220,93269,2,0,B|488:180|476:112,1,99.9999999999999,2|0
400,56,94069,6,0,B|312:40,2,74.9999999999999,4|4|4
368,152,95069,2,0,B|328:188|340:248,1,99.9999999999999,2|4
256,192,95669,12,0,98869
