osu file format v12

[General]
AudioFilename: world end.mp3
AudioLeadIn: 0
PreviewTime: 58869
Countdown: 0
SampleSet: Soft
StackLeniency: 0.7
Mode: 0
LetterboxInBreaks: 0

[Editor]
DistanceSpacing: 1.6
BeatDivisor: 4
GridSize: 4

[Metadata]
Title:World End
TitleUnicode:
Artist:Sasaki Sayaka
ArtistUnicode:
Creator:Aenna
Version:Insane
Source:Grisaia no Meikyuu
Tags:FrontWing Apriy LE LABYRINTHE DE LA GRISAIA
BeatmapID:137307
BeatmapSetID:43773

[Difficulty]
HPDrainRate:7
CircleSize:4
OverallDifficulty:8
ApproachRate:8
SliderMultiplier:1.9
SliderTickRate:1

[Events]
//Background and Video events
Video,-1300,"opening theme.avi"
0,0,"bgp.jpg",0,0
//Break Periods
//Storyboard Layer 0 (Background)
//Storyboard Layer 1 (Fail)
//Storyboard Layer 2 (Pass)
//Storyboard Layer 3 (Foreground)
//Storyboard Sound Samples
//Background Colour Transformations
3,100,163,162,255

[TimingPoints]
-331,400,4,2,1,60,1,0
19769,-100,4,1,1,40,0,0
20369,-100,4,2,1,50,0,0
32769,-100,4,1,1,40,0,0
33269,-100,4,2,1,60,0,0
44969,-200,4,2,1,60,0,0
45469,-200,4,1,1,40,0,0
46169,-133.333333333333,4,2,1,60,0,0
48369,-133.333333333333,4,1,1,30,0,0
48869,-133.333333333333,4,2,1,60,0,0
49269,-133.333333333333,4,2,1,5,0,0
49469,-133.333333333333,4,2,1,60,0,0
51569,-133.333333333333,4,1,1,30,0,0
52069,-100,4,2,1,70,0,0
57169,-100,4,1,1,40,0,0
58069,-100,4,2,1,70,0,0
58769,-100,4,2,1,80,0,0
58869,-100,4,2,1,80,0,1
64269,-100,4,1,1,40,0,1
64869,-100,4,2,1,80,0,1
70169,-100,4,1,1,40,0,1
70869,-100,4,2,1,80,0,1
77169,-100,4,1,1,40,0,1
77669,-100,4,2,1,80,0,1
81369,-100,4,1,1,40,0,1
82869,-133.333333333333,4,2,1,80,0,1
83569,-100,4,1,1,60,0,1
84169,-100,4,2,1,80,0,1
84369,-100,4,2,1,60,0,1
84469,-100,4,2,1,60,0,0
85569,-100,4,1,1,40,0,0
86069,-100,4,2,1,60,0,0
90369,-100,4,1,1,40,0,0
90869,-100,4,2,1,60,0,0
98869,-100,4,1,1,5,0,0

[Colours]
Combo1 : 255,147,38
Combo2 : 255,81,168
Combo3 : 62,255,255

[HitObjects]
72,104,7669,2,0,B|52:136|52:136|64:200,1,95,4|0,0:0|0:0,0:0:0:0:
104,280,8069,1,8,0:0:0:0:
200,268,8269,2,0,B|296:276,1,95
388,252,8669,1,0,0:0:0:0:
440,172,8869,1,8,0:0:0:0:
388,252,9069,1,0,0:0:0:0:
344,168,9269,6,0,B|264:96|160:140,1,190,4|8,0:0|0:0,0:0:0:0:
296,252,9869,1,0,0:0:0:0:
296,252,9969,1,0,0:0:0:0:
296,252,10069,2,0,B|248:232|200:268,1,95,4|0,0:0|0:0,0:0:0:0:
88,328,10469,1,8,0:0:0:0:
40,204,10669,1,0,0:0:0:0:
88,80,10869,1,0,0:0:0:0:
216,44,11069,5,2,0:0:0:0:
304,80,11269,1,10,0:0:0:0:
228,136,11469,1,0,0:0:0:0:
228,136,11569,2,0,B|264:212|208:284,1,142.5,2|2,0:0|0:0,0:0:0:0:
88,188,12069,1,8,0:0:0:0:
56,336,12269,1,2,0:0:0:0:
208,324,12469,6,0,B|240:268|328:288,1,95,4|0,0:0|0:0,0:0:0:0:
304,292,12769,1,4,0:0:0:0:
320,304,12869,2,0,B|344:328|392:332,1,47.5,0|0,0:0|0:0,0:0:0:0:
380,328,13069,2,0,B|432:320|460:268,1,95,4|0,0:0|0:0,0:0:0:0:
452,256,13369,2,0,B|420:184|444:112,1,142.5,0|10,0:0|0:0,0:0:0:0:
442,117,13769,1,0,0:0:0:0:
442,117,13869,1,0,0:0:0:0:
244,116,14069,6,0,B|192:24|56:52,1,190,4|8,0:0|0:0,0:0:0:0:
160,152,14669,1,0,0:0:0:0:
236,208,14869,2,0,B|172:252|200:364,1,142.5,2|0,0:0|0:0,0:0:0:0:
228,356,15269,1,8,0:0:0:0:
324,360,15469,6,0,B|352:312|408:312,1,95,2|0,0:0|0:0,0:0:0:0:
488,352,15869,1,2,0:0:0:0:
428,224,16069,1,10,0:0:0:0:
296,172,16269,2,0,B|208:228,1,95,2|0,0:0|0:0,0:0:0:0:
84,172,16669,1,2,0:0:0:0:
76,156,16769,1,0,0:0:0:0:
76,136,16869,1,8,0:0:0:0:
144,24,17069,1,0,0:0:0:0:
368,136,17269,6,0,B|368:192|316:224,1,95,4|0,0:0|0:0,0:0:0:0:
176,180,17669,1,8,0:0:0:0:
260,328,17869,2,0,B|328:372|396:352|424:308|432:256,1,190,4|0,0:0|0:0,0:0:0:0:
436,196,18469,1,8,0:0:0:0:
304,196,18669,2,0,B|120:264,1,190,4|0,0:0|0:0,0:0:0:0:
36,228,19269,1,8,0:0:0:0:
72,140,19469,2,0,B|44:48,1,95,4|0,0:0|0:0,0:0:0:0:
236,60,19869,5,0,0:0:0:0:
264,84,19969,1,0,0:0:0:0:
276,120,20069,1,0,0:0:0:0:
268,156,20169,1,0,0:0:0:0:
248,188,20269,1,0,0:0:0:0:
156,204,20469,5,4,0:0:0:0:
108,288,20669,2,0,B|136:336|192:344,1,95,0|8,0:0|0:0,0:0:0:0:
288,296,21069,2,0,B|332:332|400:324|444:292|456:228,1,190
308,156,21669,2,0,B|260:136|216:168,1,95,8|0,0:0|0:0,0:0:0:0:
176,272,22069,1,0,0:0:0:0:
80,64,22469,6,0,B|120:28|180:44,1,95,8|0,0:0|0:0,0:0:0:0:
200,60,22769,1,0,0:0:0:0:
344,152,23069,1,0,0:0:0:0:
452,116,23269,1,8,0:0:0:0:
428,228,23469,1,0,0:0:0:0:
344,152,23669,2,0,B|304:192|252:196|204:176|168:112,1,190,0|8,0:0|0:0,0:0:0:0:
128,28,24269,1,0,0:0:0:0:
48,272,24469,6,0,B|64:324|108:360|176:360|236:336,1,190,2|8,0:0|0:0,0:0:0:0:
328,232,25069,1,2,0:0:0:0:
324,240,25169,1,0,0:0:0:0:
320,248,25269,2,0,B|284:212|300:152,1,95,4|0,0:0|0:0,0:0:0:0:
316,48,25669,2,0,B|368:56|392:100,1,95,8|4,0:0|0:0,0:0:0:0:
432,204,26069,1,0,0:0:0:0:
372,300,26269,5,2,0:0:0:0:
204,332,26469,1,8,0:0:0:0:
104,192,26669,1,2,0:0:0:0:
104,192,26769,1,0,0:0:0:0:
104,192,26869,1,0,0:0:0:0:
164,96,27069,6,0,B|140:76|112:76,2,47.5,0|0|8,0:0|0:0|0:0,0:0:0:0:
220,196,27469,1,0,0:0:0:0:
220,196,27569,2,0,B|256:216|296:216|332:188|340:152,1,142.5
252,84,28069,1,8,0:0:0:0:
140,88,28269,2,0,B|100:52|100:52|32:92|60:196,1,190
92,280,28869,1,8,0:0:0:0:
196,328,29069,2,0,B|252:336|284:292,1,95
328,132,29469,2,0,B|380:128|412:180,1,95,0|8,0:0|0:0,0:0:0:0:
436,304,29869,1,0,0:0:0:0:
436,304,29969,1,0,0:0:0:0:
436,304,30069,5,4,0:0:0:0:
312,348,30269,1,0,0:0:0:0:
312,348,30369,2,0,B|260:284|168:312,1,142.5,2|2,0:0|0:0,0:0:0:0:
36,348,30869,2,0,B|64:148,1,190,4|8,0:0|0:0,0:0:0:0:
476,36,31469,2,0,B|448:236,1,190,2|0,0:0|0:0,0:0:0:0:
284,184,32069,2,0,B|264:232|288:284,1,95,8|0,0:0|0:0,0:0:0:0:
352,88,32469,2,0,B|316:56|260:64,1,95
156,108,32869,1,0,0:0:0:0:
152,116,32969,1,0,0:0:0:0:
148,124,33069,1,0,0:0:0:0:
144,132,33169,1,0,0:0:0:0:
140,140,33269,1,4,0:0:0:0:
168,252,33469,5,0,0:0:0:0:
60,288,33669,1,8,0:0:0:0:
32,176,33869,1,0,0:0:0:0:
32,176,33969,2,0,B|8:92|80:48,1,142.5
208,36,34469,1,8,0:0:0:0:
324,104,34669,1,0,0:0:0:0:
456,84,34869,2,0,B|468:60|456:24,2,47.5
368,188,35269,5,8,0:0:0:0:
256,172,35469,1,0,0:0:0:0:
256,172,35569,2,0,B|212:176|180:156|160:120|160:72,1,142.5
160,87,36069,1,8,0:0:0:0:
324,104,36269,1,0,0:0:0:0:
300,256,36469,2,0,B|248:344|120:304,1,190,0|8,0:0|0:0,0:0:0:0:
84,44,37269,6,0,B|20:92|60:188,1,142.5,4|0,0:0|0:0,0:0:0:0:
80,204,37669,1,8,0:0:0:0:
180,148,37869,1,2,0:0:0:0:
196,160,37969,1,0,0:0:0:0:
204,176,38069,2,0,B|220:224|192:268,1,95,4|0,0:0|0:0,0:0:0:0:
84,300,38469,1,8,0:0:0:0:
56,132,38669,2,0,B|40:112|12:108,2,47.5,4|0|0,0:0|0:0|0:0,0:0:0:0:
216,72,39069,2,0,B|276:84|308:28,1,95,4|8,0:0|0:0,0:0:0:0:
108,36,39469,1,0,0:0:0:0:
140,204,39669,6,0,B|152:256|212:272,1,95,4|0,0:0|0:0,0:0:0:0:
316,284,40069,1,8,0:0:0:0:
296,88,40269,2,0,B|252:116|252:176,1,95,4|0,0:0|0:0,0:0:0:0:
316,284,40669,1,0,0:0:0:0:
420,200,40869,2,0,B|456:232|448:288,1,95,12|0,0:0|0:0,0:0:0:0:
316,284,41269,5,4,0:0:0:0:
260,32,41569,1,4,0:0:0:0:
52,180,41869,1,4,0:0:0:0:
380,80,42269,5,0,0:0:0:0:
444,176,42469,1,8,0:0:0:0:
332,172,42669,2,0,B|232:132|160:236,1,190,4|0,0:0|0:0,0:0:0:0:
124,332,43269,1,8,0:0:0:0:
256,260,43469,2,0,B|268:212|232:172,1,95,4|0,0:0|0:0,0:0:0:0:
128,128,43869,1,4,0:0:0:0:
224,64,44069,2,0,B|264:24|324:44,1,95,8|0,0:0|0:0,0:0:0:0:
408,104,44469,5,4,0:0:0:0:
408,104,44569,1,0,0:0:0:0:
436,272,44769,1,4,0:0:0:0:
436,272,44869,1,0,0:0:0:0:
276,328,45069,2,0,B|224:344|184:312,1,95,4|0,0:0|0:0,0:0:0:0:
180,304,45569,1,0,0:0:0:0:
176,296,45669,1,0,0:0:0:0:
172,288,45769,1,0,0:0:0:0:
168,280,45869,1,0,0:0:0:0:
164,272,45969,1,0,0:0:0:0:
160,264,46069,1,0,0:0:0:0:
224,188,46269,6,0,B|200:156|148:160,1,71.2499978765846,0|2,0:0|0:0,0:0:0:0:
68,196,46669,1,0,0:0:0:0:
64,96,46869,2,0,B|88:60|124:56,1,71.2499978765846
220,52,47269,1,2,0:0:0:0:
304,104,47469,1,0,0:0:0:0:
328,200,47669,2,0,B|328:264|256:288,2,106.874996814877,2|2|2,0:0|0:0|0:0,0:0:0:0:
400,128,48469,1,0,0:0:0:0:
404,120,48569,1,0,0:0:0:0:
408,112,48669,1,0,0:0:0:0:
412,104,48769,1,0,0:0:0:0:
416,96,48869,5,0,0:0:0:0:
336,36,49069,2,0,B|280:16|204:44,1,106.874996814877,2|0,0:0|0:0,0:0:0:0:
196,56,49469,2,0,B|148:120,1,71.2499978765846,0|2,0:0|0:0,0:0:0:0:
108,212,49869,1,0,0:0:0:0:
108,212,50069,1,0,0:0:0:0:
164,304,50269,2,0,B|236:332,1,71.2499978765846,0|2,0:0|0:0,0:0:0:0:
336,324,50669,1,0,0:0:0:0:
424,264,50869,6,0,B|464:212|436:136,2,106.874996814877,2|2|2,0:0|0:0|0:0,0:0:0:0:
324,228,51669,1,0,0:0:0:0:
304,220,51769,1,0,0:0:0:0:
284,212,51869,1,0,0:0:0:0:
264,204,51969,1,0,0:0:0:0:
244,196,52069,5,0,0:0:0:0:
112,188,52269,1,0,0:0:0:0:
112,320,52469,2,0,B|148:356|208:344,1,95,4|0,0:0|0:0,0:0:0:0:
244,332,52769,1,4,0:0:0:0:
400,260,52969,1,0,0:0:0:0:
412,216,53069,2,0,B|428:160|388:120,1,95,0|4,0:0|0:0,0:0:0:0:
156,32,53569,1,4,0:0:0:0:
36,260,53869,1,4,0:0:0:0:
120,344,54069,6,0,B|160:312,1,47.5,4|0,0:0|0:0,0:0:0:0:
196,104,54369,2,0,B|156:132,1,47.5,4|0,0:0|0:0,0:0:0:0:
232,220,54669,1,4,0:0:0:0:
320,120,54869,2,0,B|368:128,1,47.5,4|0,0:0|0:0,0:0:0:0:
460,304,55169,2,0,B|412:296,1,47.5,4|0,0:0|0:0,0:0:0:0:
300,280,55469,1,0,0:0:0:0:
300,280,55569,1,0,0:0:0:0:
300,280,55669,5,4,0:0:0:0:
176,236,55869,1,0,0:0:0:0:
216,108,56069,1,0,0:0:0:0:
340,152,56269,1,0,0:0:0:0:
340,152,56369,1,0,0:0:0:0:
340,152,56469,1,4,0:0:0:0:
104,52,56769,1,4,0:0:0:0:
48,304,57069,1,4,0:0:0:0:
152,348,57269,5,0,0:0:0:0:
172,348,57369,1,0,0:0:0:0:
192,348,57469,1,0,0:0:0:0:
212,348,57569,1,0,0:0:0:0:
232,348,57669,5,0,0:0:0:0:
252,348,57769,1,0,0:0:0:0:
272,348,57869,1,0,0:0:0:0:
292,348,57969,1,0,0:0:0:0:
312,348,58069,6,0,B|456:348,2,142.5,4|4|4,0:0|0:0|0:0,0:0:0:0:
256,192,58869,5,4,0:0:0:0:
336,108,59069,2,0,B|304:68|244:76,1,95,0|8,0:0|0:0,0:0:0:0:
204,88,59369,1,0,0:0:0:0:
112,184,59569,2,0,B|168:236|136:328,1,142.5,0|0,0:0|0:0,0:0:0:0:
36,272,60069,1,8,0:0:0:0:
36,272,60269,1,0,0:0:0:0:
112,184,60469,6,0,B|164:120|256:148,1,142.5,2|0,0:0|0:0,0:0:0:0:
272,164,60869,1,8,0:0:0:0:
204,256,61069,1,0,0:0:0:0:
228,272,61169,1,0,0:0:0:0:
256,276,61269,2,0,B|312:284|348:244,1,95,2|0,0:0|0:0,0:0:0:0:
380,140,61669,1,8,0:0:0:0:
464,220,61869,2,0,B|480:268|452:312,1,95,0|2,0:0|0:0,0:0:0:0:
344,348,62269,5,0,0:0:0:0:
248,288,62469,2,0,B|196:268|144:316,1,95,8|0,0:0|0:0,0:0:0:0:
132,332,62769,1,0,0:0:0:0:
48,152,63069,1,0,0:0:0:0:
144,212,63269,1,8,0:0:0:0:
168,100,63469,1,0,0:0:0:0:
268,156,63669,6,0,B|424:156,2,142.5,4|4|4,0:0|0:0|0:0,0:0:0:0:
260,172,64369,1,0,0:0:0:0:
252,188,64469,1,0,0:0:0:0:
244,204,64569,1,0,0:0:0:0:
236,220,64669,1,0,0:0:0:0:
228,236,64769,1,0,0:0:0:0:
220,252,64869,6,0,B|168:300|80:272,1,142.5,4|0,0:0|0:0,0:0:0:0:
56,240,65269,2,0,B|20:160|76:88,1,142.5,4|0,0:0|0:0,0:0:0:0:
100,84,65669,1,8,0:0:0:0:
212,64,65869,1,0,0:0:0:0:
300,140,66069,2,0,B|316:196|272:236,1,95
188,160,66469,1,8,0:0:0:0:
168,272,66669,1,0,0:0:0:0:
260,340,66869,6,0,B|348:368|400:300,1,142.5,4|0,0:0|0:0,0:0:0:0:
404,276,67269,1,8,0:0:0:0:
308,212,67469,2,0,B|332:164|392:156,1,95,4|0,0:0|0:0,0:0:0:0:
420,156,67769,1,0,0:0:0:0:
456,168,67869,1,4,0:0:0:0:
488,60,68069,1,8,0:0:0:0:
376,32,68269,1,0,0:0:0:0:
292,112,68469,6,0,B|208:136|152:68,1,142.5,4|0,0:0|0:0,0:0:0:0:
140,48,68869,1,8,0:0:0:0:
32,124,69069,1,0,0:0:0:0:
84,248,69269,1,4,0:0:0:0:
112,272,69369,1,0,0:0:0:0:
148,284,69469,1,0,0:0:0:0:
184,284,69569,1,0,0:0:0:0:
220,272,69669,1,8,0:0:0:0:
308,200,69869,1,0,0:0:0:0:
412,152,70069,5,4,0:0:0:0:
412,160,70169,1,0,0:0:0:0:
412,168,70269,1,0,0:0:0:0:
412,176,70369,1,0,0:0:0:0:
412,184,70469,5,0,0:0:0:0:
412,192,70569,1,0,0:0:0:0:
412,200,70669,1,0,0:0:0:0:
412,208,70769,1,0,0:0:0:0:
412,216,70869,6,0,B|412:368,2,142.5,4|4|4,0:0|0:0|0:0,0:0:0:0:
256,192,71669,5,4,0:0:0:0:
144,180,71869,2,0,B|132:232|172:272,1,95,0|8,0:0|0:0,0:0:0:0:
200,288,72169,1,0,0:0:0:0:
312,276,72369,2,0,B|392:248|448:328,1,142.5
264,356,72869,1,8,0:0:0:0:
116,332,73069,1,0,0:0:0:0:
52,192,73269,6,0,B|44:132|92:104,1,95,2|0,0:0|0:0,0:0:0:0:
200,212,73669,2,0,B|208:272|160:300,1,95,10|0,0:0|0:0,0:0:0:0:
192,96,74069,2,0,B|248:84|284:128,1,95,2|0,0:0|0:0,0:0:0:0:
348,236,74469,2,0,B|396:216|404:160,1,95,10|0,0:0|0:0,0:0:0:0:
352,40,74869,1,2,0:0:0:0:
192,96,75069,5,0,0:0:0:0:
60,120,75269,1,8,0:0:0:0:
76,252,75469,1,0,0:0:0:0:
76,252,75569,2,0,B|160:228|216:304,1,142.5
356,316,76069,2,0,B|372:264|336:216,1,95,8|0,0:0|0:0,0:0:0:0:
256,148,76469,6,0,B|208:128|164:172,1,95,4|0,0:0|0:0,0:0:0:0:
144,208,76769,2,0,B|104:236|48:216,1,95,4|0,0:0|0:0,0:0:0:0:
44,200,77069,1,4,0:0:0:0:
44,180,77169,1,0,0:0:0:0:
44,160,77269,1,0,0:0:0:0:
44,140,77369,1,0,0:0:0:0:
44,120,77469,1,0,0:0:0:0:
44,100,77569,1,0,0:0:0:0:
44,80,77669,2,0,B|128:36,1,95,4|0,0:0|0:0,0:0:0:0:
340,124,78069,6,0,B|336:176|288:200,1,95,4|0,0:0|0:0,0:0:0:0:
136,184,78469,2,0,B|120:236|152:276,1,95,8|0,0:0|0:0,0:0:0:0:
248,332,78869,1,0,0:0:0:0:
360,324,79069,1,0,0:0:0:0:
428,232,79269,2,0,B|456:192|440:136,1,95,8|0,0:0|0:0,0:0:0:0:
300,44,79669,2,0,B|272:84|288:140,1,95
428,232,80069,1,8,0:0:0:0:
280,320,80269,2,0,B|168:348|120:240,1,190
80,120,80869,1,8,0:0:0:0:
180,36,81069,1,0,0:0:0:0:
304,88,81269,5,4,0:0:0:0:
304,96,81369,1,0,0:0:0:0:
304,104,81469,1,0,0:0:0:0:
304,112,81569,1,0,0:0:0:0:
304,120,81669,5,0,0:0:0:0:
304,128,81769,1,0,0:0:0:0:
304,136,81869,1,0,0:0:0:0:
304,144,81969,1,0,0:0:0:0:
304,152,82069,5,0,0:0:0:0:
304,160,82169,1,0,0:0:0:0:
304,168,82269,1,0,0:0:0:0:
304,176,82369,1,0,0:0:0:0:
304,184,82469,5,0,0:0:0:0:
304,192,82569,1,0,0:0:0:0:
304,200,82669,1,0,0:0:0:0:
304,208,82769,1,0,0:0:0:0:
304,216,82869,6,0,B|304:336,2,106.874996814877,4|4|4,0:0|0:0|0:0,0:0:0:0:
116,84,83869,2,0,B|100:64|104:32,2,47.5
224,48,84269,1,0,0:0:0:0:
240,160,84469,6,0,B|200:256|80:228,1,190,4|8,0:0|0:0,0:0:0:0:
40,144,85069,1,0,0:0:0:0:
116,84,85269,2,0,B|148:124|128:184,1,95,4|0,0:0|0:0,0:0:0:0:
80,256,85669,1,0,0:0:0:0:
76,284,85769,1,0,0:0:0:0:
84,312,85869,1,0,0:0:0:0:
108,328,85969,1,0,0:0:0:0:
136,332,86069,1,4,0:0:0:0:
284,160,86469,6,0,B|320:48|456:60,1,190,8|0,0:0|0:0,0:0:0:0:
396,208,87069,2,0,B|384:260|328:276,1,95,0|8,0:0|0:0,0:0:0:0:
224,248,87469,1,0,0:0:0:0:
176,144,87669,6,0,B|156:92,2,47.5,4|0|0,0:0|0:0|0:0,0:0:0:0:
104,232,88069,2,0,B|44:220,2,47.5,8|0|0,0:0|0:0|0:0,0:0:0:0:
148,336,88469,1,4,0:0:0:0:
280,352,88669,1,0,0:0:0:0:
400,300,88869,1,8,0:0:0:0:
456,180,89069,6,0,B|472:120|432:80,1,95,4|0,0:0|0:0,0:0:0:0:
316,40,89469,1,4,0:0:0:0:
248,156,89669,2,0,B|204:120|140:140,1,95,8|4,0:0|0:0,0:0:0:0:
48,208,90069,1,0,0:0:0:0:
92,332,90269,5,4,0:0:0:0:
100,332,90369,1,0,0:0:0:0:
108,332,90469,1,0,0:0:0:0:
116,332,90569,1,0,0:0:0:0:
124,332,90669,1,0,0:0:0:0:
132,332,90769,1,0,0:0:0:0:
140,332,90869,6,0,B|220:332|248:248,1,142.5,4|0,0:0|0:0,0:0:0:0:
248,216,91269,1,8,0:0:0:0:
148,164,91469,2,0,B|168:116|220:104,1,95
332,92,91869,1,0,0:0:0:0:
388,212,92069,2,0,B|436:196|452:140,1,95,8|0,0:0|0:0,0:0:0:0:
332,92,92469,5,2,0:0:0:0:
236,184,92669,1,0,0:0:0:0:
192,60,92869,1,8,0:0:0:0:
96,152,93069,1,0,0:0:0:0:
136,280,93269,2,0,B|164:328|224:328,1,95,2|0,0:0|0:0,0:0:0:0:
32,244,93669,2,0,B|16:292|44:336,1,95,8|0,0:0|0:0,0:0:0:0:
136,280,94069,5,4,0:0:0:0:
136,280,94169,1,0,0:0:0:0:
204,144,94369,1,4,0:0:0:0:
204,144,94469,1,0,0:0:0:0:
312,252,94669,2,0,B|356:224|356:164,1,95,4|2,0:0|0:0,0:0:0:0:
355,172,94969,1,8,0:0:0:0:
355,172,95069,1,0,0:0:0:0:
296,32,95269,1,8,0:0:0:0:
144,56,95469,1,4,0:0:0:0:
256,192,95669,12,0,98869,0:0:0:0:
