osu file format v12

[General]
AudioFilename: Reason why XXX.mp3
AudioLeadIn: 1500
PreviewTime: 58303
Countdown: 0
SampleSet: Normal
StackLeniency: 0.7
Mode: 1
LetterboxInBreaks: 0
WidescreenStoryboard: 0

[Editor]
Bookmarks: 9433,16619,58303
DistanceSpacing: 1
BeatDivisor: 4
GridSize: 16

[Metadata]
Title:Reason why XXX
TitleUnicode:Reason why XXX
Artist:Sasaki Sayaka
ArtistUnicode:佐咲紗花
Creator:-Kirito
Version:Taiko Muzukashii
Source:だから僕は、Hができない。
Tags:Ecchi ZAQ nyanyannya Kin opening Dakara Boku wa H ga Dekinai TV Size
BeatmapID:185373
BeatmapSetID:57181

[Difficulty]
HPDrainRate:4
CircleSize:4
OverallDifficulty:4
ApproachRate:4
SliderMultiplier:1.4
SliderTickRate:1

[Events]
//Background and Video events
0,0,"BG.jpg",0,100
//Break Periods
//Storyboard Layer 0 (Background)
//Storyboard Layer 1 (Fail)
//Storyboard Layer 2 (Pass)
//Storyboard Layer 3 (Foreground)
//Storyboard Sound Samples
//Background Colour Transformations
3,100,163,162,255

[TimingPoints]
818,359.281437125748,4,1,0,70,1,0
28123,-100,4,1,0,70,0,0
45368,-100,4,1,0,70,0,0
58303,-100,4,1,0,70,0,1
85249,-100,4,1,0,70,0,0

[Colours]
Combo1 : 255,0,0
Combo2 : 0,0,255

[HitObjects]
256,32,818,1,0,0:0:0:0:
256,32,2255,1,2,0:0:0:0:
256,32,3692,1,8,0:0:0:0:
256,32,4051,1,0,0:0:0:0:
256,32,4410,1,8,0:0:0:0:
256,32,4770,1,0,0:0:0:0:
256,32,5129,1,8,0:0:0:0:
256,32,5309,1,0,0:0:0:0:
256,32,5398,1,0,0:0:0:0:
256,32,5488,1,0,0:0:0:0:
256,32,5668,1,8,0:0:0:0:
256,32,6027,1,8,0:0:0:0:
256,32,6207,1,8,0:0:0:0:
256,32,6386,1,0,0:0:0:0:
256,32,6566,1,8,0:0:0:0:
256,32,6746,1,0,0:0:0:0:
256,32,6925,1,8,0:0:0:0:
256,32,7105,1,0,0:0:0:0:
256,32,7285,1,8,0:0:0:0:
256,32,7464,1,8,0:0:0:0:
256,32,7644,1,8,0:0:0:0:
256,32,7823,1,0,0:0:0:0:
256,32,8003,1,0,0:0:0:0:
256,32,9440,1,8,0:0:0:0:
256,32,9620,1,8,0:0:0:0:
256,32,9800,1,0,0:0:0:0:
256,32,10159,1,8,0:0:0:0:
256,32,10338,1,8,0:0:0:0:
256,32,10518,1,0,0:0:0:0:
256,32,10877,1,8,0:0:0:0:
256,32,11237,1,8,0:0:0:0:
256,32,11416,1,0,0:0:0:0:
256,32,11596,1,0,0:0:0:0:
256,32,11776,1,8,0:0:0:0:
256,32,11865,1,8,0:0:0:0:
256,32,11955,1,8,0:0:0:0:
256,32,12135,1,0,0:0:0:0:
256,32,12315,1,8,0:0:0:0:
256,32,12674,1,8,0:0:0:0:
256,32,13033,1,8,0:0:0:0:
256,32,13213,1,0,0:0:0:0:
256,32,13392,1,8,0:0:0:0:
256,32,13572,1,0,0:0:0:0:
256,32,13752,1,8,0:0:0:0:
256,32,13931,1,0,0:0:0:0:
256,32,14111,1,0,0:0:0:0:
256,32,14291,1,0,0:0:0:0:
256,32,14470,1,8,0:0:0:0:
256,32,14740,1,8,0:0:0:0:
256,32,15009,1,0,0:0:0:0:
256,32,15189,1,8,0:0:0:0:
256,32,15368,1,0,0:0:0:0:
256,32,15548,1,8,0:0:0:0:
256,32,15907,1,0,0:0:0:0:
256,32,15997,1,0,0:0:0:0:
256,32,16087,1,0,0:0:0:0:
256,32,16177,1,0,0:0:0:0:
256,32,16267,1,0,0:0:0:0:
256,32,16626,1,8,0:0:0:0:
256,32,16985,1,8,0:0:0:0:
256,32,17344,1,0,0:0:0:0:
256,32,17704,1,8,0:0:0:0:
256,32,17883,1,0,0:0:0:0:
256,32,18243,1,8,0:0:0:0:
256,32,18422,1,0,0:0:0:0:
256,32,18602,1,8,0:0:0:0:
256,32,18782,1,0,0:0:0:0:
256,32,19141,1,8,0:0:0:0:
256,32,19320,1,0,0:0:0:0:
256,32,19500,1,8,0:0:0:0:
256,32,19680,1,8,0:0:0:0:
256,32,19860,1,0,0:0:0:0:
256,32,20039,1,8,0:0:0:0:
256,32,20219,1,8,0:0:0:0:
256,32,20399,1,0,0:0:0:0:
256,32,20578,1,8,0:0:0:0:
256,32,20758,1,8,0:0:0:0:
256,32,20937,1,0,0:0:0:0:
256,32,21297,1,8,0:0:0:0:
256,32,21476,1,0,0:0:0:0:
256,32,21835,1,8,0:0:0:0:
256,32,22015,1,0,0:0:0:0:
256,32,22374,1,8,0:0:0:0:
256,32,22554,1,0,0:0:0:0:
256,32,22734,1,8,0:0:0:0:
256,32,23093,1,8,0:0:0:0:
256,32,23273,1,8,0:0:0:0:
256,32,23452,1,0,0:0:0:0:
256,32,23632,1,8,0:0:0:0:
256,32,23811,1,0,0:0:0:0:
256,32,23991,1,0,0:0:0:0:
256,32,24171,1,8,0:0:0:0:
256,32,24350,1,0,0:0:0:0:
256,32,24710,1,0,0:0:0:0:
256,32,24889,1,8,0:0:0:0:
256,32,25069,1,8,0:0:0:0:
256,32,25249,1,0,0:0:0:0:
256,32,25428,1,0,0:0:0:0:
256,32,25608,1,8,0:0:0:0:
256,32,25788,1,0,0:0:0:0:
256,32,25967,1,8,0:0:0:0:
256,32,26147,1,8,0:0:0:0:
256,32,26326,1,0,0:0:0:0:
256,32,26416,1,0,0:0:0:0:
256,32,26506,1,0,0:0:0:0:
256,32,26865,1,8,0:0:0:0:
256,32,27045,1,8,0:0:0:0:
256,32,27225,1,0,0:0:0:0:
256,32,27584,1,8,0:0:0:0:
256,32,27764,1,0,0:0:0:0:
256,32,27943,1,0,0:0:0:0:
256,32,28123,1,8,0:0:0:0:
256,32,28303,1,0,0:0:0:0:
256,32,28482,1,0,0:0:0:0:
256,32,28841,1,8,0:0:0:0:
256,32,29021,1,0,0:0:0:0:
256,32,29201,1,0,0:0:0:0:
256,32,29560,1,8,0:0:0:0:
256,32,29740,1,8,0:0:0:0:
256,32,29919,1,0,0:0:0:0:
256,32,30099,1,0,0:0:0:0:
256,32,30458,1,0,0:0:0:0:
256,32,30638,1,8,0:0:0:0:
256,32,30817,1,0,0:0:0:0:
256,32,30997,1,8,0:0:0:0:
256,32,31177,1,0,0:0:0:0:
256,32,31356,1,8,0:0:0:0:
256,32,31716,1,0,0:0:0:0:
256,32,31895,1,8,0:0:0:0:
256,32,32075,1,8,0:0:0:0:
256,32,32255,1,0,0:0:0:0:
256,32,32434,1,8,0:0:0:0:
256,32,32794,1,8,0:0:0:0:
256,32,32973,1,0,0:0:0:0:
256,32,33332,1,0,0:0:0:0:
256,32,33512,1,0,0:0:0:0:
256,32,33692,1,0,0:0:0:0:
256,32,33871,1,8,0:0:0:0:
256,32,34051,1,0,0:0:0:0:
256,32,34231,1,8,0:0:0:0:
256,32,34590,1,8,0:0:0:0:
256,32,34770,1,8,0:0:0:0:
256,32,34949,1,0,0:0:0:0:
256,32,35309,1,8,0:0:0:0:
256,32,35668,1,8,0:0:0:0:
256,32,35847,1,0,0:0:0:0:
256,32,36207,1,0,0:0:0:0:
256,32,36386,1,8,0:0:0:0:
256,32,36566,1,10,0:0:0:0:
256,32,36746,1,6,0:0:0:0:
256,32,37105,1,6,0:0:0:0:
256,32,37644,1,0,0:0:0:0:
256,32,37823,1,8,0:0:0:0:
256,32,38183,1,0,0:0:0:0:
256,32,38362,1,0,0:0:0:0:
256,32,38542,1,8,0:0:0:0:
256,32,38722,1,0,0:0:0:0:
256,32,38901,1,0,0:0:0:0:
256,32,39081,1,8,0:0:0:0:
256,32,39261,1,8,0:0:0:0:
256,32,39440,1,0,0:0:0:0:
256,32,39620,1,8,0:0:0:0:
256,32,39800,1,0,0:0:0:0:
256,32,39889,1,0,0:0:0:0:
256,32,39979,1,0,0:0:0:0:
256,32,40159,1,8,0:0:0:0:
256,32,40518,1,8,0:0:0:0:
256,32,40877,1,8,0:0:0:0:
256,32,41057,1,0,0:0:0:0:
256,32,41416,1,0,0:0:0:0:
256,32,41776,1,0,0:0:0:0:
256,32,41955,1,8,0:0:0:0:
256,32,42135,1,0,0:0:0:0:
256,32,42315,1,0,0:0:0:0:
256,32,42494,1,8,0:0:0:0:
256,32,42853,1,8,0:0:0:0:
256,32,43033,1,0,0:0:0:0:
256,32,43392,1,0,0:0:0:0:
256,32,43752,1,0,0:0:0:0:
256,32,43931,1,8,0:0:0:0:
256,32,44291,1,8,0:0:0:0:
256,32,44470,1,0,0:0:0:0:
256,32,44650,1,8,0:0:0:0:
256,32,44829,1,0,0:0:0:0:
256,32,45009,1,8,0:0:0:0:
256,32,45368,1,8,0:0:0:0:
256,32,45548,1,0,0:0:0:0:
256,32,45728,1,0,0:0:0:0:
256,32,45907,1,8,0:0:0:0:
256,32,46087,1,8,0:0:0:0:
256,32,46267,1,0,0:0:0:0:
256,32,46446,1,8,0:0:0:0:
256,32,46626,1,0,0:0:0:0:
256,32,46985,1,0,0:0:0:0:
256,32,47165,1,8,0:0:0:0:
256,32,47524,1,8,0:0:0:0:
256,32,47883,1,8,0:0:0:0:
256,32,48063,1,0,0:0:0:0:
256,32,48243,1,8,0:0:0:0:
256,32,48602,1,0,0:0:0:0:
256,32,48782,1,8,0:0:0:0:
256,32,48961,1,0,0:0:0:0:
256,32,49320,1,0,0:0:0:0:
256,32,49680,1,8,0:0:0:0:
256,32,49859,1,0,0:0:0:0:
256,32,50039,1,8,0:0:0:0:
256,32,50219,1,0,0:0:0:0:
256,32,50398,1,8,0:0:0:0:
256,32,50578,1,8,0:0:0:0:
256,32,50758,1,0,0:0:0:0:
256,32,50937,1,0,0:0:0:0:
256,32,51117,1,8,0:0:0:0:
256,32,51297,1,0,0:0:0:0:
256,32,51476,1,12,0:0:0:0:
256,32,51835,1,8,0:0:0:0:
256,32,52015,1,0,0:0:0:0:
256,32,52195,1,0,0:0:0:0:
256,32,52374,1,8,0:0:0:0:
256,32,52554,1,0,0:0:0:0:
256,32,52734,1,0,0:0:0:0:
256,32,52913,1,8,0:0:0:0:
256,32,53093,1,8,0:0:0:0:
256,32,53452,1,0,0:0:0:0:
256,32,53632,1,8,0:0:0:0:
256,32,53991,1,8,0:0:0:0:
256,32,54171,1,8,0:0:0:0:
256,32,54350,1,0,0:0:0:0:
256,32,54530,1,8,0:0:0:0:
256,32,54889,1,8,0:0:0:0:
256,32,55069,1,0,0:0:0:0:
256,32,55249,1,8,0:0:0:0:
256,32,55339,1,8,0:0:0:0:
256,32,55429,1,8,0:0:0:0:
256,32,55608,1,0,0:0:0:0:
256,32,55788,1,0,0:0:0:0:
224,128,55967,2,0,B|320:272|320:272|192:176|192:176|336:176|336:176|208:272,1,630
256,32,57943,1,12,0:0:0:0:
256,32,58303,1,4,0:0:0:0:
256,32,58662,1,8,0:0:0:0:
256,32,59021,1,8,0:0:0:0:
256,32,59201,1,0,0:0:0:0:
256,32,59380,1,8,0:0:0:0:
256,32,59560,1,0,0:0:0:0:
256,32,59740,1,8,0:0:0:0:
256,32,59919,1,0,0:0:0:0:
256,32,60009,1,0,0:0:0:0:
256,32,60099,1,0,0:0:0:0:
256,32,60279,1,0,0:0:0:0:
256,32,60458,1,8,0:0:0:0:
256,32,60817,1,8,0:0:0:0:
256,32,60997,1,0,0:0:0:0:
256,32,61177,1,8,0:0:0:0:
256,32,61356,1,0,0:0:0:0:
256,32,61536,1,8,0:0:0:0:
256,32,61716,1,0,0:0:0:0:
256,32,61895,1,8,0:0:0:0:
256,32,62075,1,8,0:0:0:0:
256,32,62434,1,0,0:0:0:0:
256,32,62614,1,8,0:0:0:0:
256,32,62794,1,0,0:0:0:0:
256,32,62973,1,8,0:0:0:0:
256,32,63153,1,0,0:0:0:0:
256,32,63332,1,8,0:0:0:0:
256,32,63512,1,8,0:0:0:0:
256,32,63692,1,0,0:0:0:0:
256,32,63782,1,0,0:0:0:0:
256,32,63872,1,0,0:0:0:0:
256,32,64051,1,0,0:0:0:0:
256,32,64410,1,12,0:0:0:0:
256,32,64770,1,0,0:0:0:0:
256,32,64949,1,0,0:0:0:0:
256,32,65129,1,8,0:0:0:0:
256,32,65309,1,0,0:0:0:0:
256,32,65488,1,0,0:0:0:0:
256,32,65668,1,0,0:0:0:0:
256,32,65847,1,8,0:0:0:0:
256,32,66027,1,8,0:0:0:0:
256,32,66207,1,0,0:0:0:0:
256,32,66566,1,8,0:0:0:0:
256,32,66746,1,0,0:0:0:0:
256,32,66925,1,0,0:0:0:0:
256,32,67105,1,0,0:0:0:0:
256,32,67284,1,8,0:0:0:0:
256,32,67464,1,8,0:0:0:0:
256,32,67823,1,0,0:0:0:0:
256,32,68003,1,8,0:0:0:0:
256,32,68183,1,0,0:0:0:0:
256,32,68362,1,8,0:0:0:0:
256,32,68542,1,0,0:0:0:0:
256,32,68722,1,8,0:0:0:0:
256,32,68901,1,8,0:0:0:0:
256,32,69081,1,0,0:0:0:0:
256,32,69171,1,0,0:0:0:0:
256,32,69261,1,0,0:0:0:0:
256,32,69440,1,8,0:0:0:0:
256,32,69800,1,12,0:0:0:0:
256,32,69979,1,0,0:0:0:0:
256,32,70159,1,8,0:0:0:0:
256,32,70338,1,0,0:0:0:0:
256,32,70518,1,8,0:0:0:0:
256,32,70877,1,0,0:0:0:0:
256,32,71057,1,0,0:0:0:0:
256,32,71237,1,8,0:0:0:0:
256,32,71416,1,0,0:0:0:0:
256,32,71596,1,8,0:0:0:0:
256,32,71776,1,0,0:0:0:0:
256,32,71955,1,8,0:0:0:0:
256,32,72315,1,0,0:0:0:0:
256,32,72494,1,8,0:0:0:0:
256,32,72674,1,8,0:0:0:0:
256,32,72853,1,0,0:0:0:0:
256,32,73033,1,0,0:0:0:0:
256,32,73213,1,0,0:0:0:0:
256,32,73392,1,8,0:0:0:0:
256,32,73572,1,0,0:0:0:0:
256,32,73752,1,8,0:0:0:0:
256,32,74111,1,12,0:0:0:0:
256,32,74470,1,8,0:0:0:0:
256,32,74650,1,0,0:0:0:0:
256,32,74829,1,8,0:0:0:0:
256,32,75190,1,0,0:0:0:0:
256,32,75368,1,0,0:0:0:0:
256,32,75548,1,12,0:0:0:0:
256,32,75907,1,0,0:0:0:0:
256,32,76088,1,8,0:0:0:0:
256,32,76267,1,0,0:0:0:0:
256,32,76626,1,12,0:0:0:0:
256,32,76985,1,8,0:0:0:0:
256,32,77165,1,0,0:0:0:0:
256,32,77255,1,0,0:0:0:0:
256,32,77344,1,0,0:0:0:0:
256,32,77524,1,0,0:0:0:0:
256,32,77704,1,0,0:0:0:0:
256,32,78063,1,12,0:0:0:0:
256,32,78422,1,0,0:0:0:0:
256,32,78602,1,8,0:0:0:0:
256,32,78782,1,0,0:0:0:0:
256,32,78961,1,8,0:0:0:0:
256,32,79141,1,0,0:0:0:0:
256,32,79500,1,8,0:0:0:0:
256,32,79680,1,0,0:0:0:0:
256,32,79859,1,8,0:0:0:0:
256,32,80039,1,0,0:0:0:0:
256,32,80219,1,0,0:0:0:0:
256,32,80398,1,0,0:0:0:0:
256,32,80578,1,8,0:0:0:0:
256,32,80758,1,0,0:0:0:0:
256,32,80937,1,8,0:0:0:0:
256,32,81117,1,0,0:0:0:0:
256,32,81297,1,8,0:0:0:0:
256,32,81476,1,0,0:0:0:0:
256,32,81566,1,0,0:0:0:0:
256,32,81656,1,0,0:0:0:0:
256,32,81835,1,8,0:0:0:0:
256,32,82195,1,8,0:0:0:0:
256,32,82554,1,8,0:0:0:0:
256,32,82734,1,0,0:0:0:0:
256,32,82913,1,8,0:0:0:0:
256,32,83003,1,8,0:0:0:0:
256,32,83093,1,8,0:0:0:0:
256,32,83273,1,0,0:0:0:0:
256,32,83452,1,8,0:0:0:0:
256,32,83632,1,0,0:0:0:0:
256,32,83722,1,0,0:0:0:0:
256,32,83812,1,0,0:0:0:0:
256,32,83991,1,0,0:0:0:0:
256,32,84171,1,8,0:0:0:0:
256,32,84530,1,0,0:0:0:0:
256,32,84710,1,8,0:0:0:0:
256,32,85069,1,0,0:0:0:0:
256,192,85249,8,0,86820,0:0:0:0:
