osu file format v12

[General]
AudioFilename: Reason why XXX.mp3
AudioLeadIn: 1500
PreviewTime: 58303
Countdown: 0
SampleSet: Soft
StackLeniency: 0.7
Mode: 0
LetterboxInBreaks: 0
WidescreenStoryboard: 0

[Editor]
Bookmarks: 9433,16626,58303
DistanceSpacing: 1
BeatDivisor: 2
GridSize: 4

[Metadata]
Title:Reason why XXX
TitleUnicode:Reason why XXX
Artist:Sasaki Sayaka
ArtistUnicode:佐咲紗花
Creator:-Kirito
Version:Normal
Source:だから僕は、Hができない。
Tags:Ecchi ZAQ nyanyannya Kin opening Dakara Boku wa H ga Dekinai TV Size
BeatmapID:172474
BeatmapSetID:57181

[Difficulty]
HPDrainRate:3
CircleSize:3
OverallDifficulty:4
ApproachRate:5
SliderMultiplier:1.2
SliderTickRate:1

[Events]
//Background and Video events
0,0,"BG.jpg",0,0
Video,0,"BGV.flv"
//Break Periods
//Storyboard Layer 0 (Background)
//Storyboard Layer 1 (Fail)
//Storyboard Layer 2 (Pass)
//Storyboard Layer 3 (Foreground)
//Storyboard Sound Samples
//Background Colour Transformations
3,100,163,162,255

[TimingPoints]
818,359.281437125748,4,2,0,70,1,0
997,-100,4,2,1,70,0,0
3692,-100,4,2,1,70,0,0
9440,-100,4,2,0,70,0,0
9620,-100,4,2,1,70,0,0
12315,-100,4,2,0,70,0,0
12494,-100,4,2,1,70,0,0
16626,-100,4,2,1,70,0,0
21297,-100,4,2,2,70,0,0
21476,-100,4,2,1,70,0,0
22015,-100,4,2,1,70,0,0
22374,-100,4,2,1,70,0,0
27045,-100,4,2,0,70,0,0
27225,-100,4,2,1,70,0,0
28123,-133.333333333333,4,2,0,70,0,0
28303,-133.333333333333,4,2,1,70,0,0
36746,-133.333333333333,4,2,1,70,0,0
37644,-133.333333333333,4,2,1,70,0,0
39620,-100,4,2,0,70,0,0
39800,-100,4,2,1,70,0,0
45368,-100,4,2,1,70,0,0
53812,-100,4,2,0,70,0,0
53991,-100,4,2,1,70,0,0
57943,-100,4,2,1,100,0,0
58303,-100,4,2,0,70,0,1
58482,-100,4,2,1,70,0,1
61895,-100,4,2,2,70,0,1
62075,-100,4,2,1,70,0,1
65847,-100,4,2,2,70,0,1
66207,-100,4,2,1,70,0,1
67285,-100,4,2,2,70,0,1
67464,-100,4,2,1,70,0,1
68362,-100,4,2,1,70,0,1
69440,-100,4,2,0,70,0,1
69800,-100,4,2,0,70,0,1
69979,-100,4,2,1,70,0,1
73033,-100,4,2,2,70,0,1
73213,-100,4,2,1,70,0,1
74470,-100,4,2,2,70,0,1
74650,-100,4,2,1,70,0,1
75548,-100,4,2,1,70,0,0
84710,-100,4,2,0,70,0,0
85249,-100,4,2,1,5,0,0

[Colours]
Combo1 : 255,255,128
Combo2 : 128,64,64
Combo3 : 255,0,0
Combo4 : 128,255,0

[HitObjects]
48,264,818,2,0,P|103:334|193:340,1,180,4|0,0:0|0:0,0:0:0:0:
256,176,1895,1,2,0:0:0:0:
188,76,2255,2,0,L|120:60,2,60,0|2|0,0:0|0:0|0:0,0:0:0:0:
248,92,2794,2,0,P|356:88|408:36,1,180,0|8,0:0|0:0,0:0:0:0:
440,156,3692,6,0,L|464:280,1,120,6|4,0:0|0:0,0:0:0:0:
372,352,4410,2,0,P|304:352|256:336,1,120,6|4,0:0|0:0,0:0:0:0:
136,360,5129,2,0,L|108:176,2,180,6|4|4,0:0|0:0|0:0,0:0:0:0:
256,192,6566,12,2,8003,0:0:0:0:
192,92,9440,6,0,P|248:76|312:76,1,120,4|4,0:0|0:0,0:0:0:0:
428,68,10159,2,0,L|492:48,2,60,4|0|4,0:0|0:0|0:0,0:0:0:0:
380,180,10877,2,0,L|408:300,1,120,6|4,0:0|0:0,0:0:0:0:
364,340,11416,2,0,P|308:356|244:356,1,120,2|0,0:0|0:0,0:0:0:0:
188,344,11955,1,4,0:0:0:0:
68,328,12315,6,0,L|88:204,1,120,4|4,0:0|0:0,0:0:0:0:
208,236,13033,2,0,L|184:116,1,120,4|4,0:0|0:0,0:0:0:0:
188,60,13572,1,0,0:0:0:0:
232,20,13752,2,0,P|288:12|352:12,1,120,4|4,0:0|0:0,0:0:0:0:
452,76,14470,2,0,P|460:132|460:196,1,120,4|4,0:0|0:0,0:0:0:0:
344,228,15189,6,0,L|220:216,1,120,4|4,0:0|0:0,0:0:0:0:
176,308,15907,2,0,L|100:328,2,60,4|4|8,0:0|0:0|0:0,0:0:0:0:
288,332,16626,6,0,P|352:340|392:304,1,120,6|4,0:0|0:0,0:0:0:0:
428,192,17344,2,0,L|392:68,1,120,6|4,0:0|0:0,0:0:0:0:
412,20,17883,2,0,P|392:80|224:88,1,240,2|0,0:0|0:0,0:0:0:0:
188,64,18782,2,0,P|144:36|72:40,1,120,6|6,0:0|0:0,0:0:0:0:
24,144,19500,6,0,L|40:264,1,120,6|4,0:0|0:0,0:0:0:0:
140,328,20219,2,0,P|200:340|252:308,1,120,6|4,0:0|0:0,0:0:0:0:
364,352,20937,2,0,P|316:260|380:148,1,240,4|4,0:0|0:0,0:0:0:0:
496,152,22015,1,8,0:0:0:0:
436,256,22374,6,0,P|376:236|312:244,1,120,6|8,0:0|0:0,0:0:0:0:
216,304,23093,2,0,P|236:244|228:180,1,120,6|8,0:0|0:0,0:0:0:0:
140,108,23812,2,0,L|76:96,1,60,4|0,0:0|0:0,0:0:0:0:
32,128,24171,2,0,P|12:188|20:252,1,120,10|4,0:0|0:0,0:0:0:0:
100,332,24889,1,8,0:0:0:0:
216,304,25249,6,0,P|276:292|336:316,1,120,4|8,0:0|0:0,0:0:0:0:
412,236,25967,2,0,P|432:176|408:112,1,120,4|8,0:0|0:0,0:0:0:0:
320,52,26686,1,0,0:0:0:0:
220,120,27045,5,4,0:0:0:0:
112,68,27404,2,0,P|88:56|48:52,1,60,4|2,0:0|0:0,0:0:0:0:
4,88,27764,2,0,P|0:116|8:152,1,60,4|2,0:0|0:0,0:0:0:0:
36,180,28123,6,0,P|56:220|48:264,1,90.0000034332277,4|0,0:0|0:0,0:0:0:0:
96,340,28841,1,8,0:0:0:0:
180,308,29201,1,0,0:0:0:0:
268,308,29560,2,0,L|352:344,2,90.0000034332277,4|4|8,0:0|0:0|0:0,0:0:0:0:
224,232,30638,1,0,0:0:0:0:
212,144,30997,6,0,P|212:96|224:52,1,90.0000034332277,4|4,0:0|0:0,0:0:0:0:
312,72,31716,2,0,P|312:120|300:164,1,90.0000034332277,8|2,0:0|0:0,0:0:0:0:
356,232,32434,2,0,L|460:248,2,90.0000034332277,4|4|8,0:0|0:0|0:0,0:0:0:0:
292,296,33512,1,0,0:0:0:0:
224,356,33871,6,0,L|136:340,1,90.0000034332277,4|4,0:0|0:0,0:0:0:0:
48,352,34590,2,0,P|48:308|80:268,1,90.0000034332277,8|0,0:0|0:0,0:0:0:0:
116,252,35129,1,4,0:0:0:0:
160,256,35309,2,0,L|248:272,2,90.0000034332277,4|4|8,0:0|0:0|0:0,0:0:0:0:
144,168,36386,5,2,0:0:0:0:
136,80,36746,2,0,P|168:44|212:32,1,90.0000034332277,4|8,0:0|0:0,0:0:0:0:
336,68,37644,2,0,L|328:160,1,90.0000034332277,2|0,0:0|0:0,0:0:0:0:
292,196,38183,6,4,P|292:240|312:284,1,90.0000034332277
392,316,38901,2,4,P|428:316|472:336,2,67.5000025749207
352,360,39620,6,0,P|264:376|204:312,2,180,4|4|4,0:0|0:0|0:0,0:0:0:0:
452,292,41057,2,0,L|480:164,1,120,4|4,0:0|0:0,0:0:0:0:
372,116,41776,2,0,L|288:212,1,120,4|4,0:0|0:0,0:0:0:0:
176,224,42494,6,0,P|84:192|76:104,1,180,4|4,0:0|0:0,0:0:0:0:
164,44,43392,2,0,L|240:32,1,60,6|0,0:0|0:0,0:0:0:0:
344,52,43931,2,0,P|384:100|384:156,2,120,4|4|4,0:0|0:0|0:0,0:0:0:0:
260,140,45009,1,4,0:0:0:0:
272,260,45368,6,0,P|184:312|56:272,1,240,6|2,0:0|0:0,0:0:0:0:
4,168,46446,1,4,0:0:0:0:
64,64,46806,2,0,P|156:32|236:56,1,180,4|4,0:0|0:0,0:0:0:0:
272,100,47524,2,0,L|296:224,1,120,2|4,0:0|0:0,0:0:0:0:
256,192,48243,12,2,50398,0:0:0:0:
303,256,51117,6,0,P|328:202|320:144,2,120,2|8|4,0:0|0:0|0:0,0:0:0:0:
196,308,52195,1,4,0:0:0:0:
140,292,52374,2,0,P|68:212|72:128,1,180,2|4,0:0|0:0,0:0:0:0:
136,40,53273,2,0,L|256:52,1,120,4|4,0:0|0:0,0:0:0:0:
372,24,53991,6,0,P|344:76|348:136,1,120,4|4,0:0|0:0,0:0:0:0:
380,188,54530,1,6,0:0:0:0:
468,104,54889,1,6,0:0:0:0:
256,192,55249,12,2,56865,0:0:0:0:
248,112,57943,5,2,0:0:0:0:
248,112,58303,6,0,P|208:76|132:72,1,120,4|4,0:0|0:0,0:0:0:0:
44,136,59021,2,0,B|28:192|28:192|44:256,1,120,4|4,0:0|0:0,0:0:0:0:
132,332,59740,2,0,L|228:360,2,90,6|2|2,0:0|0:0|0:0,0:0:0:0:
132,272,60458,2,0,P|160:224|224:204,1,120,6|4,0:0|0:0,0:0:0:0:
340,208,61177,5,4,0:0:0:0:
388,320,61536,2,0,P|288:316|232:256,1,180,4|2,0:0|0:0,0:0:0:0:
236,144,62434,2,0,L|284:28,2,120,2|2|2,0:0|0:0|0:0,0:0:0:0:
124,188,63512,2,4,L|60:180,1,60
120,288,64051,6,0,P|176:276|212:224,1,120,2|8,0:0|0:0,0:0:0:0:
328,200,64770,2,0,B|368:240|368:240|432:260,1,120,4|4,0:0|0:0,0:0:0:0:
508,176,65488,2,0,P|468:72|352:40,1,240,4|4,0:0|0:0,0:0:0:0:
256,108,66566,1,4,0:0:0:0:
160,40,66925,6,0,P|44:72|4:176,1,240,4|4,0:0|0:0,0:0:0:0:
40,292,68003,1,4,0:0:0:0:
152,332,68362,2,0,L|280:320,1,120,6|4,0:0|0:0,0:0:0:0:
340,224,69081,2,0,P|328:164|288:124,1,120,6|4,0:0|0:0,0:0:0:0:
188,56,69800,6,0,L|168:0,2,60,4|2|4,0:0|0:0|0:0,0:0:0:0:
176,176,70518,2,0,B|156:232|156:232|104:272,1,120,4|4,0:0|0:0,0:0:0:0:
16,188,71237,2,0,L|0:128,2,60,4|2|4,0:0|0:0|0:0,0:0:0:0:
16,308,71955,2,0,P|60:356|112:368,1,120,4|4,0:0|0:0,0:0:0:0:
220,316,72674,6,0,B|248:200|248:200|312:236|360:188,1,240,6|4,0:0|0:0,0:0:0:0:
400,76,73752,1,4,0:0:0:0:
288,36,74111,2,0,P|168:40|96:128,1,240,6|4,0:0|0:0,0:0:0:0:
100,248,75189,1,4,0:0:0:0:
196,320,75548,6,0,L|260:328,1,60,4|4,0:0|0:0,0:0:0:0:
364,280,76087,1,4,0:0:0:0:
364,280,76267,2,0,P|420:264|484:268,1,120,0|4,0:0|0:0,0:0:0:0:
456,152,76985,2,0,P|396:155|338:139,1,120,4|4,0:0|0:0,0:0:0:0:
236,84,77704,2,0,P|176:84|108:104,1,120,4|8,0:0|0:0,0:0:0:0:
68,208,78422,6,0,P|88:272|88:324,1,120,4|4,0:0|0:0,0:0:0:0:
200,284,79141,2,0,P|252:312|316:320,1,120,0|4,0:0|0:0,0:0:0:0:
416,272,79859,1,6,0:0:0:0:
412,152,80219,1,4,0:0:0:0:
296,124,80578,1,6,0:0:0:0:
224,220,80937,1,4,0:0:0:0:
300,316,81297,6,0,P|408:320|504:172,1,300,4|4,0:0|0:0,0:0:0:0:
432,76,82554,1,4,0:0:0:0:
312,208,83093,2,2,B|288:228|256:208|256:208|224:228|200:208,2,120,6|6|6,0:0|0:0|0:0,0:0:0:0:
348,92,84171,5,2,0:0:0:0:
167,92,84710,1,4,0:0:0:0:
256,192,85249,12,0,86820,0:0:0:0:
