osu file format v12

[General]
AudioFilename: Reason why XXX.mp3
AudioLeadIn: 1500
PreviewTime: 58303
Countdown: 0
SampleSet: Soft
StackLeniency: 0.7
Mode: 0
LetterboxInBreaks: 0
WidescreenStoryboard: 0

[Editor]
Bookmarks: 9440,15189,16626,28123,38183,58303,81290
DistanceSpacing: 1
BeatDivisor: 4
GridSize: 4

[Metadata]
Title:Reason why XXX
TitleUnicode:Reason why XXX
Artist:Sasaki Sayaka
ArtistUnicode:佐咲紗花
Creator:-Kirito
Version:Insane
Source:だから僕は、Hができない。
Tags:Ecchi ZAQ nyanyannya Kin opening Dakara Boku wa H ga Dekinai TV Size
BeatmapID:172473
BeatmapSetID:57181

[Difficulty]
HPDrainRate:7
CircleSize:4
OverallDifficulty:7
ApproachRate:9
SliderMultiplier:1.9
SliderTickRate:2

[Events]
//Background and Video events
0,0,"BG.jpg",0,0
Video,0,"BGV.flv"
//Break Periods
//Storyboard Layer 0 (Background)
//Storyboard Layer 1 (Fail)
//Storyboard Layer 2 (Pass)
//Storyboard Layer 3 (Foreground)
//Storyboard Sound Samples
//Background Colour Transformations
3,100,163,162,255

[TimingPoints]
818,359.281437125748,4,2,1,70,1,0
3332,-100,4,2,1,50,0,0
3692,-100,4,2,1,70,0,0
6207,-100,4,2,2,70,0,0
6386,-100,4,2,1,70,0,0
9081,-100,4,2,0,70,0,0
9800,-100,4,2,1,70,0,0
12315,-100,4,2,0,70,0,0
12494,-100,4,2,1,70,0,0
16626,-100,4,2,1,70,0,0
18782,-100,4,2,2,70,0,0
18961,-100,4,2,1,70,0,0
22015,-100,4,2,1,70,0,0
22374,-100,4,2,1,70,0,0
24530,-100,4,2,2,70,0,0
24710,-100,4,2,1,70,0,0
27045,-100,4,2,2,70,0,0
27225,-100,4,2,1,70,0,0
28123,-133.333333333333,4,2,1,70,0,0
36386,-200,4,2,1,70,0,0
36746,-133.333333333333,4,1,0,70,0,0
36925,-133.333333333333,4,2,0,70,0,0
37644,-133.333333333333,4,2,1,70,0,0
39620,-100,4,2,0,70,0,0
39800,-100,4,2,1,70,0,0
45368,-100,4,2,1,70,0,0
51476,-100,4,2,0,70,0,0
51656,-100,4,2,1,70,0,0
53812,-100,4,2,0,70,0,0
53991,-100,4,2,1,70,0,0
56147,-100,4,2,1,70,0,0
56865,-100,4,2,1,70,0,0
57045,-100,4,2,1,70,0,0
57225,-100,4,2,1,70,0,0
57404,-100,4,2,1,70,0,0
57584,-100,4,2,1,70,0,0
57943,-100,4,2,1,100,0,0
58303,-86.9565217391304,4,2,0,70,0,1
58482,-86.9565217391304,4,2,1,70,0,1
62255,-86.9565217391304,4,2,2,70,0,1
62434,-86.9565217391304,4,2,1,70,0,1
62973,-86.9565217391304,4,2,2,70,0,1
63153,-86.9565217391304,4,2,1,70,0,1
64410,-86.9565217391304,4,2,0,70,0,1
64770,-86.9565217391304,4,2,1,70,0,1
67644,-86.9565217391304,4,2,2,70,0,1
68362,-86.9565217391304,4,2,1,70,0,1
69440,-86.9565217391304,4,2,0,70,0,1
69620,-86.9565217391304,4,2,1,70,0,1
69800,-86.9565217391304,4,2,0,70,0,1
69979,-86.9565217391304,4,2,1,70,0,1
75548,-86.9565217391304,4,2,1,70,0,0
79141,-86.9565217391304,4,2,2,70,0,0
79320,-86.9565217391304,4,2,1,70,0,0
85249,-86.9565217391304,4,2,0,70,0,0
85338,-86.9565217391304,4,2,1,5,0,0

[Colours]
Combo1 : 255,255,128
Combo2 : 128,64,64
Combo3 : 255,0,0
Combo4 : 128,255,0

[HitObjects]
240,120,818,2,0,L|216:28,2,95,6|0|0,0:0|0:0|0:0,0:0:0:0:
316,176,1356,2,0,P|416:160|464:92,2,190,0|2|0,0:0|0:0|0:0,0:0:0:0:
224,248,2255,5,2,0:0:0:0:
160,360,2435,1,0,0:0:0:0:
248,336,2614,1,8,0:0:0:0:
136,272,2794,2,0,P|72:212|104:120,1,190
100,124,3333,1,8,0:0:0:0:
220,56,3692,6,0,L|408:36,1,190,6|4,0:0|0:0,0:0:0:0:
292,328,4410,2,0,L|104:348,1,190,6|4,0:0|0:0,0:0:0:0:
36,280,4949,1,0,0:0:0:0:
48,232,5039,1,0,0:0:0:0:
56,188,5129,2,0,L|172:176,1,95,4|0,0:0|0:0,0:0:0:0:
184,176,5398,1,4,0:0:0:0:
216,172,5488,1,0,0:0:0:0:
293,28,5668,6,0,P|305:76|289:120,1,95,6|4,0:0|0:0,0:0:0:0:
371,269,6027,2,0,P|299:209|294:108,1,190,2|0,0:0|0:0,0:0:0:0:
388,32,6566,5,4,0:0:0:0:
220,88,6746,1,4,0:0:0:0:
448,92,6925,1,4,0:0:0:0:
372,268,7105,1,4,0:0:0:0:
296,328,7285,5,4,0:0:0:0:
272,336,7374,1,4,0:0:0:0:
248,340,7464,1,4,0:0:0:0:
224,340,7554,1,4,0:0:0:0:
200,336,7644,1,4,0:0:0:0:
180,328,7734,1,4,0:0:0:0:
160,316,7823,1,4,0:0:0:0:
144,300,7913,1,4,0:0:0:0:
132,280,8003,1,6,0:0:0:0:
24,112,9081,5,0,0:0:0:0:
36,108,9171,1,0,0:0:0:0:
48,104,9260,1,0,0:0:0:0:
60,100,9350,1,0,0:0:0:0:
72,96,9440,6,0,L|168:104,1,95,4|0,0:0|0:0,0:0:0:0:
244,48,9800,2,0,P|288:52|328:84,1,95,4|0,0:0|0:0,0:0:0:0:
372,168,10159,1,6,0:0:0:0:
392,260,10338,2,0,L|492:272,2,95,0|4|0,0:0|0:0|0:0,0:0:0:0:
296,324,10877,6,0,P|208:352|108:344,1,190,6|6,0:0|0:0,0:0:0:0:
52,272,11416,1,0,0:0:0:0:
72,180,11596,2,0,P|72:132|56:84,1,95,4|0,0:0|0:0,0:0:0:0:
36,64,11866,1,4,0:0:0:0:
36,64,11955,2,0,P|84:60|136:40,1,95,4|0,0:0|0:0,0:0:0:0:
256,68,12315,6,0,P|272:112|268:164,1,95,4|0,0:0|0:0,0:0:0:0:
448,240,12674,2,0,P|432:196|436:144,1,95,4|0,0:0|0:0,0:0:0:0:
492,72,13033,1,6,0:0:0:0:
448,240,13213,1,12,0:0:0:0:
272,316,13392,1,0,0:0:0:0:
316,148,13572,1,6,0:0:0:0:
272,316,13752,6,0,B|176:328,1,95,4|4,0:0|0:0,0:0:0:0:
192,216,14111,2,0,B|96:204,1,95,4|4,0:0|0:0,0:0:0:0:
20,72,14470,5,4,0:0:0:0:
176,56,14740,1,4,0:0:0:0:
192,216,15009,1,4,0:0:0:0:
332,188,15189,6,0,L|356:88,1,95,4|4,0:0|0:0,0:0:0:0:
216,124,15548,2,0,L|192:216,1,95,4|4,0:0|0:0,0:0:0:0:
186,241,15817,1,4,0:0:0:0:
180,264,15907,1,4,0:0:0:0:
256,376,16087,1,4,0:0:0:0:
264,352,16177,1,4,0:0:0:0:
272,328,16267,1,8,0:0:0:0:
416,296,16626,6,0,P|476:212|468:128,1,190,4|4,0:0|0:0,0:0:0:0:
428,44,17165,1,0,0:0:0:0:
336,32,17344,2,0,B|256:48|256:48|232:40|232:40|144:56,1,190,4|4,0:0|0:0,0:0:0:0:
80,124,17883,1,0,0:0:0:0:
80,124,17973,1,0,0:0:0:0:
80,124,18063,2,0,P|52:80|56:28,2,95,6|0|4,0:0|0:0|0:0,0:0:0:0:
224,116,18602,2,0,P|264:200|232:292,1,190
152,332,19141,1,6,0:0:0:0:
152,332,19320,1,0,0:0:0:0:
76,276,19500,6,4,P|60:228|60:176,1,95,6|0,0:0|0:0,0:0:0:0:
152,332,19859,2,0,L|252:348,1,95,4|0,0:0|0:0,0:0:0:0:
420,316,20219,2,0,L|320:300,1,95,4|0,0:0|0:0,0:0:0:0:
496,272,20578,2,0,P|512:224|504:176,1,95,4|0,0:0|0:0,0:0:0:0:
472,52,20937,6,0,L|280:32,1,190,6|4,0:0|0:0,0:0:0:0:
424,128,21476,2,0,L|312:116,2,95,0|6|0,0:0|0:0|0:0,0:0:0:0:
424,128,22015,1,8,0:0:0:0:
496,272,22375,5,4,0:0:0:0:
420,328,22554,1,0,0:0:0:0:
324,312,22734,2,0,P|276:304|224:320,1,95,12|0,0:0|0:0,0:0:0:0:
136,384,23093,2,0,L|120:288,1,95,4|0,0:0|0:0,0:0:0:0:
44,152,23452,2,0,L|28:245,1,95,12|0,0:0|0:0,0:0:0:0:
136,104,23811,5,4,0:0:0:0:
136,104,23991,2,4,P|146:60|185:25,1,95,0|12,0:0|0:0,0:0:0:0:
224,104,24350,2,0,P|318:103|394:156,1,190
424,268,24889,1,12,0:0:0:0:
364,364,25069,1,0,0:0:0:0:
364,364,25249,6,0,L|268:376,1,95,4|0,0:0|0:0,0:0:0:0:
288,232,25608,2,0,L|216:296,1,95,12|0,0:0|0:0,0:0:0:0:
156,152,25967,2,0,L|134:246,1,95,4|4,0:0|0:0,0:0:0:0:
130,268,26237,1,4,0:0:0:0:
125,291,26327,1,12,0:0:0:0:
32,328,26506,1,0,0:0:0:0:
16,196,26686,1,4,0:0:0:0:
96,84,26865,6,0,P|136:64|188:68,2,95,0|4|0,0:0|0:0|0:0,0:0:0:0:
36,160,27404,1,8,0:0:0:0:
36,160,27494,1,0,0:0:0:0:
36,160,27584,1,0,0:0:0:0:
84,240,27764,1,8,0:0:0:0:
84,240,27853,1,0,0:0:0:0:
84,240,27943,1,0,0:0:0:0:
176,220,28123,6,0,L|248:244,1,71.2500027179719,0|4,0:0|0:0,0:0:0:0:
180,128,28482,2,0,L|256:120,1,71.2500027179719,0|4,0:0|0:0,0:0:0:0:
336,104,28841,1,8,0:0:0:0:
336,20,29021,1,2,0:0:0:0:
448,192,29201,1,0,0:0:0:0:
484,116,29381,1,2,0:0:0:0:
468,276,29560,6,0,P|480:312|476:352,2,71.2500027179719,4|0|4,0:0|0:0|0:0,0:0:0:0:
448,192,30099,1,0,0:0:0:0:
364,188,30279,2,0,L|288:200,1,71.2500027179719,10|0,0:0|0:0,0:0:0:0:
112,156,30638,2,0,L|188:144,1,71.2500027179719,2|0,0:0|0:0,0:0:0:0:
16,108,30997,5,4,0:0:0:0:
16,108,31177,1,0,0:0:0:0:
28,208,31356,1,0,0:0:0:0:
28,208,31536,1,4,0:0:0:0:
116,256,31716,2,0,P|128:292|128:328,1,71.2500027179719,8|0,0:0|0:0,0:0:0:0:
260,364,32075,2,0,P|224:376|188:376,1,71.2500027179719
320,296,32434,6,0,P|380:264|452:280,1,142.500005435944,4|4,0:0|0:0,0:0:0:0:
236,280,32973,2,0,B|216:248|216:248|208:208,1,71.2500027179719,0|8,0:0|0:0,0:0:0:0:
220,132,33332,1,0,0:0:0:0:
328,52,33512,1,0,0:0:0:0:
148,88,33692,1,0,0:0:0:0:
400,96,33871,6,0,B|436:100|436:100|484:92,1,71.2500027179719,4|0,0:0|0:0,0:0:0:0:
328,52,34231,2,0,B|292:48|292:48|244:56,1,71.2500027179719,4|0,0:0|0:0,0:0:0:0:
188,12,34590,2,0,P|200:84|184:156,1,142.500005435944,8|0,0:0|0:0,0:0:0:0:
112,228,35129,1,4,0:0:0:0:
172,316,35309,2,0,P|244:304|316:320,1,142.500005435944,4|0,0:0|0:0,0:0:0:0:
404,268,35847,2,0,B|404:232|404:232|416:196,1,71.2500027179719,0|8,0:0|0:0,0:0:0:0:
252,44,36386,6,0,P|244:68|244:92,1,47.5
260,180,36746,6,0,P|275:111|252:44,1,142.500005435944,4|4,0:0|0:0,0:0:0:0:
112,24,37644,1,2,0:0:0:0:
112,24,37823,1,2,0:0:0:0:
112,24,38003,1,2,0:0:0:0:
84,100,38183,6,0,L|16:120,1,71.2500027179719,4|4,0:0|0:0,0:0:0:0:
132,176,38542,2,0,L|87:231,1,71.2500027179719,4|4,0:0|0:0,0:0:0:0:
232,304,38901,2,0,L|224:184,1,106.875004076958,4|4,0:0|0:0,0:0:0:0:
224,184,39261,2,0,P|260:184|296:168,1,71.2500027179719,4|4,0:0|0:0,0:0:0:0:
236,36,39620,6,0,P|176:16|100:40,1,142.5,4|0,0:0|0:0,0:0:0:0:
92,48,39979,1,8,0:0:0:0:
324,116,40159,2,4,P|412:140|488:84,1,190
436,8,40698,1,8,0:0:0:0:
344,24,40877,1,0,0:0:0:0:
324,116,41057,6,0,B|304:180|304:180|324:252,1,142.5,4|4,0:0|0:0,0:0:0:0:
328,264,41416,2,0,L|428:248,1,95,8|4,0:0|0:0,0:0:0:0:
268,332,41776,2,0,L|168:348,1,95,0|4,0:0|0:0,0:0:0:0:
51,208,42135,2,0,P|91:236|100:280,1,95,8|0,0:0|0:0,0:0:0:0:
100,296,42404,1,0,0:0:0:0:
100,296,42494,6,0,P|184:280|236:308,1,142.5,4|4,0:0|0:0,0:0:0:0:
268,332,42853,1,8,0:0:0:0:
376,352,43033,2,0,P|448:320|456:212,1,190,4|4,0:0|0:0,0:0:0:0:
428,48,43572,2,0,B|416:92|416:92|428:140,1,95,8|0,0:0|0:0,0:0:0:0:
368,256,43931,6,0,L|272:272,1,95,4|0,0:0|0:0,0:0:0:0:
248,280,44201,1,4,0:0:0:0:
248,280,44291,2,0,P|228:320|232:372,1,95,8|4,0:0|0:0,0:0:0:0:
48,352,44650,2,0,L|144:336,1,95,4|4,0:0|0:0,0:0:0:0:
160,240,45009,1,8,0:0:0:0:
160,212,45099,1,0,0:0:0:0:
152,184,45189,1,0,0:0:0:0:
132,164,45279,1,0,0:0:0:0:
104,152,45368,6,0,P|64:152|24:192,1,95,4|0,0:0|0:0,0:0:0:0:
220,112,45728,2,0,P|220:72|200:20,1,95,4|0,0:0|0:0,0:0:0:0:
304,184,46087,2,0,P|384:184|420:144,1,95,0|4,0:0|0:0,0:0:0:0:
456,60,46446,1,6,0:0:0:0:
456,60,46626,1,2,0:0:0:0:
456,60,46716,1,2,0:0:0:0:
456,60,46806,6,0,P|424:144|476:224,1,190,4|4,0:0|0:0,0:0:0:0:
500,316,47344,1,4,0:0:0:0:
416,352,47524,2,0,B|352:368|352:368|296:352|296:352|232:368,1,190,0|4,0:0|0:0,0:0:0:0:
360,276,48063,1,4,0:0:0:0:
360,276,48153,1,4,0:0:0:0:
360,276,48243,6,0,P|376:188|304:120,1,190,6|4,0:0|0:0,0:0:0:0:
196,124,48782,1,0,0:0:0:0:
108,196,48961,2,0,P|92:284|164:352,1,190,6|4,0:0|0:0,0:0:0:0:
272,352,49500,1,0,0:0:0:0:
360,276,49680,6,0,L|456:264,1,95,4|0,0:0|0:0,0:0:0:0:
280,216,50039,2,0,L|184:228,1,95,4|0,0:0|0:0,0:0:0:0:
84,272,50398,1,4,0:0:0:0:
68,292,50488,1,4,0:0:0:0:
56,176,50668,1,4,0:0:0:0:
32,176,50758,1,4,0:0:0:0:
96,88,50937,1,4,0:0:0:0:
196,44,51117,6,0,L|388:64,1,190,6|4,0:0|0:0,0:0:0:0:
472,144,51835,5,4,0:0:0:0:
472,144,52015,1,4,0:0:0:0:
336,192,52195,1,4,0:0:0:0:
336,192,52374,1,4,0:0:0:0:
420,304,52554,1,4,0:0:0:0:
420,304,52734,1,4,0:0:0:0:
284,352,52913,1,4,0:0:0:0:
284,352,53093,1,4,0:0:0:0:
144,324,53273,2,0,P|108:260|44:224,1,142.5,4|4,0:0|0:0,0:0:0:0:
44,228,53632,2,0,P|72:184|72:136,1,95,4|4,0:0|0:0,0:0:0:0:
0,80,53991,6,0,P|92:108|168:56,1,190,2|4,0:0|0:0,0:0:0:0:
280,48,54530,2,0,P|328:40|380:64,1,95,4|4,0:0|0:0,0:0:0:0:
512,168,54889,2,0,P|487:209|435:234,1,95,4|4,0:0|0:0,0:0:0:0:
324,176,55249,1,4,0:0:0:0:
300,184,55338,1,4,0:0:0:0:
280,196,55429,1,4,0:0:0:0:
264,212,55519,1,4,0:0:0:0:
252,232,55609,1,4,0:0:0:0:
244,252,55698,1,4,0:0:0:0:
240,276,55788,1,4,0:0:0:0:
240,300,55878,1,4,0:0:0:0:
244,324,55967,1,4,0:0:0:0:
252,348,56057,1,4,0:0:0:0:
264,368,56147,5,4,0:0:0:0:
288,372,56237,1,4,0:0:0:0:
160,308,56416,1,4,0:0:0:0:
156,332,56506,1,4,0:0:0:0:
96,220,56686,1,4,0:0:0:0:
4,236,56865,5,0,0:0:0:0:
28,244,56955,1,0,0:0:0:0:
52,244,57045,1,0,0:0:0:0:
76,236,57135,1,0,0:0:0:0:
96,220,57225,1,0,0:0:0:0:
112,200,57315,1,0,0:0:0:0:
120,176,57404,1,0,0:0:0:0:
120,152,57494,1,0,0:0:0:0:
112,128,57584,2,0,L|96:108,8,23.75,0|0|0|0|0|0|0|0|2,0:0|0:0|0:0|0:0|0:0|0:0|0:0|0:0|0:0,0:0:0:0:
192,52,58303,6,0,L|356:32,1,163.875003125668,4|0,0:0|0:0,0:0:0:0:
368,40,58662,2,0,P|400:84|404:140,1,109.250002083778,4|2,0:0|0:0,0:0:0:0:
320,208,59021,1,4,0:0:0:0:
228,148,59201,2,0,L|112:128,2,109.250002083778,2|4|2,0:0|0:0|0:0,0:0:0:0:
220,256,59740,6,0,P|233:309|213:357,1,109.250002083778,6|2,0:0|0:0,0:0:0:0:
192,368,60009,2,0,B|84:352,1,109.250002083778,2|0,0:0|0:0,0:0:0:0:
68,336,60279,1,2,0:0:0:0:
56,228,60458,2,0,B|48:120|48:120|112:124|152:88,1,218.500004167557,4|4,0:0|0:0,0:0:0:0:
240,24,60997,1,2,0:0:0:0:
348,44,61177,6,0,L|472:68,1,109.250002083778,4|2,0:0|0:0,0:0:0:0:
492,168,61536,2,0,L|268:124,1,218.500004167557,4|4,0:0|0:0,0:0:0:0:
240,24,62075,2,0,P|164:112|200:204,1,218.500004167557,2|2,0:0|0:0,0:0:0:0:
308,224,62614,1,4,0:0:0:0:
280,120,62794,2,0,B|200:96|200:96|168:64|168:64|80:40,1,218.500004167557,2|2,0:0|0:0,0:0:0:0:
4,132,63332,1,4,0:0:0:0:
28,140,63422,1,4,0:0:0:0:
52,148,63512,1,6,0:0:0:0:
76,156,63602,1,4,0:0:0:0:
100,164,63692,1,4,0:0:0:0:
204,196,63871,1,6,0:0:0:0:
308,224,64051,6,0,P|396:140|388:32,1,218.500004167557,4|4,0:0|0:0,0:0:0:0:
240,268,64770,2,0,P|240:320|272:372,1,109.250002083778,4|0,0:0|0:0,0:0:0:0:
272,152,65129,2,0,P|272:100|240:48,1,109.250002083778,4|0,0:0|0:0,0:0:0:0:
120,44,65488,6,0,L|64:52,1,54.6250010418892,6|0,0:0|0:0,0:0:0:0:
64,128,65668,2,0,L|118:135,1,54.6250010418892,2|0,0:0|0:0,0:0:0:0:
116,216,65847,2,0,L|60:224,1,54.6250010418892,6|0,0:0|0:0,0:0:0:0:
60,300,66027,2,0,L|114:307,1,54.6250010418892,2|0,0:0|0:0,0:0:0:0:
128,332,66207,5,6,0:0:0:0:
148,316,66297,1,0,0:0:0:0:
172,308,66386,1,2,0:0:0:0:
200,304,66476,1,0,0:0:0:0:
228,308,66566,1,6,0:0:0:0:
252,324,66656,1,0,0:0:0:0:
268,344,66746,1,2,0:0:0:0:
276,368,66835,1,0,0:0:0:0:
276,368,66925,6,0,P|336:380|388:364,2,109.250002083778,4|2|4,0:0|0:0|0:0,0:0:0:0:
332,264,67464,2,0,P|416:200|424:92,2,218.500004167557,2|2|2,0:0|0:0|0:0,0:0:0:0:
224,256,68362,1,4,0:0:0:0:
228,148,68542,1,2,0:0:0:0:
228,148,68632,2,0,P|200:80|112:72,1,163.875003125668,2|0,0:0|0:0,0:0:0:0:
12,152,69081,2,0,P|12:232|52:304,1,163.875003125668,6|4,0:0|0:0,0:0:0:0:
68,316,69440,2,0,B|116:328|116:328|140:384,1,109.250002083778,4|6,0:0|0:0,0:0:0:0:
252,372,69800,6,0,P|280:340|288:272,1,109.250002083778,4|2,0:0|0:0,0:0:0:0:
276,240,70069,1,0,0:0:0:0:
252,212,70159,2,0,B|200:200|200:200|152:164,1,109.250002083778,4|2,0:0|0:0,0:0:0:0:
148,44,70518,2,0,P|252:12|364:72,1,218.500004167557,4|4,0:0|0:0,0:0:0:0:
388,156,71057,1,0,0:0:0:0:
380,264,71237,2,0,P|344:300|288:316,1,109.250002083778,4|2,0:0|0:0,0:0:0:0:
260,316,71506,1,0,0:0:0:0:
256,288,71596,2,0,L|244:176,1,109.250002083778,4|2,0:0|0:0,0:0:0:0:
228,72,71955,2,0,P|128:36|28:88,1,218.500004167557,4|4,0:0|0:0,0:0:0:0:
0,204,72494,1,0,0:0:0:0:
60,312,72674,6,0,P|144:316|212:276,1,163.875003125668,6|2,0:0|0:0,0:0:0:0:
212,240,73033,2,0,L|196:128,1,109.250002083778,4|2,0:0|0:0,0:0:0:0:
312,32,73392,2,0,L|328:144,1,109.250002083778,4|2,0:0|0:0,0:0:0:0:
460,216,73752,2,0,L|444:104,1,109.250002083778,4|2,0:0|0:0,0:0:0:0:
376,280,74111,6,0,P|272:248|244:144,1,218.500004167557,4|4,0:0|0:0,0:0:0:0:
284,48,74650,1,0,0:0:0:0:
180,20,74829,1,4,0:0:0:0:
148,28,74919,1,4,0:0:0:0:
120,44,75009,1,4,0:0:0:0:
100,68,75099,1,4,0:0:0:0:
88,100,75189,1,4,0:0:0:0:
88,212,75368,1,4,0:0:0:0:
92,232,75458,1,4,0:0:0:0:
96,252,75548,6,0,B|112:304|112:304|176:300|200:356,2,163.875003125668,4|2|0,0:0|0:0|0:0,0:0:0:0:
84,144,76267,1,0,0:0:0:0:
188,108,76446,1,4,0:0:0:0:
188,108,76536,1,4,0:0:0:0:
188,108,76626,1,8,0:0:0:0:
256,192,76806,1,4,0:0:0:0:
256,192,76895,1,4,0:0:0:0:
256,192,76985,6,0,P|312:180|352:140,1,109.250002083778,4|0,0:0|0:0,0:0:0:0:
100,256,77344,2,0,P|44:268|4:308,1,109.250002083778
180,312,77704,1,4,0:0:0:0:
264,224,77883,1,8,0:0:0:0:
260,208,77973,1,4,0:0:0:0:
256,192,78063,1,4,0:0:0:0:
100,256,78422,5,4,0:0:0:0:
208,132,78602,1,2,0:0:0:0:
44,112,78782,1,4,0:0:0:0:
176,212,78961,2,0,P|260:300|356:312,1,218.500004167557,2|0,0:0|0:0,0:0:0:0:
360,304,79410,1,0,0:0:0:0:
360,304,79500,2,0,P|384:248|384:200,1,109.250002083778,4|4,0:0|0:0,0:0:0:0:
340,44,79859,5,4,0:0:0:0:
256,188,80039,1,4,0:0:0:0:
172,44,80219,1,4,0:0:0:0:
340,44,80398,1,4,0:0:0:0:
256,188,80578,1,4,0:0:0:0:
256,208,80668,1,4,0:0:0:0:
260,228,80758,1,4,0:0:0:0:
268,248,80847,1,4,0:0:0:0:
280,268,80937,1,4,0:0:0:0:
296,284,81027,1,4,0:0:0:0:
312,296,81117,1,4,0:0:0:0:
332,304,81207,1,4,0:0:0:0:
352,308,81297,6,0,B|456:296|456:296|492:292|504:252,1,163.875003125668,0|4,0:0|0:0,0:0:0:0:
508,228,81656,1,0,0:0:0:0:
484,120,81835,2,0,L|376:104,1,109.250002083778,4|0,0:0|0:0,0:0:0:0:
296,28,82195,2,0,L|184:40,1,109.250002083778,4|0,0:0|0:0,0:0:0:0:
84,124,82554,1,4,0:0:0:0:
48,228,82734,5,2,0:0:0:0:
40,252,82823,1,0,0:0:0:0:
32,280,82913,1,4,0:0:0:0:
168,260,83093,5,2,0:0:0:0:
168,285,83182,1,0,0:0:0:0:
170,314,83272,1,4,0:0:0:0:
304,220,83452,5,2,0:0:0:0:
312,243,83541,1,0,0:0:0:0:
324,270,83631,1,4,0:0:0:0:
364,152,83812,6,0,P|392:108|396:48,1,109.250002083778,2|4,0:0|0:0,0:0:0:0:
264,32,84171,6,4,L|156:52,2,109.250002083778,6|4|4,0:0|0:0|0:0,0:0:0:0:
404,252,84710,2,4,L|512:232,2,109.250002083778,6|4|4,0:0|0:0|0:0,0:0:0:0:
256,324,85249,5,4,0:0:0:0:
256,192,85338,12,0,86820,0:0:0:0:
