osu file format v12

[General]
AudioFilename: Reason why XXX.mp3
AudioLeadIn: 1500
PreviewTime: 58303
Countdown: 0
SampleSet: Soft
StackLeniency: 0.7
Mode: 0
LetterboxInBreaks: 0
WidescreenStoryboard: 0

[Editor]
Bookmarks: 9433,16619,58303
DistanceSpacing: 1
BeatDivisor: 2
GridSize: 4

[Metadata]
Title:Reason why XXX
TitleUnicode:Reason why XXX
Artist:Sasaki Sayaka
ArtistUnicode:佐咲紗花
Creator:-Kirito
Version:Easy
Source:だから僕は、Hができない。
Tags:Ecchi ZAQ nyanyannya Kin opening Dakara Boku wa H ga Dekinai TV Size
BeatmapID:172472
BeatmapSetID:57181

[Difficulty]
HPDrainRate:2
CircleSize:3
OverallDifficulty:2
ApproachRate:2
SliderMultiplier:1
SliderTickRate:1

[Events]
//Background and Video events
0,0,"BG.jpg",0,0
Video,0,"BGV.flv"
//Break Periods
//Storyboard Layer 0 (Background)
//Storyboard Layer 1 (Fail)
//Storyboard Layer 2 (Pass)
//Storyboard Layer 3 (Foreground)
//Storyboard Sound Samples
//Background Colour Transformations
3,100,163,162,255

[TimingPoints]
818,359.281437125748,4,2,0,70,1,0
997,-100,4,2,1,70,0,0
3692,-100,4,2,1,70,0,0
9440,-100,4,2,0,70,0,0
9800,-100,4,2,2,70,0,0
9979,-100,4,2,1,70,0,0
12315,-100,4,2,0,70,0,0
12674,-100,4,2,2,70,0,0
12853,-100,4,2,1,70,0,0
14111,-100,4,2,2,70,0,0
14291,-100,4,2,1,70,0,0
16626,-100,4,2,1,70,0,0
16985,-100,4,2,2,70,0,0
17165,-100,4,2,1,70,0,0
18422,-100,4,2,2,70,0,0
18602,-100,4,2,1,70,0,0
22015,-100,4,2,1,70,0,0
22374,-100,4,2,1,70,0,0
27045,-100,4,2,0,70,0,0
27404,-100,4,2,1,70,0,0
28123,-133.333333333333,4,2,1,70,0,0
29919,-133.333333333333,4,2,2,70,0,0
30099,-133.333333333333,4,2,1,70,0,0
32794,-133.333333333333,4,2,2,70,0,0
32973,-133.333333333333,4,2,1,70,0,0
33871,-133.333333333333,4,2,1,60,0,0
36746,-133.333333333333,4,2,1,70,0,0
37105,-133.333333333333,4,2,0,70,0,0
37644,-133.333333333333,4,2,1,70,0,0
38183,-133.333333333333,4,2,1,70,0,0
39620,-133.333333333333,4,2,0,70,0,0
39800,-133.333333333333,4,2,1,70,0,0
42494,-100,4,2,1,70,0,0
45368,-100,4,2,1,70,0,0
51476,-100,4,2,0,70,0,0
51656,-100,4,2,1,70,0,0
51835,-100,4,2,2,70,0,0
52913,-100,4,2,1,70,0,0
57943,-100,4,2,1,100,0,0
58303,-100,4,2,0,70,0,1
58482,-100,4,2,1,70,0,1
60099,-100,4,2,2,70,0,1
60279,-100,4,2,1,70,0,1
61895,-100,4,2,2,70,0,1
62075,-100,4,2,1,70,0,1
64410,-100,4,2,0,70,0,1
64590,-100,4,2,1,70,0,1
65129,-100,4,2,2,70,0,1
65309,-100,4,2,1,70,0,1
65488,-100,4,2,2,70,0,1
65668,-100,4,2,1,70,0,1
68362,-100,4,2,1,70,0,1
69081,-100,4,2,0,70,0,1
69440,-100,4,2,1,70,0,1
69800,-100,4,2,0,70,0,1
70159,-100,4,2,2,70,0,1
70338,-100,4,2,1,70,0,1
71596,-100,4,2,2,70,0,1
71776,-100,4,2,1,70,0,1
74470,-100,4,2,2,70,0,1
74650,-100,4,2,1,70,0,1
75548,-100,4,2,0,70,0,0
75728,-100,4,2,1,70,0,0
78782,-100,4,2,2,70,0,0
78961,-100,4,2,1,70,0,0
80219,-100,4,2,2,70,0,0
80398,-100,4,2,1,70,0,0
85249,-100,4,2,1,5,0,0

[Colours]
Combo1 : 255,255,128
Combo2 : 128,64,64
Combo3 : 255,0,0
Combo4 : 128,255,0

[HitObjects]
220,192,818,2,0,P|248:80|368:48,1,250,4|0,0:0|0:0,0:0:0:0:
472,152,2255,2,0,P|444:264|324:296,1,250,2|0,0:0|0:0,0:0:0:0:
184,348,3692,6,0,P|180:296|188:244,1,100,4|4,0:0|0:0,0:0:0:0:
144,160,4410,2,0,P|196:156|248:164,1,100,4|4,0:0|0:0,0:0:0:0:
344,152,5129,2,4,P|416:116|448:44,2,150
256,192,6566,12,2,8003,0:0:0:0:
184,88,9440,6,0,P|256:32|328:92,1,200,4|4,0:0|0:0,0:0:0:0:
348,192,10518,1,4,0:0:0:0:
256,232,10877,2,0,L|256:332,2,100,4|6|4,0:0|0:0|0:0,0:0:0:0:
164,192,11955,1,4,0:0:0:0:
156,92,12315,6,0,P|256:32|340:56,1,200,4|4,0:0|0:0,0:0:0:0:
396,128,13392,1,6,0:0:0:0:
372,224,13752,2,0,P|272:284|188:260,1,200,6|4,0:0|0:0,0:0:0:0:
108,84,15189,2,0,P|56:88|8:72,2,100,4|4|4,0:0|0:0|0:0,0:0:0:0:
208,88,16267,1,8,0:0:0:0:
256,176,16626,6,0,P|343:252|422:229,1,200,4|4,0:0|0:0,0:0:0:0:
308,88,18063,2,0,P|192:96|152:168,1,200,4|6,0:0|0:0,0:0:0:0:
172,260,19141,1,6,0:0:0:0:
256,312,19500,6,0,L|356:324,1,100,2|4,0:0|0:0,0:0:0:0:
436,264,20219,2,0,L|448:164,1,100,4|4,0:0|0:0,0:0:0:0:
392,84,20937,2,0,L|172:60,1,200,4|6,0:0|0:0,0:0:0:0:
104,104,22015,1,8,0:0:0:0:
48,188,22374,6,0,P|60:272|160:324,1,200,2|4,0:0|0:0,0:0:0:0:
354,324,23812,2,0,P|448:271|460:187,1,200,4|4,0:0|0:0,0:0:0:0:
416,100,24889,1,8,0:0:0:0:
320,76,25249,2,0,B|232:84|232:84|212:76|212:76|116:84,2,200,4|6|4,0:0|0:0|0:0,0:0:0:0:
392,4,27045,2,0,P|480:44|500:96,1,150,4|2,0:0|0:0,0:0:0:0:
484,200,28123,6,0,P|428:248|348:252,1,150.000005722046,4|8,0:0|0:0,0:0:0:0:
244,352,29560,2,0,P|212:292|216:212,1,150.000005722046,4|8,0:0|0:0,0:0:0:0:
252,136,30638,1,2,0:0:0:0:
332,156,30997,6,0,L|484:184,1,150.000005722046,4|8,0:0|0:0,0:0:0:0:
424,44,32434,2,0,L|272:16,1,150.000005722046,4|8,0:0|0:0,0:0:0:0:
160,52,33871,6,0,P|104:116|104:192,1,150.000005722046,4|8,0:0|0:0,0:0:0:0:
124,256,34949,1,0,0:0:0:0:
204,280,35309,2,0,L|280:300,2,75.0000028610231,4|4|8,0:0|0:0|0:0,0:0:0:0:
64,336,36746,5,4,0:0:0:0:
8,284,37105,2,8,L|16:200,1,75.0000028610231,0|0,0:0|0:0,0:0:0:0:
116,96,38183,2,0,P|176:88|228:112,2,112.500004291535,4|4|4,0:0|0:0|0:0,0:0:0:0:
84,164,39620,6,0,P|108:280|196:324,1,225.000008583069,4|8,0:0|0:0,0:0:0:0:
268,324,41057,2,0,L|384:296,2,112.500004291535,6|6|8,0:0|0:0|0:0,0:0:0:0:
212,240,42494,6,0,P|200:116|344:36,1,300,4|8,0:0|0:0,0:0:0:0:
420,88,43931,2,0,L|440:188,2,100,4|2|0,0:0|0:0|0:0,0:0:0:0:
380,284,45368,6,0,P|240:336|104:280,1,300,4|8,0:0|0:0,0:0:0:0:
56,196,46806,2,0,L|76:84,1,100,2|4,0:0|0:0,0:0:0:0:
160,44,47524,2,0,L|184:148,1,100,2|4,0:0|0:0,0:0:0:0:
248,216,48243,2,0,P|352:256|432:224,1,200,6|4,0:0|0:0,0:0:0:0:
464,132,49320,1,4,0:0:0:0:
404,52,49680,6,0,L|296:44,1,100,4|6,0:0|0:0,0:0:0:0:
232,112,50398,2,0,L|132:104,1,100,4|6,0:0|0:0,0:0:0:0:
32,120,51117,1,4,0:0:0:0:
12,216,51476,2,0,P|16:292|76:352,1,150,4|0,0:0|0:0,0:0:0:0:
164,332,52374,6,0,P|236:308|312:332,1,150,2|6,0:0|0:0,0:0:0:0:
396,372,53273,1,4,0:0:0:0:
484,320,53632,1,4,0:0:0:0:
256,192,53991,12,2,56865,0:0:0:0:
340,304,57943,5,2,0:0:0:0:
340,304,58303,6,0,P|396:300|428:272,2,100,4|4|4,0:0|0:0|0:0,0:0:0:0:
252,252,59380,1,4,0:0:0:0:
256,152,59740,2,0,P|344:92|436:116,1,200,4|4,0:0|0:0,0:0:0:0:
488,192,60817,1,4,0:0:0:0:
488,292,61177,1,4,0:0:0:0:
400,340,61536,6,0,B|352:308|304:340|304:340|256:372|208:340,1,200,4|4,0:0|0:0,0:0:0:0:
112,348,62614,2,0,P|120:300|152:256,1,100,4|4,0:0|0:0,0:0:0:0:
136,160,63332,2,0,P|184:168|228:200,2,100,4|4|6,0:0|0:0|0:0,0:0:0:0:
40,192,64410,5,4,0:0:0:0:
24,292,64770,2,0,P|72:356|148:360,2,150,4|2|4,0:0|0:0|0:0,0:0:0:0:
40,192,66207,1,4,0:0:0:0:
124,140,66566,1,4,0:0:0:0:
220,168,66925,2,0,P|256:212|264:264,1,100,4|4,0:0|0:0,0:0:0:0:
352,304,67644,2,0,P|308:340|256:348,1,100,4|4,0:0|0:0,0:0:0:0:
172,384,68362,6,0,L|156:276,1,100,4|6,0:0|0:0,0:0:0:0:
60,272,69081,2,4,L|84:168,1,100,2|6,0:0|0:0,0:0:0:0:
44,80,69800,6,0,P|128:80|188:192,1,200,4|4,0:0|0:0,0:0:0:0:
256,244,70877,1,4,0:0:0:0:
322,168,71237,2,0,P|384:80|468:80,1,200,4|4,0:0|0:0,0:0:0:0:
412,272,72674,6,0,P|376:296|312:296,1,100,6|4,0:0|0:0,0:0:0:0:
232,344,73392,2,0,P|196:320|132:320,1,100,6|4,0:0|0:0,0:0:0:0:
60,256,74111,2,0,P|56:132|108:76,1,200,4|6,0:0|0:0,0:0:0:0:
200,56,75189,1,4,0:0:0:0:
284,112,75548,6,0,L|328:256,1,150,4|4,0:0|0:0,0:0:0:0:
472,304,76626,1,8,0:0:0:0:
380,340,76985,2,0,L|236:384,1,150,6|4,0:0|0:0,0:0:0:0:
100,320,78063,1,8,0:0:0:0:
120,220,78422,6,4,P|168:136|264:116,1,200
352,164,79500,1,4,0:0:0:0:
380,260,79859,2,4,P|332:344|236:364,1,200
148,316,80937,1,4,0:0:0:0:
256,192,81297,12,2,84171,0:0:0:0:
256,192,85249,12,0,86820,0:0:0:0:
