osu file format v14

[General]
AudioFilename: Sasaki Sayaka - My Dear Girl.mp3
AudioLeadIn: 0
PreviewTime: 58694
Countdown: 0
SampleSet: Soft
StackLeniency: 0.7
Mode: 3
LetterboxInBreaks: 0
SpecialStyle: 1
WidescreenStoryboard: 0

[Editor]
DistanceSpacing: 2
BeatDivisor: 6
GridSize: 4
TimelineZoom: 1.6

[Metadata]
Title:My Dear Girl (short Ver)
TitleUnicode:マイ・ディア・ガール (short Ver)
Artist:Sasaki Sayaka
ArtistUnicode:佐咲紗花
Creator:shionelove
Version:8K Normal
Source:アイドル☆シチュエーション
Tags:idol situation dmm browser eroge yoshilove
BeatmapID:787133
BeatmapSetID:357901

[Difficulty]
HPDrainRate:7
CircleSize:8
OverallDifficulty:7
ApproachRate:5
SliderMultiplier:1.4
SliderTickRate:1

[Events]
//Background and Video events
0,0,"my dear yoshi.png",0,0
//Break Periods
//Storyboard Layer 0 (Background)
//Storyboard Layer 1 (Fail)
//Storyboard Layer 2 (Pass)
//Storyboard Layer 3 (Foreground)
//Storyboard Sound Samples

[TimingPoints]
1756,612.244897959184,4,2,2,30,1,0
60531,-100,4,2,2,30,0,1
80021,-100,4,2,2,30,0,0
80123,-100,4,2,2,30,0,1
99715,-100,4,2,2,30,0,0

[HitObjects]
480,192,1755,128,0,3898:0:0:0:0:
224,192,3898,1,0,0:0:0:0:
352,192,4204,1,0,0:0:0:0:
160,192,4511,1,0,0:0:0:0:
416,192,4715,1,0,0:0:0:0:
96,192,5021,1,0,0:0:0:0:
480,192,5327,1,0,0:0:0:0:
96,192,6653,1,0,0:0:0:0:
224,192,6960,1,0,0:0:0:0:
416,192,7164,1,0,0:0:0:0:
288,192,7470,1,0,0:0:0:0:
480,192,7776,1,0,0:0:0:0:
224,192,8796,1,0,0:0:0:0:
288,192,9000,1,0,0:0:0:0:
416,192,9102,1,0,0:0:0:0:
160,192,9409,1,0,0:0:0:0:
352,192,9613,1,0,0:0:0:0:
96,192,9919,1,0,0:0:0:0:
288,192,10225,1,0,0:0:0:0:
480,192,10633,1,0,0:0:0:0:
96,192,11551,1,0,0:0:0:0:
224,192,11858,1,0,0:0:0:0:
288,192,12062,1,0,0:0:0:0:
416,192,12368,1,0,0:0:0:0:
480,192,12674,1,0,0:0:0:0:
416,192,12980,1,0,0:0:0:0:
288,192,13286,1,0,0:0:0:0:
160,192,13592,1,0,0:0:0:0:
480,192,14000,128,0,16143:0:0:0:0:
32,192,14000,1,4,0:0:0:0:
96,192,16143,1,0,0:0:0:0:
480,192,16347,128,0,17368:0:0:0:0:
160,192,17368,1,0,0:0:0:0:
416,192,17572,128,0,18592:0:0:0:0:
224,192,18592,1,0,0:0:0:0:
288,192,18796,1,0,0:0:0:0:
352,192,18898,128,0,19817:0:0:0:0:
224,192,19817,1,0,0:0:0:0:
352,192,20021,128,0,20429:0:0:0:0:
480,192,20429,128,0,20735:0:0:0:0:
416,192,20735,128,0,21041:0:0:0:0:
352,192,21041,128,0,21347:0:0:0:0:
288,192,21347,128,0,21653:0:0:0:0:
224,192,21653,128,0,21960:0:0:0:0:
160,192,21960,128,0,22266:0:0:0:0:
96,192,22266,128,0,23796:0:0:0:0:
352,192,22878,1,0,0:0:0:0:
416,192,23388,1,0,0:0:0:0:
288,192,23796,1,4,0:0:0:0:
480,192,23796,1,0,0:0:0:0:
480,192,24102,1,0,0:0:0:0:
224,192,24409,1,8,0:0:0:0:
480,192,24919,1,0,0:0:0:0:
480,192,25327,1,0,0:0:0:0:
224,192,25633,1,8,0:0:0:0:
480,192,26245,1,0,0:0:0:0:
480,192,26551,1,0,0:0:0:0:
224,192,26858,1,8,0:0:0:0:
480,192,27368,1,0,0:0:0:0:
480,192,27776,1,0,0:0:0:0:
224,192,28082,1,8,0:0:0:0:
96,192,28694,1,0,0:0:0:0:
96,192,29000,1,0,0:0:0:0:
352,192,29307,1,8,0:0:0:0:
96,192,29817,1,0,0:0:0:0:
96,192,30225,1,0,0:0:0:0:
352,192,30531,1,8,0:0:0:0:
96,192,31143,1,0,0:0:0:0:
96,192,31449,1,0,0:0:0:0:
352,192,31756,1,8,0:0:0:0:
96,192,32266,1,0,0:0:0:0:
96,192,32674,1,0,0:0:0:0:
352,192,32980,1,8,0:0:0:0:
96,192,33592,1,0,0:0:0:0:
96,192,33898,1,0,0:0:0:0:
224,192,34102,1,0,0:0:0:0:
480,192,34409,1,0,0:0:0:0:
96,192,34817,1,0,0:0:0:0:
416,192,34817,1,0,0:0:0:0:
96,192,35123,1,0,0:0:0:0:
160,192,35327,1,0,0:0:0:0:
288,192,35735,1,0,0:0:0:0:
96,192,36041,1,0,0:0:0:0:
480,192,36041,1,0,0:0:0:0:
96,192,36347,1,0,0:0:0:0:
416,192,36653,1,0,0:0:0:0:
96,192,37164,1,0,0:0:0:0:
352,192,37164,1,0,0:0:0:0:
96,192,37572,1,0,0:0:0:0:
288,192,37878,1,0,0:0:0:0:
96,192,38490,1,0,0:0:0:0:
96,192,38796,1,0,0:0:0:0:
352,192,39102,1,0,0:0:0:0:
96,192,39715,1,0,0:0:0:0:
480,192,39715,1,0,0:0:0:0:
96,192,40021,1,0,0:0:0:0:
416,192,40327,1,0,0:0:0:0:
160,192,40327,1,0,0:0:0:0:
96,192,40939,1,0,0:0:0:0:
352,192,40939,1,0,0:0:0:0:
96,192,41245,1,0,0:0:0:0:
160,192,41551,1,0,0:0:0:0:
416,192,41756,1,0,0:0:0:0:
96,192,42062,1,0,0:0:0:0:
288,192,42062,1,0,0:0:0:0:
96,192,42470,1,0,0:0:0:0:
480,192,42470,1,0,0:0:0:0:
416,192,42776,1,0,0:0:0:0:
288,192,43082,1,0,0:0:0:0:
32,192,43388,1,4,0:0:0:0:
352,192,43388,1,0,0:0:0:0:
352,192,44000,1,0,0:0:0:0:
224,192,44613,1,0,0:0:0:0:
224,192,45225,1,0,0:0:0:0:
288,192,45837,1,0,0:0:0:0:
288,192,46449,1,0,0:0:0:0:
480,192,47062,1,0,0:0:0:0:
224,192,47062,1,0,0:0:0:0:
160,192,47674,1,0,0:0:0:0:
416,192,47674,1,0,0:0:0:0:
96,192,48286,1,0,0:0:0:0:
352,192,48286,1,0,0:0:0:0:
352,192,48898,1,0,0:0:0:0:
224,192,49511,1,0,0:0:0:0:
160,192,50429,1,0,0:0:0:0:
416,192,50429,1,0,0:0:0:0:
96,192,51041,1,0,0:0:0:0:
352,192,51347,1,0,0:0:0:0:
160,192,51653,1,0,0:0:0:0:
416,192,51960,1,0,0:0:0:0:
224,192,52266,1,0,0:0:0:0:
480,192,52572,1,0,0:0:0:0:
288,192,52878,1,0,0:0:0:0:
96,192,53184,1,0,0:0:0:0:
224,192,53796,1,0,0:0:0:0:
480,192,53796,1,0,0:0:0:0:
160,192,54307,1,0,0:0:0:0:
288,192,54409,1,0,0:0:0:0:
416,192,54715,1,0,0:0:0:0:
480,192,55327,1,0,0:0:0:0:
224,192,55327,1,0,0:0:0:0:
352,192,56245,1,0,0:0:0:0:
96,192,56245,1,0,0:0:0:0:
160,192,56756,1,0,0:0:0:0:
416,192,56858,1,0,0:0:0:0:
480,192,57470,1,0,0:0:0:0:
224,192,57470,1,0,0:0:0:0:
32,192,58082,1,0,0:0:0:0:
32,192,59307,1,0,0:0:0:0:
96,192,59817,1,0,0:0:0:0:
480,192,59919,1,2,0:0:0:0:
480,192,60123,1,2,0:0:0:0:
96,192,60225,1,0,0:0:0:0:
96,192,60531,1,0,0:0:0:0:
32,192,60531,1,4,0:0:0:0:
352,192,61143,1,0,0:0:0:0:
96,192,61653,1,0,0:0:0:0:
96,192,62062,1,0,0:0:0:0:
288,192,62368,1,0,0:0:0:0:
96,192,62980,1,0,0:0:0:0:
416,192,63592,1,0,0:0:0:0:
96,192,64102,1,0,0:0:0:0:
96,192,64511,1,0,0:0:0:0:
224,192,64817,1,0,0:0:0:0:
96,192,65429,1,0,0:0:0:0:
480,192,66041,1,0,0:0:0:0:
96,192,66551,1,0,0:0:0:0:
96,192,66960,1,0,0:0:0:0:
352,192,67266,1,0,0:0:0:0:
96,192,67878,1,0,0:0:0:0:
288,192,68490,1,0,0:0:0:0:
96,192,69000,1,0,0:0:0:0:
224,192,69409,1,0,0:0:0:0:
352,192,69409,1,0,0:0:0:0:
160,192,69919,1,0,0:0:0:0:
416,192,69919,1,0,0:0:0:0:
96,192,70327,1,0,0:0:0:0:
480,192,70939,1,0,0:0:0:0:
96,192,71449,1,0,0:0:0:0:
96,192,71858,1,0,0:0:0:0:
480,192,72164,1,0,0:0:0:0:
96,192,72776,1,0,0:0:0:0:
416,192,73388,1,0,0:0:0:0:
96,192,73898,1,0,0:0:0:0:
96,192,74307,1,0,0:0:0:0:
416,192,74613,1,0,0:0:0:0:
96,192,74919,1,0,0:0:0:0:
352,192,75225,1,0,0:0:0:0:
160,192,75531,1,0,0:0:0:0:
416,192,75837,1,0,0:0:0:0:
480,192,76143,1,0,0:0:0:0:
160,192,76449,1,0,0:0:0:0:
416,192,76756,1,0,0:0:0:0:
96,192,77062,1,0,0:0:0:0:
288,192,77368,1,0,0:0:0:0:
352,192,77674,1,0,0:0:0:0:
224,192,77674,1,0,0:0:0:0:
160,192,78286,1,0,0:0:0:0:
416,192,78286,1,0,0:0:0:0:
96,192,78898,1,0,0:0:0:0:
352,192,78898,1,0,0:0:0:0:
224,192,79102,1,0,0:0:0:0:
480,192,79102,1,0,0:0:0:0:
416,192,79511,1,0,0:0:0:0:
224,192,79511,1,0,0:0:0:0:
288,192,79715,1,0,0:0:0:0:
96,192,79715,1,0,0:0:0:0:
96,192,80123,1,0,0:0:0:0:
32,192,80123,1,4,0:0:0:0:
352,192,80735,1,0,0:0:0:0:
96,192,81245,1,0,0:0:0:0:
96,192,81653,1,0,0:0:0:0:
288,192,81960,1,0,0:0:0:0:
96,192,82572,1,0,0:0:0:0:
416,192,83184,1,0,0:0:0:0:
224,192,83490,1,0,0:0:0:0:
480,192,83694,128,0,84102:0:0:0:0:
224,192,84102,128,0,84715:0:0:0:0:
96,192,85021,1,0,0:0:0:0:
416,192,85633,1,0,0:0:0:0:
96,192,86143,1,0,0:0:0:0:
96,192,86551,1,0,0:0:0:0:
352,192,86858,1,0,0:0:0:0:
96,192,87470,1,0,0:0:0:0:
416,192,87470,1,0,0:0:0:0:
160,192,88082,1,0,0:0:0:0:
480,192,88082,1,0,0:0:0:0:
96,192,88694,1,0,0:0:0:0:
416,192,88694,1,0,0:0:0:0:
160,192,89000,1,0,0:0:0:0:
288,192,89307,1,0,0:0:0:0:
96,192,89511,1,0,0:0:0:0:
480,192,89511,1,0,0:0:0:0:
96,192,89919,1,0,0:0:0:0:
32,192,89919,1,0,0:0:0:0:
480,192,90531,1,0,0:0:0:0:
96,192,91041,1,0,0:0:0:0:
96,192,91449,1,0,0:0:0:0:
480,192,91756,1,0,0:0:0:0:
96,192,92368,1,0,0:0:0:0:
416,192,92980,1,0,0:0:0:0:
96,192,93490,1,0,0:0:0:0:
96,192,93898,1,0,0:0:0:0:
416,192,94204,1,0,0:0:0:0:
96,192,94817,1,0,0:0:0:0:
288,192,94817,128,0,96041:0:0:0:0:
224,192,95429,1,0,0:0:0:0:
416,192,96041,128,0,97266:0:0:0:0:
96,192,96041,1,0,0:0:0:0:
96,192,96347,1,0,0:0:0:0:
224,192,96653,1,0,0:0:0:0:
480,192,97266,128,0,98490:0:0:0:0:
96,192,97266,1,0,0:0:0:0:
352,192,98490,128,0,99102:0:0:0:0:
224,192,99102,128,0,99715:0:0:0:0:
32,192,99715,1,4,0:0:0:0:
96,192,99715,1,0,0:0:0:0:
480,192,100327,128,0,100837:0:0:0:0:
96,192,100327,1,2,0:0:0:0:
224,192,100837,1,0,0:0:0:0:
352,192,100939,128,0,102164:0:0:0:0:
96,192,101551,1,2,0:0:0:0:
416,192,102164,128,0,102776:0:0:0:0:
288,192,102776,128,0,103388:0:0:0:0:
96,192,102776,1,2,0:0:0:0:
224,192,103388,128,0,104000:0:0:0:0:
352,192,104000,128,0,104613:0:0:0:0:
96,192,104000,1,2,0:0:0:0:
288,192,104613,128,0,105735:0:0:0:0:
480,192,105225,1,2,0:0:0:0:
160,192,105735,1,0,0:0:0:0:
96,192,105837,128,0,107062:0:0:0:0:
480,192,106449,1,2,0:0:0:0:
352,192,107062,1,0,0:0:0:0:
352,192,107674,1,0,0:0:0:0:
224,192,107674,1,2,0:0:0:0:
480,192,108286,1,0,0:0:0:0:
288,192,108796,1,0,0:0:0:0:
96,192,108898,1,2,0:0:0:0:
416,192,109102,1,0,0:0:0:0:
32,192,109511,1,4,0:0:0:0:
352,192,109511,128,0,110633:0:0:0:0:
96,192,110123,1,2,0:0:0:0:
224,192,110633,1,0,0:0:0:0:
480,192,110735,128,0,111960:0:0:0:0:
96,192,111347,1,2,0:0:0:0:
96,192,111960,1,0,0:0:0:0:
416,192,112266,1,0,0:0:0:0:
160,192,112572,1,0,0:0:0:0:
352,192,112878,1,0,0:0:0:0:
224,192,112980,1,0,0:0:0:0:
352,192,113082,1,0,0:0:0:0:
224,192,113592,1,0,0:0:0:0:
352,192,113694,1,0,0:0:0:0:
224,192,113796,1,0,0:0:0:0:
288,192,114102,1,0,0:0:0:0:
96,192,114409,128,0,116858:0:0:0:0:
480,192,116858,128,0,118082:0:0:0:0:
352,192,118082,128,0,118694:0:0:0:0:
224,192,118694,128,0,119307:0:0:0:0:
32,192,119766,1,0,0:0:0:0:
32,192,120837,1,0,0:0:0:0:
96,192,121756,1,0,0:0:0:0:
224,192,121858,1,0,0:0:0:0:
352,192,121960,1,0,0:0:0:0:
