osu file format v14

[General]
AudioFilename: feng7th.mp3
AudioLeadIn: 0
PreviewTime: 52170
Countdown: 0
SampleSet: Soft
StackLeniency: 0.7
Mode: 0
LetterboxInBreaks: 0
WidescreenStoryboard: 0

[Editor]
DistanceSpacing: 1
BeatDivisor: 4
GridSize: 4
TimelineZoom: 3.199999

[Metadata]
Title:Marine Blue ni Sotte
TitleUnicode:マリンブルーに沿って
Artist:Sasaki Sayaka
ArtistUnicode:佐咲紗花
Creator:lit120
Version:Serenade
Source:ちいさな彼女の小夜曲
Tags:chiikano chiisana kanojo no serenade sayokyoku feng eroge galgame visual novel opening -hakurei- ecdonald davided kawaiwkyik rizia haruto haruto_aizawa doormat
BeatmapID:940682
BeatmapSetID:436763

[Difficulty]
HPDrainRate:7
CircleSize:4.2
OverallDifficulty:8.5
ApproachRate:9.2
SliderMultiplier:1.9
SliderTickRate:1

[Events]
//Background and Video events
0,0,"kanojo.jpg",0,0
//Break Periods
//Storyboard Layer 0 (Background)
//Storyboard Layer 1 (Fail)
//Storyboard Layer 2 (Pass)
//Storyboard Layer 3 (Foreground)
//Storyboard Sound Samples

[TimingPoints]
421,333.333333333333,4,2,1,60,1,0
920,-100,4,2,1,5,0,0
1754,-100,4,2,1,10,0,0
2420,-100,4,2,1,20,0,0
3087,-100,4,2,1,30,0,0
3754,-100,4,2,1,40,0,0
4254,-100,4,2,1,5,0,0
4420,-100,4,2,1,50,0,0
4754,-100,4,2,1,60,0,0
16420,-133.333333333333,4,2,1,50,0,0
25587,-100,4,2,1,60,0,0
43087,-133.333333333333,4,2,1,60,0,0
48420,-166.666666666667,4,2,1,60,0,0
49087,-125,4,2,1,60,0,0
49754,-111.111111111111,4,2,1,60,0,0
50420,-100,4,2,1,60,0,0
53254,-166.666666666667,4,2,1,60,0,0
53504,-133.333333333333,4,2,1,5,0,0
53587,-86.9565217391304,4,2,1,70,0,1
63754,-86.9565217391304,4,2,1,50,0,1
64254,-86.9565217391304,4,2,1,70,0,1
73087,-86.9565217391304,4,2,1,70,0,1
74254,-86.9565217391304,4,2,1,50,0,1
75087,-100,4,2,1,60,0,0
77754,-100,4,2,1,60,0,0
79087,-100,4,2,1,5,0,0
79754,-133.333333333333,4,2,1,50,0,0
80254,-100,4,2,1,60,0,0
91004,-100,4,2,1,10,0,0

[Colours]
Combo1 : 245,84,108
Combo2 : 214,145,255
Combo3 : 70,153,255

[HitObjects]
256,192,920,12,0,4254,0:0:0:0:
142,283,4420,5,0,0:0:0:0:
369,283,4754,1,0,0:0:0:0:
256,362,4920,2,0,L|256:314,1,47.5,2|2,0:0|0:0,0:0:0:0:
256,136,5087,5,8,0:0:0:0:
233,98,5170,1,8,0:0:0:0:
195,74,5253,1,8,0:0:0:0:
150,71,5336,1,8,0:0:0:0:
110,89,5420,2,0,L|76:130,1,47.5,8|8,0:0|0:0,0:0:0:0:
97,323,5587,6,0,P|162:257|166:164,1,190,6|2,0:0|0:0,0:0:0:0:
0,16,6087,1,8,0:0:0:0:
5,212,6254,2,0,P|51:210|92:185,1,95,0|2,0:0|0:0,0:0:0:0:
237,44,6587,2,0,P|190:45|149:70,1,95,2|8,0:0|0:0,0:0:0:0:
177,282,6920,6,0,P|249:231|219:147,1,190,2|2,0:0|0:0,0:0:0:0:
0,117,7420,1,8,0:0:0:0:
87,320,7587,2,0,P|150:376|258:337,1,190,0|2,0:0|0:0,0:0:0:0:
367,189,8087,1,8,0:0:0:0:
155,101,8254,6,0,P|141:194|176:281,1,190,6|2,0:0|0:0,0:0:0:0:
367,189,8754,1,8,0:0:0:0:
240,28,8920,2,0,P|194:17|148:29,1,95,0|2,0:0|0:0,0:0:0:0:
22,188,9254,2,0,P|67:198|113:186,1,95,2|8,0:0|0:0,0:0:0:0:
313,84,9587,6,0,P|373:79|451:187,1,190,2|2,0:0|0:0,0:0:0:0:
337,364,10087,1,8,0:0:0:0:
239,166,10254,1,0,0:0:0:0:
145,365,10420,1,2,0:0:0:0:
351,270,10587,1,8,0:0:0:0:
351,270,10670,1,8,0:0:0:0:
351,270,10754,1,8,0:0:0:0:
176,94,10920,6,0,P|143:158|174:279,1,190,6|2,0:0|0:0,0:0:0:0:
372,365,11420,2,0,P|418:359|456:332,1,95,8|0,0:0|0:0,0:0:0:0:
287,178,11754,2,0,P|268:221|273:267,1,95,2|2,0:0|0:0,0:0:0:0:
491,197,12087,2,0,P|462:159|420:139,1,95,8|0,0:0|0:0,0:0:0:0:
191,157,12420,5,2,0:0:0:0:
402,236,12587,1,2,0:0:0:0:
272,42,12754,1,8,0:0:0:0:
195,248,12920,1,0,0:0:0:0:
398,139,13087,5,2,0:0:0:0:
312,343,13254,1,2,0:0:0:0:
251,115,13420,1,8,0:0:0:0:
124,303,13587,1,0,0:0:0:0:
379,242,13754,5,12,0:0:0:0:
146,177,13920,1,2,0:0:0:0:
312,343,14087,1,2,0:0:0:0:
326,88,14254,5,8,0:0:0:0:
190,281,14420,1,2,0:0:0:0:
157,45,14587,1,2,0:0:0:0:
343,217,14754,5,8,0:0:0:0:
104,202,14920,1,2,0:0:0:0:
104,202,15004,1,0,0:0:0:0:
104,202,15087,5,2,0:0:0:0:
336,91,15254,1,8,0:0:0:0:
244,333,15420,5,2,0:0:0:0:
121,101,15587,1,2,0:0:0:0:
384,167,15754,5,8,0:0:0:0:
122,283,15920,1,8,0:0:0:0:
122,283,16254,6,0,L|124:342,1,47.5
50,243,16420,6,0,P|88:207|182:226,1,142.500005435944,6|0,0:0|0:0,0:0:0:0:
256,309,16920,1,0,0:0:0:0:
339,216,17087,2,0,P|406:201|462:243,1,142.500005435944
323,321,17587,6,0,P|288:323|256:309,1,71.2500027179719
154,206,17920,2,0,P|189:204|221:218,1,71.2500027179719
87,297,18254,1,0,0:0:0:0:
85,141,18420,1,0,0:0:0:0:
174,292,18587,1,2,0:0:0:0:
249,147,18754,2,0,P|282:137|317:143,1,71.2500027179719,0|2,0:0|0:0,0:0:0:0:
401,300,19087,6,0,P|376:355|295:376,1,142.500005435944,2|0,0:0|0:0,0:0:0:0:
171,355,19587,1,0,0:0:0:0:
216,202,19754,2,0,P|277:238|319:296,1,142.500005435944
163,251,20254,6,0,P|146:220|146:185,1,71.2500027179719
227,47,20587,2,0,P|244:79|244:114,1,71.2500027179719
93,117,20920,2,0,P|125:100|160:100,1,71.2500027179719
297,182,21254,2,0,P|266:198|231:198,1,71.2500027179719
60,194,21587,1,2,0:0:0:0:
200,330,21754,6,0,P|234:268|230:198,1,142.500005435944,6|0,0:0|0:0,0:0:0:0:
146,63,22254,2,0,P|110:58|77:70,1,71.2500027179719
68,229,22587,2,0,P|103:232|135:219,1,71.2500027179719
235,63,22920,6,0,P|287:38|367:79,1,142.500005435944
425,192,23420,1,0,0:0:0:0:
300,256,23587,2,0,P|279:189|295:120,1,142.500005435944,0|2,0:0|0:0,0:0:0:0:
423,44,24087,1,0,0:0:0:0:
425,192,24254,1,2,0:0:0:0:
295,120,24420,6,0,P|224:107|154:133,1,142.500005435944,2|0,0:0|0:0,0:0:0:0:
118,278,24920,2,0,P|189:291|259:265,1,142.500005435944
365,118,25420,1,2,0:0:0:0:
425,367,25587,6,0,P|456:279|424:191,1,190,6|0,0:0|0:0,0:0:0:0:
257,48,26087,1,2,0:0:0:0:
253,268,26254,1,2,0:0:0:0:
449,120,26420,1,8,0:0:0:0:
425,367,26587,1,8,0:0:0:0:
425,367,26670,1,8,0:0:0:0:
425,367,26754,1,8,0:0:0:0:
425,367,27087,6,0,P|456:279|424:191,1,190,6|8,0:0|0:0,0:0:0:0:
257,48,27587,1,0,0:0:0:0:
134,212,27754,2,0,P|133:286|242:324,1,190,2|8,0:0|0:0,0:0:0:0:
358,148,28254,6,0,P|269:177|207:249,1,190,2|2,0:0|0:0,0:0:0:0:
421,303,28754,1,8,0:0:0:0:
412,95,28920,1,0,0:0:0:0:
288,271,29087,1,0,0:0:0:0:
252,58,29254,1,0,0:0:0:0:
422,211,29420,2,0,P|433:257|421:303,1,95,8|2,0:0|0:0,0:0:0:0:
224,372,29754,6,0,P|161:338|121:228,1,190,2|8,0:0|0:0,0:0:0:0:
211,61,30254,1,0,0:0:0:0:
291,261,30420,2,0,P|376:286|422:211,1,190,0|8,0:0|0:0,0:0:0:0:
286,43,30920,5,2,0:0:0:0:
281,61,31254,5,2,0:0:0:0:
281,298,31420,1,8,0:0:0:0:
487,180,31587,1,0,0:0:0:0:
482,198,31920,5,2,0:0:0:0:
222,221,32087,1,8,0:0:0:0:
352,210,32254,1,0,0:0:0:0:
92,232,32420,6,0,P|46:292|137:333,1,190,6|8,0:0|0:0,0:0:0:0:
338,295,32920,2,0,P|309:212|221:221,1,190,2|2,0:0|0:0,0:0:0:0:
40,380,33420,1,8,0:0:0:0:
5,165,33587,6,0,P|45:107|171:108,1,190,2|2,0:0|0:0,0:0:0:0:
322,257,34087,1,8,0:0:0:0:
148,353,34254,2,0,P|89:283|106:192,1,190,2|2,0:0|0:0,0:0:0:0:
256,21,34754,1,8,0:0:0:0:
406,192,34920,1,0,0:0:0:0:
406,192,35004,1,0,0:0:0:0:
406,192,35087,6,0,P|423:282|364:353,1,190,2|8,0:0|0:0,0:0:0:0:
166,293,35587,2,0,P|234:232|321:256,1,190,0|2,0:0|0:0,0:0:0:0:
128,378,36087,1,8,0:0:0:0:
167,125,36254,6,0,P|220:88|320:153,1,190,6|2,0:0|0:0,0:0:0:0:
231,360,36754,1,8,0:0:0:0:
101,187,36920,1,2,0:0:0:0:
329,258,37087,1,8,0:0:0:0:
128,378,37254,1,8,0:0:0:0:
94,377,37337,1,8,0:0:0:0:
63,367,37420,1,0,0:0:0:0:
36,347,37504,1,8,0:0:0:0:
17,320,37587,1,8,0:0:0:0:
167,125,37754,6,0,P|222:109|354:140,2,190,6|8|2,0:0|0:0|0:0,0:0:0:0:
7,288,38587,1,2,0:0:0:0:
249,237,38754,1,8,0:0:0:0:
83,83,38920,6,0,P|67:142|106:266,1,190,2|2,0:0|0:0,0:0:0:0:
301,375,39420,1,8,0:0:0:0:
269,160,39587,1,0,0:0:0:0:
137,339,39754,2,0,P|91:350|45:338,1,95,2|2,0:0|0:0,0:0:0:0:
177,159,40087,2,0,P|223:148|269:160,1,95,8|0,0:0|0:0,0:0:0:0:
396,345,40420,5,2,0:0:0:0:
455,148,40587,1,0,0:0:0:0:
271,286,40754,1,8,0:0:0:0:
291,77,40920,1,0,0:0:0:0:
427,262,41087,5,2,0:0:0:0:
182,228,41254,1,2,0:0:0:0:
397,83,41420,1,8,0:0:0:0:
140,147,41587,6,0,P|105:179|91:224,1,95,2|0,0:0|0:0,0:0:0:0:
225,375,41920,1,2,0:0:0:0:
327,119,42087,2,0,P|351:190|295:310,1,190,12|2,0:0|0:0,0:0:0:0:
77,365,42587,1,8,0:0:0:0:
77,365,42670,1,8,0:0:0:0:
77,365,42754,1,8,0:0:0:0:
126,164,42920,1,4,0:3:0:0:
126,164,43004,1,4,0:3:0:0:
126,164,43087,6,0,P|193:135|258:157,1,142.500005435944,6|2,0:0|0:0,0:0:0:0:
197,234,43587,1,0,0:0:0:0:
138,311,43754,2,0,P|204:332|268:304,1,142.500005435944,2|2,0:0|0:0,0:0:0:0:
336,187,44254,1,0,0:0:0:0:
201,101,44420,6,0,P|177:167|197:234,1,142.500005435944,2|2,0:0|0:0,0:0:0:0:
288,355,44920,1,0,0:0:0:0:
376,232,45087,2,0,P|396:165|372:99,1,142.500005435944,2|2,0:0|0:0,0:0:0:0:
289,0,45587,1,0,0:0:0:0:
288,168,45754,6,0,P|250:242|194:254,1,142.500005435944,2|2,0:0|0:0,0:0:0:0:
74,225,46254,1,0,0:0:0:0:
118,73,46420,2,0,P|178:111|209:175,1,142.500005435944,2|2,0:0|0:0,0:0:0:0:
161,338,46920,1,8,0:3:0:0:
325,298,47087,6,0,P|363:239|351:171,1,142.500005435944,2|4,0:0|0:3,0:0:0:0:
256,73,47587,1,8,0:3:0:0:
160,171,47754,2,0,P|148:239|186:298,1,142.500005435944,4|0,0:3|0:0,0:0:0:0:
219,315,48170,1,0,0:0:0:0:
256,321,48254,1,0,0:0:0:0:
293,315,48337,1,0,0:0:0:0:
325,298,48420,6,0,P|360:253|328:144,1,170.999994781494,6|0,0:0|0:0,0:0:0:0:
123,96,49087,6,0,P|81:192|173:239,1,228,6|0,0:0|0:0,0:0:0:0:
380,163,49754,6,0,P|265:114|153:167,1,256.499992172241,6|0,0:0|0:0,0:0:0:0:
246,346,50420,6,0,P|301:368|421:314,1,190,6|0,0:0|0:0,0:0:0:0:
461,120,50920,1,0,0:0:0:0:
461,120,51004,1,0,0:0:0:0:
461,120,51087,5,12,0:0:0:0:
220,171,51254,1,8,0:0:0:0:
416,320,51420,5,8,0:0:0:0:
356,65,51587,1,8,0:0:0:0:
231,298,51754,5,8,0:0:0:0:
144,59,51920,1,8,0:0:0:0:
357,218,52087,5,8,0:0:0:0:
92,263,52254,1,8,0:0:0:0:
92,263,53254,6,0,L|118:182,1,85.4999973907472,4|0,0:3|0:0,0:0:0:0:
7,244,53587,6,0,P|47:337|149:327,1,218.500004167557,6|2,0:0|0:0,0:0:0:0:
256,124,54087,1,8,0:0:0:0:
331,312,54254,1,0,0:0:0:0:
157,181,54420,1,2,0:0:0:0:
377,147,54587,1,2,0:0:0:0:
250,344,54754,2,0,P|196:351|149:327,1,109.250002083778,8|0,0:0|0:0,0:0:0:0:
35,129,55087,6,0,P|134:89|234:126,1,218.500004167557,2|8,0:0|0:0,0:0:0:0:
149,327,55587,2,0,P|96:340|46:321,1,109.250002083778,0|2,0:0|0:0,0:0:0:0:
238,220,55920,2,0,P|290:206|340:225,1,109.250002083778,2|8,0:0|0:0,0:0:0:0:
149,327,56254,6,0,P|100:226|135:127,1,218.500004167557,2|2,0:0|0:0,0:0:0:0:
363,57,56754,2,0,P|412:158|377:257,1,218.500004167557,8|2,0:0|0:0,0:0:0:0:
217,136,57254,1,2,0:0:0:0:
266,358,57420,1,8,0:0:0:0:
287,331,57503,1,0,0:0:0:0:
301,300,57586,1,0,0:0:0:0:
304,266,57670,1,0,0:0:0:0:
297,233,57753,5,2,0:0:0:0:
161,83,57920,1,2,0:0:0:0:
149,317,58087,1,8,0:0:0:0:
293,164,58254,2,0,P|345:150|395:169,1,109.250002083778,0|8,0:0|0:0,0:0:0:0:
368,363,58587,2,0,P|316:377|266:358,1,109.250002083778,2|8,0:0|0:0,0:0:0:0:
96,180,58920,6,0,P|147:143|297:167,1,218.500004167557,6|2,0:0|0:0,0:0:0:0:
117,301,59420,1,8,0:0:0:0:
85,81,59587,2,0,P|165:108|182:228,1,218.500004167557,0|2,0:0|0:0,0:0:0:0:
5,373,60087,1,8,0:0:0:0:
96,180,60254,6,0,P|158:131|307:123,1,218.500004167557,0|2,0:0|0:0,0:0:0:0:
469,270,60754,1,8,0:0:0:0:
261,270,60920,1,0,0:0:0:0:
379,73,61087,2,0,P|409:189|364:290,1,218.500004167557,2|8,0:0|0:0,0:0:0:0:
190,357,61587,1,0,0:0:0:0:
100,145,61754,6,0,P|222:114|302:163,1,218.500004167557,2|8,0:0|0:0,0:0:0:0:
147,297,62254,1,0,0:0:0:0:
374,277,62420,2,0,P|416:241|366:95,1,218.500004167557,2|8,0:0|0:0,0:0:0:0:
342,84,62837,1,0,0:0:0:0:
302,74,62920,1,0,0:0:0:0:
262,70,63004,1,0,0:0:0:0:
221,73,63087,5,2,0:0:0:0:
114,246,63254,1,2,0:0:0:0:
339,188,63420,1,8,0:0:0:0:
122,121,63587,1,8,0:0:0:0:
122,121,63670,1,8,0:0:0:0:
122,121,63754,6,8,L|63:110,1,54.6250010418892
114,246,63920,2,8,L|57:265,1,54.6250010418892
219,316,64087,2,8,L|179:361,1,54.6250010418892
341,135,64254,6,0,P|293:86|201:193,1,218.500004167557,6|2,0:0|0:0,0:0:0:0:
327,360,64754,2,0,P|321:252|269:158,1,218.500004167557,8|2,0:0|0:0,0:0:0:0:
82,75,65254,1,2,0:0:0:0:
127,307,65420,2,0,P|180:304|222:270,1,109.250002083778,8|0,0:0|0:0,0:0:0:0:
286,42,65754,6,0,P|380:42|356:133,1,218.500004167557,2|8,0:0|0:0,0:0:0:0:
152,221,66254,2,0,P|98:228|51:203,1,109.250002083778,0|2,0:0|0:0,0:0:0:0:
185,24,66587,2,0,P|238:16|285:41,1,109.250002083778,2|8,0:0|0:0,0:0:0:0:
321,267,66920,6,0,P|286:334|160:293,1,218.500004167557,2|2,0:0|0:0,0:0:0:0:
175,68,67420,2,0,P|235:158|239:265,1,218.500004167557,8|2,0:0|0:0,0:0:0:0:
90,144,67920,1,2,0:0:0:0:
315,96,68087,2,0,P|361:123|383:172,1,109.250002083778,8|0,0:0|0:0,0:0:0:0:
207,362,68420,6,0,P|210:256|291:187,1,218.500004167557,2|8,0:0|0:0,0:0:0:0:
509,198,68920,1,0,0:0:0:0:
323,369,69087,1,6,0:0:0:0:
219,149,69254,1,8,0:0:0:0:
258,162,69337,1,8,0:0:0:0:
290,187,69420,1,8,0:0:0:0:
312,220,69503,1,8,0:0:0:0:
321,260,69587,6,0,P|361:213|308:57,1,218.500004167557,6|2,0:0|0:0,0:0:0:0:
96,95,70087,2,0,P|48:120|25:169,1,109.250002083778,8|0,0:0|0:0,0:0:0:0:
248,247,70420,2,0,P|249:193|218:148,1,109.250002083778,2|2,0:0|0:0,0:0:0:0:
40,302,70754,2,0,P|86:329|139:325,1,109.250002083778,8|0,0:0|0:0,0:0:0:0:
351,227,71087,6,0,B|410:198|491:218|491:218|446:155,1,218.500004167557,2|8,0:0|0:0,0:0:0:0:
244,44,71587,2,0,P|174:39|69:144,1,218.500004167557,0|2,0:0|0:0,0:0:0:0:
151,341,72087,2,0,P|203:352|253:330,1,109.250002083778,8|0,0:0|0:0,0:0:0:0:
363,97,72420,6,0,P|387:196|323:296,2,218.500004167557,6|8|2,0:0|0:0|0:0,0:0:0:0:
192,256,73254,1,2,0:0:0:0:
427,228,73420,1,12,0:0:0:0:
220,109,73587,6,0,P|121:103|34:204,1,218.500004167557,0|2,0:0|0:0,0:0:0:0:
202,360,74087,1,8,0:0:0:0:
290,139,74254,1,8,0:0:0:0:
290,139,74337,1,8,0:0:0:0:
290,139,74420,6,8,L|324:93,1,54.6250010418892
384,314,74587,2,8,L|383:371,1,54.6250010418892,8|8,0:0|0:0,0:0:0:0:
205,227,74754,2,8,L|171:180,1,54.6250010418892,8|8,0:0|0:0,0:0:0:0:
405,195,74920,2,8,L|459:213,1,54.6250010418892
262,335,75087,6,0,P|198:357|88:295,1,190,6|8,0:0|0:0,0:0:0:0:
111,39,75587,1,8,0:0:0:0:
294,262,75754,5,8,0:0:0:0:
29,167,75920,1,8,0:0:0:0:
272,27,76087,5,8,0:0:0:0:
181,295,76254,1,8,0:0:0:0:
430,152,76420,5,8,0:0:0:0:
135,134,76587,1,8,0:0:0:0:
354,368,76754,5,8,0:0:0:0:
362,60,76920,1,8,0:0:0:0:
127,304,77087,5,8,0:0:0:0:
459,216,77254,1,8,0:0:0:0:
165,34,77420,5,8,0:0:0:0:
187,378,77587,1,8,0:0:0:0:
460,78,77754,5,6,0:0:0:0:
256,192,77837,12,0,79087,0:0:0:0:
130,103,79754,5,8,0:0:0:0:
111,133,79837,1,8,0:0:0:0:
101,167,79920,1,8,0:0:0:0:
100,202,80003,1,8,0:0:0:0:
109,237,80087,2,8,L|141:277,1,35.625001358986
312,348,80254,6,0,P|353:298|333:158,1,190,6|2,0:0|0:0,0:0:0:0:
194,20,80754,1,8,0:0:0:0:
100,202,80920,2,0,P|145:209|190:193,1,95,0|2,0:0|0:0,0:0:0:0:
360,91,81254,2,0,P|314:83|269:99,1,95,2|8,0:0|0:0,0:0:0:0:
178,285,81587,6,0,P|212:338|336:338,1,190,2|2,0:0|0:0,0:0:0:0:
456,168,82087,1,8,0:0:0:0:
256,213,82254,2,0,B|196:221|131:204|131:204|177:152,1,190,0|2,0:0|0:0,0:0:0:0:
354,39,82754,1,8,0:0:0:0:
425,266,82920,6,0,P|455:202|422:70,1,190,6|2,0:0|0:0,0:0:0:0:
258,231,83420,1,8,0:0:0:0:
412,356,83587,2,0,P|430:312|424:265,1,95,0|2,0:0|0:0,0:0:0:0:
269,140,83920,2,0,P|251:183|257:230,1,95,2|8,0:0|0:0,0:0:0:0:
436,108,84254,6,0,P|345:88|269:139,1,190,2|2,0:0|0:0,0:0:0:0:
204,344,84754,1,8,0:0:0:0:
119,153,84920,1,0,0:0:0:0:
45,351,85087,1,2,0:0:0:0:
235,239,85254,1,8,0:0:0:0:
235,239,85337,1,8,0:0:0:0:
235,239,85420,1,8,0:0:0:0:
55,77,85587,6,0,P|21:134|58:254,1,190,6|2,0:0|0:0,0:0:0:0:
232,107,86087,2,0,P|278:97|322:112,1,95,8|0,0:0|0:0,0:0:0:0:
185,295,86420,2,0,P|153:259|144:213,1,95,2|2,0:0|0:0,0:0:0:0:
372,242,86754,2,0,P|357:286|321:317,1,95,8|0,0:0|0:0,0:0:0:0:
93,328,87087,5,2,0:0:0:0:
167,144,87254,1,2,0:0:0:0:
249,357,87420,1,8,0:0:0:0:
346,173,87587,1,2,0:0:0:0:
123,239,87754,5,8,0:0:0:0:
216,58,87920,1,8,0:0:0:0:
254,42,88003,1,8,0:0:0:0:
295,39,88086,1,8,0:0:0:0:
335,50,88169,1,8,0:0:0:0:
370,72,88254,2,0,L|405:142,1,47.5,8|4,0:3|0:3,0:0:0:0:
365,312,88420,5,12,0:0:0:0:
178,173,88587,1,2,0:0:0:0:
422,191,88754,1,2,0:0:0:0:
200,316,88920,5,8,0:0:0:0:
279,82,89087,1,2,0:0:0:0:
365,312,89254,1,2,0:0:0:0:
483,83,89420,5,8,0:0:0:0:
256,192,89587,1,2,0:0:0:0:
256,192,89670,1,0,0:0:0:0:
256,192,89754,5,2,0:0:0:0:
487,283,89920,1,8,0:0:0:0:
342,81,90087,1,8,0:0:0:0:
303,66,90170,1,8,0:0:0:0:
262,60,90253,1,8,0:0:0:0:
220,63,90336,1,8,0:0:0:0:
180,75,90420,2,0,L|159:128,1,47.5
122,317,90587,2,8,L|178:308,1,47.5
361,247,90754,2,8,L|301:231,1,47.5
81,179,90920,5,2,0:0:0:0:
256,192,91004,12,0,93670,0:0:0:0:
