osu file format v14

[General]
AudioFilename: Marine Blue ni Sotte.mp3
AudioLeadIn: 0
PreviewTime: 115427
Countdown: 0
SampleSet: Normal
StackLeniency: 0.7
Mode: 1
LetterboxInBreaks: 0
WidescreenStoryboard: 0

[Editor]
DistanceSpacing: 2
BeatDivisor: 4
GridSize: 32
TimelineZoom: 1

[Metadata]
Title:Marine Blue ni Sotte
TitleUnicode:マリンブルーに沿って
Artist:Sasaki Sayaka
ArtistUnicode:佐咲紗花
Creator:Nardoxyribonucleic
Version:Kantan
Source:ちいさな彼女の小夜曲
Tags:Taiko feng Visual Novel Chiisana Kanojo no Sayokyoku Serenade Opening
BeatmapID:1343685
BeatmapSetID:630650

[Difficulty]
HPDrainRate:7
CircleSize:5
OverallDifficulty:3
ApproachRate:3
SliderMultiplier:1.4
SliderTickRate:1

[Events]
//Background and Video events
0,0,"Mizuka.jpg",0,20
//Break Periods
//Storyboard Layer 0 (Background)
//Storyboard Layer 1 (Fail)
//Storyboard Layer 2 (Pass)
//Storyboard Layer 3 (Foreground)
//Storyboard Sound Samples

[TimingPoints]
-239,333.333333333333,4,1,0,90,1,0
15760,-100,4,1,0,70,0,0
37094,-100,4,1,0,80,0,0
52927,-100,4,1,0,90,0,1
77094,-100,4,1,0,70,0,0
79594,-100,4,1,0,90,0,0
90427,-100,4,1,0,70,0,0
101094,-100,4,1,0,80,0,0
116927,-100,4,1,0,90,0,1
141094,-100,4,1,0,70,0,0
154427,-100,4,1,0,80,0,0
159760,-100,4,1,0,90,0,0
164927,-100,4,1,0,80,0,0
175594,-100,4,1,0,70,0,0
180927,-100,4,1,0,90,0,1
210427,-100,4,1,0,70,0,0
213594,-100,4,1,0,90,0,0
235094,-100,4,1,0,30,0,0
236427,-100,4,1,0,15,0,0
237760,-100,4,1,0,5,0,0

[HitObjects]
256,192,3760,5,8,0:0:0:0:
256,192,4094,1,8,0:0:0:0:
256,192,4427,1,8,0:0:0:0:
256,192,4927,1,4,0:0:0:0:
256,192,5594,1,8,0:0:0:0:
256,192,6260,1,8,0:0:0:0:
256,192,6927,1,0,0:0:0:0:
256,192,7260,1,0,0:0:0:0:
256,192,7594,1,12,0:0:0:0:
256,192,8260,1,8,0:0:0:0:
256,192,8927,1,8,0:0:0:0:
256,192,9594,1,0,0:0:0:0:
256,192,9927,1,8,0:0:0:0:
256,192,10260,1,4,0:0:0:0:
256,192,11760,1,0,0:0:0:0:
256,192,12094,1,8,0:0:0:0:
256,192,12427,1,0,0:0:0:0:
256,192,12760,1,8,0:0:0:0:
256,192,13094,1,4,0:0:0:0:
256,192,14094,1,8,0:0:0:0:
256,192,14594,1,8,0:0:0:0:
256,192,15094,1,12,0:0:0:0:
256,192,15760,1,4,0:0:0:0:
256,192,16427,1,8,0:0:0:0:
256,192,17094,1,0,0:0:0:0:
256,192,17760,1,0,0:0:0:0:
256,192,18094,1,8,0:0:0:0:
256,192,18427,1,0,0:0:0:0:
256,192,19094,1,0,0:0:0:0:
256,192,19760,1,8,0:0:0:0:
256,192,21094,1,4,0:0:0:0:
256,192,21760,1,0,0:0:0:0:
256,192,22427,1,8,0:0:0:0:
256,192,22760,1,8,0:0:0:0:
256,192,23094,1,0,0:0:0:0:
256,192,23760,1,0,0:0:0:0:
256,192,24427,1,8,0:0:0:0:
256,192,24927,1,4,0:0:0:0:
256,192,26427,1,4,0:0:0:0:
256,192,27094,1,8,0:0:0:0:
256,192,27760,1,0,0:0:0:0:
256,192,28427,1,8,0:0:0:0:
256,192,28760,1,8,0:0:0:0:
256,192,29094,1,0,0:0:0:0:
256,192,29760,1,8,0:0:0:0:
256,192,30427,1,0,0:0:0:0:
256,192,31094,1,0,0:0:0:0:
256,192,31427,1,8,0:0:0:0:
256,192,31760,1,12,0:0:0:0:
256,192,32427,1,0,0:0:0:0:
256,192,33094,1,0,0:0:0:0:
256,192,33427,1,8,0:0:0:0:
256,192,33760,1,0,0:0:0:0:
256,192,34427,1,8,0:0:0:0:
256,192,35094,1,0,0:0:0:0:
256,192,35594,1,12,0:0:0:0:
256,192,37094,1,4,0:0:0:0:
256,192,37760,1,0,0:0:0:0:
256,192,38427,1,8,0:0:0:0:
256,192,39094,1,0,0:0:0:0:
256,192,39427,1,8,0:0:0:0:
256,192,39760,1,0,0:0:0:0:
256,192,40427,1,0,0:0:0:0:
256,192,41094,1,8,0:0:0:0:
256,192,41427,1,8,0:0:0:0:
256,192,41760,1,0,0:0:0:0:
256,192,42427,1,4,0:0:0:0:
256,192,43760,1,0,0:0:0:0:
256,192,44427,1,8,0:0:0:0:
256,192,44760,1,0,0:0:0:0:
256,192,45094,1,0,0:0:0:0:
256,192,46427,1,8,0:0:0:0:
256,192,47094,1,0,0:0:0:0:
256,192,47427,1,8,0:0:0:0:
256,192,47760,1,4,0:0:0:0:
256,192,48427,1,12,0:0:0:0:
256,192,49094,1,4,0:0:0:0:
256,192,49760,1,12,0:0:0:0:
256,192,50427,1,12,0:0:0:0:
256,192,51094,1,8,0:0:0:0:
256,192,51427,1,8,0:0:0:0:
256,192,51760,1,0,0:0:0:0:
256,192,52927,1,4,0:0:0:0:
256,192,53760,1,8,0:0:0:0:
256,192,54427,1,0,0:0:0:0:
256,192,54760,1,8,0:0:0:0:
256,192,55094,1,8,0:0:0:0:
256,192,55760,1,0,0:0:0:0:
256,192,56427,1,8,0:0:0:0:
256,192,56760,1,0,0:0:0:0:
256,192,57094,1,8,0:0:0:0:
256,192,57760,1,8,0:0:0:0:
256,192,58260,1,4,0:0:0:0:
256,192,59427,1,8,0:0:0:0:
256,192,59760,1,0,0:0:0:0:
256,192,60427,1,0,0:0:0:0:
256,192,60760,1,0,0:0:0:0:
256,192,61094,1,8,0:0:0:0:
256,192,61760,1,0,0:0:0:0:
256,192,62094,1,8,0:0:0:0:
256,192,62427,1,0,0:0:0:0:
256,192,63094,1,8,0:0:0:0:
256,192,63594,1,4,0:0:0:0:
256,192,64427,1,8,0:0:0:0:
256,192,65094,1,0,0:0:0:0:
256,192,65427,1,8,0:0:0:0:
256,192,65760,1,8,0:0:0:0:
256,192,66427,1,8,0:0:0:0:
256,192,67094,1,0,0:0:0:0:
256,192,67427,1,8,0:0:0:0:
256,192,67760,1,0,0:0:0:0:
256,192,68427,1,8,0:0:0:0:
256,192,68927,1,4,0:0:0:0:
256,192,70427,1,0,0:0:0:0:
256,192,70760,1,8,0:0:0:0:
256,192,71427,1,8,0:0:0:0:
256,192,71760,1,4,0:0:0:0:
256,192,72427,1,8,0:0:0:0:
256,192,73094,1,8,0:0:0:0:
256,192,73427,1,8,0:0:0:0:
256,192,73760,1,0,0:0:0:0:
256,192,74427,1,4,0:0:0:0:
256,192,75427,1,8,0:0:0:0:
256,192,75927,1,8,0:0:0:0:
256,192,76427,1,8,0:0:0:0:
256,192,76760,1,8,0:0:0:0:
256,192,77094,1,4,0:0:0:0:
256,192,78427,1,0,0:0:0:0:
256,192,79094,1,8,0:0:0:0:
256,192,79594,1,4,0:0:0:0:
256,192,80260,1,8,0:0:0:0:
256,192,80927,1,8,0:0:0:0:
256,192,81594,1,0,0:0:0:0:
256,192,81927,1,0,0:0:0:0:
256,192,82260,1,12,0:0:0:0:
256,192,82927,1,8,0:0:0:0:
256,192,83594,1,8,0:0:0:0:
256,192,84260,1,0,0:0:0:0:
256,192,84594,1,8,0:0:0:0:
256,192,84927,1,4,0:0:0:0:
256,192,86427,1,0,0:0:0:0:
256,192,86760,1,8,0:0:0:0:
256,192,87094,1,0,0:0:0:0:
256,192,87427,1,8,0:0:0:0:
256,192,87760,1,4,0:0:0:0:
256,192,88760,1,8,0:0:0:0:
256,192,89260,1,8,0:0:0:0:
256,192,89760,1,12,0:0:0:0:
256,192,90427,1,4,0:0:0:0:
256,192,91094,1,8,0:0:0:0:
256,192,91760,1,0,0:0:0:0:
256,192,92427,1,8,0:0:0:0:
256,192,92760,1,8,0:0:0:0:
256,192,93094,1,0,0:0:0:0:
256,192,93760,1,8,0:0:0:0:
256,192,94427,1,0,0:0:0:0:
256,192,95094,1,8,0:0:0:0:
256,192,95427,1,8,0:0:0:0:
256,192,95760,1,4,0:0:0:0:
256,192,96427,1,8,0:0:0:0:
256,192,97094,1,0,0:0:0:0:
256,192,97427,1,8,0:0:0:0:
256,192,97760,1,0,0:0:0:0:
256,192,98427,1,8,0:0:0:0:
256,192,99094,1,0,0:0:0:0:
256,192,99594,1,12,0:0:0:0:
256,192,101094,1,4,0:0:0:0:
256,192,101760,1,0,0:0:0:0:
256,192,102427,1,8,0:0:0:0:
256,192,103094,1,0,0:0:0:0:
256,192,103427,1,8,0:0:0:0:
256,192,103760,1,0,0:0:0:0:
256,192,104427,1,8,0:0:0:0:
256,192,105094,1,0,0:0:0:0:
256,192,105427,1,8,0:0:0:0:
256,192,105760,1,8,0:0:0:0:
256,192,106427,1,4,0:0:0:0:
256,192,107760,1,8,0:0:0:0:
256,192,108427,1,0,0:0:0:0:
256,192,108760,1,0,0:0:0:0:
256,192,109094,1,0,0:0:0:0:
256,192,109760,1,8,0:0:0:0:
256,192,110427,1,0,0:0:0:0:
256,192,111094,1,0,0:0:0:0:
256,192,111427,1,8,0:0:0:0:
256,192,111760,1,12,0:0:0:0:
256,192,112427,1,12,0:0:0:0:
256,192,113094,1,4,0:0:0:0:
256,192,113760,1,8,0:0:0:0:
256,192,114094,1,0,0:0:0:0:
256,192,114427,1,8,0:0:0:0:
256,192,115094,1,8,0:0:0:0:
256,192,115427,1,8,0:0:0:0:
256,192,115760,1,0,0:0:0:0:
256,192,116427,1,8,0:0:0:0:
256,192,116927,1,4,0:0:0:0:
256,192,117760,1,8,0:0:0:0:
256,192,118427,1,0,0:0:0:0:
256,192,118760,1,8,0:0:0:0:
256,192,119094,1,8,0:0:0:0:
256,192,119760,1,0,0:0:0:0:
256,192,120427,1,8,0:0:0:0:
256,192,120760,1,0,0:0:0:0:
256,192,121094,1,8,0:0:0:0:
256,192,121760,1,8,0:0:0:0:
256,192,122260,1,4,0:0:0:0:
256,192,123427,1,8,0:0:0:0:
256,192,123760,1,0,0:0:0:0:
256,192,124427,1,0,0:0:0:0:
256,192,124760,1,0,0:0:0:0:
256,192,125094,1,8,0:0:0:0:
256,192,125760,1,0,0:0:0:0:
256,192,126094,1,12,0:0:0:0:
256,192,126427,1,4,0:0:0:0:
256,192,127094,1,8,0:0:0:0:
256,192,127594,1,4,0:0:0:0:
256,192,128427,1,8,0:0:0:0:
256,192,129094,1,0,0:0:0:0:
256,192,129427,1,8,0:0:0:0:
256,192,129760,1,8,0:0:0:0:
256,192,130427,1,8,0:0:0:0:
256,192,131094,1,0,0:0:0:0:
256,192,131427,1,8,0:0:0:0:
256,192,131760,1,0,0:0:0:0:
256,192,132427,1,8,0:0:0:0:
256,192,132927,1,4,0:0:0:0:
256,192,134427,1,0,0:0:0:0:
256,192,134760,1,8,0:0:0:0:
256,192,135427,1,8,0:0:0:0:
256,192,135760,1,4,0:0:0:0:
256,192,136427,1,8,0:0:0:0:
256,192,137094,1,8,0:0:0:0:
256,192,137427,1,8,0:0:0:0:
256,192,137760,1,0,0:0:0:0:
256,192,138427,1,4,0:0:0:0:
256,192,139427,1,8,0:0:0:0:
256,192,139927,1,8,0:0:0:0:
256,192,140427,1,8,0:0:0:0:
256,192,140760,1,8,0:0:0:0:
256,192,141094,1,4,0:0:0:0:
256,192,142427,1,0,0:0:0:0:
256,192,143427,1,0,0:0:0:0:
256,192,143760,1,12,0:0:0:0:
256,192,145094,1,0,0:0:0:0:
256,192,145760,1,8,0:0:0:0:
256,192,146094,1,8,0:0:0:0:
256,192,146427,1,0,0:0:0:0:
256,192,147760,1,8,0:0:0:0:
256,192,148427,1,0,0:0:0:0:
256,192,148760,1,8,0:0:0:0:
256,192,149094,1,4,0:0:0:0:
256,192,149760,1,8,0:0:0:0:
256,192,150427,1,0,0:0:0:0:
256,192,151094,1,0,0:0:0:0:
256,192,151427,1,0,0:0:0:0:
256,192,151760,1,8,0:0:0:0:
256,192,152927,1,8,0:0:0:0:
256,192,153260,1,8,0:0:0:0:
256,192,153594,1,0,0:0:0:0:
256,192,154427,1,4,0:0:0:0:
256,192,155094,1,8,0:0:0:0:
256,192,155760,1,0,0:0:0:0:
256,192,156094,1,0,0:0:0:0:
256,192,156427,1,0,0:0:0:0:
256,192,157094,1,8,0:0:0:0:
256,192,157760,1,0,0:0:0:0:
256,192,158427,1,8,0:0:0:0:
256,192,158760,1,8,0:0:0:0:
256,192,159094,1,8,0:0:0:0:
256,192,159760,1,4,0:0:0:0:
256,192,161094,1,8,0:0:0:0:
256,192,161760,1,0,0:0:0:0:
256,192,162094,1,8,0:0:0:0:
256,192,162427,1,12,0:0:0:0:
256,192,162927,1,8,0:0:0:0:
256,192,163427,1,8,0:0:0:0:
256,192,163927,1,8,0:0:0:0:
256,192,164427,1,8,0:0:0:0:
256,192,164927,1,4,0:0:0:0:
256,192,166260,1,0,0:0:0:0:
256,192,166927,1,8,0:0:0:0:
256,192,167260,1,8,0:0:0:0:
256,192,167594,1,0,0:0:0:0:
256,192,168260,1,8,0:0:0:0:
256,192,168927,1,0,0:0:0:0:
256,192,169594,1,8,0:0:0:0:
256,192,170260,1,12,0:0:0:0:
256,192,171094,1,8,0:0:0:0:
256,192,171760,1,0,0:0:0:0:
256,192,172094,1,8,0:0:0:0:
256,192,172427,1,0,0:0:0:0:
256,192,173094,1,12,0:0:0:0:
256,192,173594,1,12,0:0:0:0:
256,192,174094,1,8,0:0:0:0:
256,192,174427,1,0,0:0:0:0:
256,192,175594,1,4,0:0:0:0:
256,192,177094,1,0,0:0:0:0:
256,192,177760,1,8,0:0:0:0:
256,192,178427,1,0,0:0:0:0:
256,192,179760,1,8,0:0:0:0:
256,192,180594,1,8,0:0:0:0:
256,192,180927,1,4,0:0:0:0:
256,192,182094,1,8,0:0:0:0:
256,192,182427,1,0,0:0:0:0:
256,192,183094,1,0,0:0:0:0:
256,192,183427,1,0,0:0:0:0:
256,192,183760,1,8,0:0:0:0:
256,192,184427,1,0,0:0:0:0:
256,192,184760,1,12,0:0:0:0:
256,192,185094,1,0,0:0:0:0:
256,192,185760,1,8,0:0:0:0:
256,192,186260,1,4,0:0:0:0:
256,192,187094,1,8,0:0:0:0:
256,192,187760,1,0,0:0:0:0:
256,192,188094,1,8,0:0:0:0:
256,192,188427,1,8,0:0:0:0:
256,192,189094,1,8,0:0:0:0:
256,192,189760,1,0,0:0:0:0:
256,192,190094,1,8,0:0:0:0:
256,192,190427,1,4,0:0:0:0:
256,192,191094,1,8,0:0:0:0:
256,192,191594,1,4,0:0:0:0:
256,192,193094,1,0,0:0:0:0:
256,192,193427,1,8,0:0:0:0:
256,192,193760,1,0,0:0:0:0:
256,192,194094,1,8,0:0:0:0:
256,192,194427,1,4,0:0:0:0:
256,192,195094,1,8,0:0:0:0:
256,192,195760,1,8,0:0:0:0:
256,192,196094,1,8,0:0:0:0:
256,192,196427,1,0,0:0:0:0:
256,192,197094,1,12,0:0:0:0:
256,192,197760,1,8,0:0:0:0:
256,192,198094,1,8,0:0:0:0:
256,192,198427,1,0,0:0:0:0:
256,192,198760,1,0,0:0:0:0:
256,192,199094,1,8,0:0:0:0:
256,192,199760,1,0,0:0:0:0:
256,192,201094,1,0,0:0:0:0:
256,192,201427,1,8,0:0:0:0:
256,192,201760,1,0,0:0:0:0:
256,192,202094,1,8,0:0:0:0:
256,192,202427,1,12,0:0:0:0:
256,192,203094,1,0,0:0:0:0:
256,192,203427,1,0,0:0:0:0:
256,192,203760,1,8,0:0:0:0:
256,192,204427,1,0,0:0:0:0:
256,192,205094,1,12,0:0:0:0:
256,192,205594,1,8,0:0:0:0:
256,192,206094,1,8,0:0:0:0:
256,192,206594,1,8,0:0:0:0:
256,192,207094,1,8,0:0:0:0:
256,192,207760,1,4,0:0:0:0:
256,192,208760,1,8,0:0:0:0:
256,192,209260,1,8,0:0:0:0:
256,192,209760,1,8,0:0:0:0:
256,192,210094,1,8,0:0:0:0:
256,192,210427,1,4,0:0:0:0:
256,192,211760,1,0,0:0:0:0:
256,192,213094,1,8,0:0:0:0:
256,192,213594,1,4,0:0:0:0:
256,192,214260,1,8,0:0:0:0:
256,192,214927,1,8,0:0:0:0:
256,192,215594,1,0,0:0:0:0:
256,192,215927,1,0,0:0:0:0:
256,192,216260,1,12,0:0:0:0:
256,192,216927,1,8,0:0:0:0:
256,192,217594,1,8,0:0:0:0:
256,192,218260,1,0,0:0:0:0:
256,192,218594,1,8,0:0:0:0:
256,192,218927,1,4,0:0:0:0:
256,192,220427,1,0,0:0:0:0:
256,192,220760,1,8,0:0:0:0:
256,192,221094,1,0,0:0:0:0:
256,192,221427,1,8,0:0:0:0:
256,192,221760,1,4,0:0:0:0:
256,192,222427,1,8,0:0:0:0:
256,192,223094,1,0,0:0:0:0:
256,192,223760,1,8,0:0:0:0:
256,192,224260,1,4,0:0:0:0:
256,192,224927,1,8,0:0:0:0:
256,192,225594,1,12,0:0:0:0:
256,192,226260,1,0,0:0:0:0:
256,192,226594,1,0,0:0:0:0:
256,192,226927,1,12,0:0:0:0:
256,192,227594,1,8,0:0:0:0:
256,192,228260,1,12,0:0:0:0:
256,192,228927,1,0,0:0:0:0:
256,192,229260,1,8,0:0:0:0:
256,192,229594,1,4,0:0:0:0:
256,192,231094,1,0,0:0:0:0:
256,192,231427,1,8,0:0:0:0:
256,192,231760,1,0,0:0:0:0:
256,192,232094,1,8,0:0:0:0:
256,192,232427,1,4,0:0:0:0:
256,192,233094,1,8,0:0:0:0:
256,192,233760,1,0,0:0:0:0:
256,192,234094,1,0,0:0:0:0:
256,192,234427,1,8,0:0:0:0:
256,192,234760,1,8,0:0:0:0:
256,192,235094,12,0,237760,0:0:0:0:
