osu file format v14

[General]
AudioFilename: Marine Blue ni Sotte.mp3
AudioLeadIn: 0
PreviewTime: 115427
Countdown: 0
SampleSet: Normal
StackLeniency: 0.7
Mode: 1
LetterboxInBreaks: 0
WidescreenStoryboard: 0

[Editor]
DistanceSpacing: 2
BeatDivisor: 4
GridSize: 32
TimelineZoom: 1

[Metadata]
Title:Marine Blue ni Sotte
TitleUnicode:マリンブルーに沿って
Artist:Sasaki Sayaka
ArtistUnicode:佐咲紗花
Creator:Nardoxyribonucleic
Version:Inner Oni
Source:ちいさな彼女の小夜曲
Tags:Taiko feng Visual Novel Chiisana Kanojo no Sayokyoku Serenade Opening
BeatmapID:1331306
BeatmapSetID:630650

[Difficulty]
HPDrainRate:6
CircleSize:5
OverallDifficulty:6
ApproachRate:7
SliderMultiplier:1.4
SliderTickRate:1

[Events]
//Background and Video events
0,0,"Shione.jpg",0,60
//Break Periods
//Storyboard Layer 0 (Background)
//Storyboard Layer 1 (Fail)
//Storyboard Layer 2 (Pass)
//Storyboard Layer 3 (Foreground)
//Storyboard Sound Samples

[TimingPoints]
-239,333.333333333333,4,1,0,90,1,0
15760,-100,4,1,0,70,0,0
37094,-100,4,1,0,80,0,0
52927,-100,4,1,0,90,0,1
77094,-100,4,1,0,70,0,0
79594,-100,4,1,0,90,0,0
90427,-100,4,1,0,70,0,0
101094,-100,4,1,0,80,0,0
116927,-100,4,1,0,90,0,1
141094,-100,4,1,0,70,0,0
154427,-100,4,1,0,80,0,0
159760,-100,4,1,0,90,0,0
164927,-100,4,1,0,80,0,0
175594,-100,4,1,0,70,0,0
176427,-133.333333333333,4,1,0,70,0,0
179094,-128.205128205128,4,1,0,70,0,0
179427,-121.951219512195,4,1,0,70,0,0
179594,-119.047619047619,4,1,0,70,0,0
179677,-117.647058823529,4,1,0,70,0,0
179760,-116.279069767442,4,1,0,70,0,0
179927,-113.636363636364,4,1,0,70,0,0
180010,-112.359550561798,4,1,0,70,0,0
180094,-111.111111111111,4,1,0,70,0,0
180260,-108.695652173913,4,1,0,70,0,0
180344,-107.52688172043,4,1,0,70,0,0
180427,-106.382978723404,4,1,0,70,0,0
180510,-105.263157894737,4,1,0,70,0,0
180594,-104.166666666667,4,1,0,70,0,0
180677,-103.092783505155,4,1,0,70,0,0
180760,-102.040816326531,4,1,0,70,0,0
180927,-100,4,1,0,90,0,1
210427,-100,4,1,0,70,0,0
213594,-100,4,1,0,90,0,0
235094,-100,4,1,0,30,0,0
236427,-100,4,1,0,15,0,0
237760,-100,4,1,0,5,0,0

[HitObjects]
256,192,3760,5,8,0:0:0:0:
256,192,4094,1,8,0:0:0:0:
256,192,4260,1,0,0:0:0:0:
256,192,4344,1,0,0:0:0:0:
256,192,4427,1,8,0:0:0:0:
256,192,4483,1,8,0:0:0:0:
256,192,4538,1,8,0:0:0:0:
256,192,4594,1,0,0:0:0:0:
256,192,4760,1,8,0:0:0:0:
256,192,4927,1,4,0:0:0:0:
256,192,5260,1,0,0:0:0:0:
256,192,5427,1,0,0:0:0:0:
256,192,5594,1,8,0:0:0:0:
256,192,5760,1,0,0:0:0:0:
256,192,5844,1,0,0:0:0:0:
256,192,5927,1,8,0:0:0:0:
256,192,6010,1,8,0:0:0:0:
256,192,6094,1,0,0:0:0:0:
256,192,6260,1,8,0:0:0:0:
256,192,6594,1,0,0:0:0:0:
256,192,6760,1,8,0:0:0:0:
256,192,6927,1,0,0:0:0:0:
256,192,7094,1,8,0:0:0:0:
256,192,7177,1,8,0:0:0:0:
256,192,7260,1,0,0:0:0:0:
256,192,7344,1,0,0:0:0:0:
256,192,7427,1,8,0:0:0:0:
256,192,7594,1,12,0:0:0:0:
256,192,7927,1,0,0:0:0:0:
256,192,8094,1,0,0:0:0:0:
256,192,8260,1,8,0:0:0:0:
256,192,8427,1,0,0:0:0:0:
256,192,8510,1,0,0:0:0:0:
256,192,8594,1,0,0:0:0:0:
256,192,8677,1,0,0:0:0:0:
256,192,8760,1,8,0:0:0:0:
256,192,8927,1,8,0:0:0:0:
256,192,9260,1,0,0:0:0:0:
256,192,9427,1,8,0:0:0:0:
256,192,9594,1,0,0:0:0:0:
256,192,9760,1,0,0:0:0:0:
256,192,9844,1,0,0:0:0:0:
256,192,9927,1,8,0:0:0:0:
256,192,10010,1,0,0:0:0:0:
256,192,10094,1,8,0:0:0:0:
256,192,10260,1,4,0:0:0:0:
256,192,10594,1,0,0:0:0:0:
256,192,10760,1,8,0:0:0:0:
256,192,11094,1,8,0:0:0:0:
256,192,11260,1,0,0:0:0:0:
256,192,11427,1,8,0:0:0:0:
256,192,11594,1,8,0:0:0:0:
256,192,11760,1,0,0:0:0:0:
256,192,11927,1,0,0:0:0:0:
256,192,12010,1,0,0:0:0:0:
256,192,12094,1,8,0:0:0:0:
256,192,12260,1,0,0:0:0:0:
256,192,12427,1,8,0:0:0:0:
256,192,12510,1,8,0:0:0:0:
256,192,12594,1,0,0:0:0:0:
256,192,12677,1,0,0:0:0:0:
256,192,12760,1,8,0:0:0:0:
256,192,12927,1,8,0:0:0:0:
256,192,13094,1,4,0:0:0:0:
256,192,13260,1,0,0:0:0:0:
256,192,13344,1,0,0:0:0:0:
256,192,13427,1,0,0:0:0:0:
256,192,13594,1,8,0:0:0:0:
256,192,13760,1,0,0:0:0:0:
256,192,13844,1,0,0:0:0:0:
256,192,13927,1,0,0:0:0:0:
256,192,14094,1,8,0:0:0:0:
256,192,14260,1,8,0:0:0:0:
256,192,14344,1,8,0:0:0:0:
256,192,14427,1,0,0:0:0:0:
256,192,14594,1,8,0:0:0:0:
256,192,14677,1,0,0:0:0:0:
256,192,14760,1,0,0:0:0:0:
256,192,14927,1,0,0:0:0:0:
256,192,15094,1,12,0:0:0:0:
256,192,15260,1,12,0:0:0:0:
256,192,15594,1,8,0:0:0:0:
256,192,15760,1,4,0:0:0:0:
256,192,16094,1,0,0:0:0:0:
256,192,16260,1,8,0:0:0:0:
256,192,16427,1,0,0:0:0:0:
256,192,16760,1,8,0:0:0:0:
256,192,16927,1,0,0:0:0:0:
256,192,17260,1,0,0:0:0:0:
256,192,17427,1,8,0:0:0:0:
256,192,17594,1,0,0:0:0:0:
256,192,17760,1,0,0:0:0:0:
256,192,17844,1,0,0:0:0:0:
256,192,17927,1,8,0:0:0:0:
256,192,18094,1,8,0:0:0:0:
256,192,18260,1,8,0:0:0:0:
256,192,18427,1,0,0:0:0:0:
256,192,18760,1,0,0:0:0:0:
256,192,18927,1,8,0:0:0:0:
256,192,19094,1,0,0:0:0:0:
256,192,19427,1,8,0:0:0:0:
256,192,19594,1,0,0:0:0:0:
256,192,19927,1,0,0:0:0:0:
256,192,20094,1,8,0:0:0:0:
256,192,20260,1,0,0:0:0:0:
256,192,20427,1,0,0:0:0:0:
256,192,20594,1,8,0:0:0:0:
256,192,20927,1,0,0:0:0:0:
256,192,21010,1,8,0:0:0:0:
256,192,21094,1,0,0:0:0:0:
256,192,21260,1,0,0:0:0:0:
256,192,21427,1,8,0:0:0:0:
256,192,21594,1,0,0:0:0:0:
256,192,21927,1,8,0:0:0:0:
256,192,22094,1,8,0:0:0:0:
256,192,22260,1,0,0:0:0:0:
256,192,22427,1,8,0:0:0:0:
256,192,22510,1,8,0:0:0:0:
256,192,22594,1,0,0:0:0:0:
256,192,22760,1,8,0:0:0:0:
256,192,22927,1,0,0:0:0:0:
256,192,23260,1,0,0:0:0:0:
256,192,23427,1,8,0:0:0:0:
256,192,23594,1,0,0:0:0:0:
256,192,23760,1,0,0:0:0:0:
256,192,24094,1,8,0:0:0:0:
256,192,24260,1,0,0:0:0:0:
256,192,24344,1,0,0:0:0:0:
256,192,24427,1,8,0:0:0:0:
256,192,24594,1,0,0:0:0:0:
256,192,24760,1,8,0:0:0:0:
256,192,24927,1,4,0:0:0:0:
256,192,25260,1,0,0:0:0:0:
256,192,25427,1,8,0:0:0:0:
256,192,25594,1,8,0:0:0:0:
256,192,25760,1,0,0:0:0:0:
256,192,25844,1,0,0:0:0:0:
256,192,25927,1,0,0:0:0:0:
256,192,26010,1,0,0:0:0:0:
256,192,26094,1,8,0:0:0:0:
256,192,26260,1,8,0:0:0:0:
256,192,26427,1,4,0:0:0:0:
256,192,26760,1,8,0:0:0:0:
256,192,26927,1,8,0:0:0:0:
256,192,27010,1,8,0:0:0:0:
256,192,27094,1,0,0:0:0:0:
256,192,27260,1,0,0:0:0:0:
256,192,27427,1,8,0:0:0:0:
256,192,27594,1,0,0:0:0:0:
256,192,27927,1,0,0:0:0:0:
256,192,28094,1,8,0:0:0:0:
256,192,28260,1,0,0:0:0:0:
256,192,28344,1,0,0:0:0:0:
256,192,28427,1,8,0:0:0:0:
256,192,28510,1,8,0:0:0:0:
256,192,28594,1,0,0:0:0:0:
256,192,28760,1,8,0:0:0:0:
256,192,28927,1,8,0:0:0:0:
256,192,29094,1,0,0:0:0:0:
256,192,29427,1,8,0:0:0:0:
256,192,29594,1,0,0:0:0:0:
256,192,29677,1,0,0:0:0:0:
256,192,29760,1,8,0:0:0:0:
256,192,29927,1,0,0:0:0:0:
256,192,30094,1,8,0:0:0:0:
256,192,30260,1,0,0:0:0:0:
256,192,30594,1,0,0:0:0:0:
256,192,30760,1,8,0:0:0:0:
256,192,30927,1,0,0:0:0:0:
256,192,31010,1,8,0:0:0:0:
256,192,31094,1,0,0:0:0:0:
256,192,31177,1,0,0:0:0:0:
256,192,31260,1,8,0:0:0:0:
256,192,31427,1,8,0:0:0:0:
256,192,31594,1,0,0:0:0:0:
256,192,31760,1,12,0:0:0:0:
256,192,31927,1,0,0:0:0:0:
256,192,32010,1,0,0:0:0:0:
256,192,32094,1,8,0:0:0:0:
256,192,32260,1,0,0:0:0:0:
256,192,32594,1,8,0:0:0:0:
256,192,32760,1,8,0:0:0:0:
256,192,32927,1,0,0:0:0:0:
256,192,33010,1,8,0:0:0:0:
256,192,33094,1,8,0:0:0:0:
256,192,33260,1,0,0:0:0:0:
256,192,33427,1,8,0:0:0:0:
256,192,33594,1,0,0:0:0:0:
256,192,33927,1,0,0:0:0:0:
256,192,34094,1,8,0:0:0:0:
256,192,34260,1,0,0:0:0:0:
256,192,34344,1,0,0:0:0:0:
256,192,34427,1,8,0:0:0:0:
256,192,34594,1,0,0:0:0:0:
256,192,34760,1,8,0:0:0:0:
256,192,34927,1,0,0:0:0:0:
256,192,35010,1,0,0:0:0:0:
256,192,35094,1,8,0:0:0:0:
256,192,35177,1,8,0:0:0:0:
256,192,35260,1,0,0:0:0:0:
256,192,35427,1,8,0:0:0:0:
256,192,35594,1,4,0:0:0:0:
256,192,35927,1,0,0:0:0:0:
256,192,36010,1,8,0:0:0:0:
256,192,36094,1,0,0:0:0:0:
256,192,36177,1,0,0:0:0:0:
256,192,36260,1,8,0:0:0:0:
256,192,36344,1,0,0:0:0:0:
256,192,36427,1,8,0:0:0:0:
256,192,36594,1,8,0:0:0:0:
256,192,36677,1,0,0:0:0:0:
256,192,36844,1,8,0:0:0:0:
256,192,36927,1,0,0:0:0:0:
256,192,37094,1,4,0:0:0:0:
256,192,37427,1,8,0:0:0:0:
256,192,37594,1,0,0:0:0:0:
256,192,37677,1,0,0:0:0:0:
256,192,37760,1,0,0:0:0:0:
256,192,37927,1,0,0:0:0:0:
256,192,38094,1,8,0:0:0:0:
256,192,38260,1,8,0:0:0:0:
256,192,38594,1,0,0:0:0:0:
256,192,38760,1,8,0:0:0:0:
256,192,38927,1,0,0:0:0:0:
256,192,39260,1,0,0:0:0:0:
256,192,39427,1,8,0:0:0:0:
256,192,39594,1,0,0:0:0:0:
256,192,39677,1,0,0:0:0:0:
256,192,39760,1,8,0:0:0:0:
256,192,39927,1,0,0:0:0:0:
256,192,40094,1,8,0:0:0:0:
256,192,40177,1,8,0:0:0:0:
256,192,40260,1,0,0:0:0:0:
256,192,40427,1,0,0:0:0:0:
256,192,40510,1,0,0:0:0:0:
256,192,40594,1,8,0:0:0:0:
256,192,40677,1,0,0:0:0:0:
256,192,40760,1,8,0:0:0:0:
256,192,40927,1,8,0:0:0:0:
256,192,41094,1,0,0:0:0:0:
256,192,41177,1,8,0:0:0:0:
256,192,41260,1,0,0:0:0:0:
256,192,41427,1,12,0:0:0:0:
256,192,41760,1,0,0:0:0:0:
256,192,41927,1,8,0:0:0:0:
256,192,42010,1,8,0:0:0:0:
256,192,42094,1,8,0:0:0:0:
256,192,42177,1,0,0:0:0:0:
256,192,42260,1,0,0:0:0:0:
256,192,42427,1,4,0:0:0:0:
256,192,42760,1,0,0:0:0:0:
256,192,42927,1,8,0:0:0:0:
256,192,43094,1,8,0:0:0:0:
256,192,43427,1,0,0:0:0:0:
256,192,43594,1,8,0:0:0:0:
256,192,43760,1,0,0:0:0:0:
256,192,43927,1,0,0:0:0:0:
256,192,44094,1,8,0:0:0:0:
256,192,44260,1,0,0:0:0:0:
256,192,44344,1,0,0:0:0:0:
256,192,44427,1,8,0:0:0:0:
256,192,44594,1,0,0:0:0:0:
256,192,44760,1,8,0:0:0:0:
256,192,44927,1,8,0:0:0:0:
256,192,45094,1,0,0:0:0:0:
256,192,45427,1,0,0:0:0:0:
256,192,45594,1,8,0:0:0:0:
256,192,45760,1,8,0:0:0:0:
256,192,46094,1,0,0:0:0:0:
256,192,46260,1,8,0:0:0:0:
256,192,46427,1,0,0:0:0:0:
256,192,46594,1,8,0:0:0:0:
256,192,46760,1,8,0:0:0:0:
256,192,46927,1,0,0:0:0:0:
256,192,47010,1,0,0:0:0:0:
256,192,47094,1,0,0:0:0:0:
256,192,47260,1,0,0:0:0:0:
256,192,47427,1,8,0:0:0:0:
256,192,47510,1,0,0:0:0:0:
256,192,47594,1,8,0:0:0:0:
256,192,47677,1,8,0:0:0:0:
256,192,47760,1,0,0:0:0:0:
256,192,48094,1,8,0:0:0:0:
256,192,48260,1,0,0:0:0:0:
256,192,48427,1,12,0:0:0:0:
256,192,48760,1,0,0:0:0:0:
256,192,48927,1,8,0:0:0:0:
256,192,49094,1,4,0:0:0:0:
256,192,49594,1,0,0:0:0:0:
256,192,49760,1,12,0:0:0:0:
256,192,50094,1,0,0:0:0:0:
256,192,50427,1,12,0:0:0:0:
256,192,50594,1,0,0:0:0:0:
256,192,50677,1,0,0:0:0:0:
256,192,50760,1,8,0:0:0:0:
256,192,50844,1,0,0:0:0:0:
256,192,50927,1,8,0:0:0:0:
256,192,51010,1,0,0:0:0:0:
256,192,51094,1,8,0:0:0:0:
256,192,51260,1,8,0:0:0:0:
256,192,51427,1,8,0:0:0:0:
256,192,51594,1,8,0:0:0:0:
256,192,51760,1,0,0:0:0:0:
256,192,52094,1,8,0:0:0:0:
256,192,52260,1,0,0:0:0:0:
256,192,52594,1,8,0:0:0:0:
256,192,52927,1,4,0:0:0:0:
256,192,53260,1,0,0:0:0:0:
256,192,53427,1,8,0:0:0:0:
256,192,53594,1,0,0:0:0:0:
256,192,53677,1,0,0:0:0:0:
256,192,53760,1,8,0:0:0:0:
256,192,53927,1,0,0:0:0:0:
256,192,54094,1,8,0:0:0:0:
256,192,54260,1,8,0:0:0:0:
256,192,54344,1,8,0:0:0:0:
256,192,54427,1,0,0:0:0:0:
256,192,54594,1,0,0:0:0:0:
256,192,54677,1,0,0:0:0:0:
256,192,54760,1,8,0:0:0:0:
256,192,54927,1,0,0:0:0:0:
256,192,55094,1,0,0:0:0:0:
256,192,55177,1,0,0:0:0:0:
256,192,55260,1,8,0:0:0:0:
256,192,55344,1,0,0:0:0:0:
256,192,55427,1,8,0:0:0:0:
256,192,55594,1,0,0:0:0:0:
256,192,55927,1,0,0:0:0:0:
256,192,56094,1,8,0:0:0:0:
256,192,56260,1,0,0:0:0:0:
256,192,56344,1,0,0:0:0:0:
256,192,56427,1,8,0:0:0:0:
256,192,56594,1,0,0:0:0:0:
256,192,56760,1,8,0:0:0:0:
256,192,56927,1,0,0:0:0:0:
256,192,57094,1,8,0:0:0:0:
256,192,57177,1,0,0:0:0:0:
256,192,57260,1,0,0:0:0:0:
256,192,57427,1,8,0:0:0:0:
256,192,57594,1,8,0:0:0:0:
256,192,57677,1,8,0:0:0:0:
256,192,57760,1,0,0:0:0:0:
256,192,57844,1,8,0:0:0:0:
256,192,57927,1,0,0:0:0:0:
256,192,58094,1,8,0:0:0:0:
256,192,58260,1,4,0:0:0:0:
256,192,58594,1,0,0:0:0:0:
256,192,58760,1,8,0:0:0:0:
256,192,58927,1,0,0:0:0:0:
256,192,59010,1,0,0:0:0:0:
256,192,59094,1,0,0:0:0:0:
256,192,59260,1,0,0:0:0:0:
256,192,59427,1,8,0:0:0:0:
256,192,59594,1,8,0:0:0:0:
256,192,59677,1,8,0:0:0:0:
256,192,59760,1,0,0:0:0:0:
256,192,59927,1,0,0:0:0:0:
256,192,60094,1,8,0:0:0:0:
256,192,60260,1,0,0:0:0:0:
256,192,60594,1,0,0:0:0:0:
256,192,60760,1,8,0:0:0:0:
256,192,60927,1,0,0:0:0:0:
256,192,61010,1,0,0:0:0:0:
256,192,61094,1,8,0:0:0:0:
256,192,61260,1,0,0:0:0:0:
256,192,61427,1,8,0:0:0:0:
256,192,61594,1,0,0:0:0:0:
256,192,61677,1,8,0:0:0:0:
256,192,61760,1,0,0:0:0:0:
256,192,61927,1,0,0:0:0:0:
256,192,62094,1,8,0:0:0:0:
256,192,62177,1,8,0:0:0:0:
256,192,62260,1,0,0:0:0:0:
256,192,62344,1,0,0:0:0:0:
256,192,62427,1,8,0:0:0:0:
256,192,62594,1,0,0:0:0:0:
256,192,62760,1,12,0:0:0:0:
256,192,62927,1,0,0:0:0:0:
256,192,63010,1,0,0:0:0:0:
256,192,63094,1,8,0:0:0:0:
256,192,63177,1,8,0:0:0:0:
256,192,63260,1,8,0:0:0:0:
256,192,63344,1,8,0:0:0:0:
256,192,63427,1,0,0:0:0:0:
256,192,63594,1,4,0:0:0:0:
256,192,63927,1,0,0:0:0:0:
256,192,64094,1,8,0:0:0:0:
256,192,64260,1,0,0:0:0:0:
256,192,64344,1,0,0:0:0:0:
256,192,64427,1,8,0:0:0:0:
256,192,64594,1,0,0:0:0:0:
256,192,64760,1,8,0:0:0:0:
256,192,64927,1,8,0:0:0:0:
256,192,65010,1,8,0:0:0:0:
256,192,65094,1,0,0:0:0:0:
256,192,65260,1,0,0:0:0:0:
256,192,65344,1,0,0:0:0:0:
256,192,65427,1,8,0:0:0:0:
256,192,65594,1,0,0:0:0:0:
256,192,65760,1,0,0:0:0:0:
256,192,65844,1,0,0:0:0:0:
256,192,65927,1,8,0:0:0:0:
256,192,66010,1,0,0:0:0:0:
256,192,66094,1,8,0:0:0:0:
256,192,66260,1,0,0:0:0:0:
256,192,66594,1,0,0:0:0:0:
256,192,66760,1,8,0:0:0:0:
256,192,66927,1,0,0:0:0:0:
256,192,67010,1,0,0:0:0:0:
256,192,67094,1,8,0:0:0:0:
256,192,67260,1,0,0:0:0:0:
256,192,67427,1,8,0:0:0:0:
256,192,67594,1,0,0:0:0:0:
256,192,67677,1,0,0:0:0:0:
256,192,67760,1,8,0:0:0:0:
256,192,67844,1,8,0:0:0:0:
256,192,67927,1,0,0:0:0:0:
256,192,68094,1,8,0:0:0:0:
256,192,68177,1,0,0:0:0:0:
256,192,68260,1,8,0:0:0:0:
256,192,68344,1,8,0:0:0:0:
256,192,68427,1,0,0:0:0:0:
256,192,68510,1,0,0:0:0:0:
256,192,68594,1,8,0:0:0:0:
256,192,68677,1,8,0:0:0:0:
256,192,68760,1,8,0:0:0:0:
256,192,68927,1,4,0:0:0:0:
256,192,69260,1,0,0:0:0:0:
256,192,69427,1,8,0:0:0:0:
256,192,69594,1,0,0:0:0:0:
256,192,69760,1,8,0:0:0:0:
256,192,69844,1,8,0:0:0:0:
256,192,69927,1,0,0:0:0:0:
256,192,70010,1,0,0:0:0:0:
256,192,70094,1,8,0:0:0:0:
256,192,70260,1,8,0:0:0:0:
256,192,70427,1,0,0:0:0:0:
256,192,70594,1,0,0:0:0:0:
256,192,70677,1,0,0:0:0:0:
256,192,70760,1,8,0:0:0:0:
256,192,70927,1,0,0:0:0:0:
256,192,71010,1,8,0:0:0:0:
256,192,71094,1,0,0:0:0:0:
256,192,71177,1,0,0:0:0:0:
256,192,71260,1,8,0:0:0:0:
256,192,71344,1,0,0:0:0:0:
256,192,71427,1,8,0:0:0:0:
256,192,71510,1,8,0:0:0:0:
256,192,71594,1,0,0:0:0:0:
256,192,71760,1,4,0:0:0:0:
256,192,72094,1,8,0:0:0:0:
256,192,72260,1,0,0:0:0:0:
256,192,72344,1,0,0:0:0:0:
256,192,72427,1,0,0:0:0:0:
256,192,72594,1,0,0:0:0:0:
256,192,72760,1,8,0:0:0:0:
256,192,72927,1,0,0:0:0:0:
256,192,73094,1,8,0:0:0:0:
256,192,73260,1,0,0:0:0:0:
256,192,73344,1,0,0:0:0:0:
256,192,73427,1,8,0:0:0:0:
256,192,73594,1,0,0:0:0:0:
256,192,73677,1,0,0:0:0:0:
256,192,73760,1,0,0:0:0:0:
256,192,73927,1,0,0:0:0:0:
256,192,74010,1,0,0:0:0:0:
256,192,74094,1,8,0:0:0:0:
256,192,74177,1,8,0:0:0:0:
256,192,74260,1,8,0:0:0:0:
256,192,74427,1,4,0:0:0:0:
256,192,74760,1,0,0:0:0:0:
256,192,74927,1,8,0:0:0:0:
256,192,75094,1,0,0:0:0:0:
256,192,75260,1,0,0:0:0:0:
256,192,75427,1,8,0:0:0:0:
256,192,75594,1,8,0:0:0:0:
256,192,75677,1,8,0:0:0:0:
256,192,75760,1,0,0:0:0:0:
256,192,75927,1,8,0:0:0:0:
256,192,76094,1,0,0:0:0:0:
256,192,76260,1,0,0:0:0:0:
256,192,76344,1,0,0:0:0:0:
256,192,76427,1,8,0:0:0:0:
256,192,76594,1,0,0:0:0:0:
256,192,76760,1,8,0:0:0:0:
256,192,76927,1,8,0:0:0:0:
256,192,77094,1,4,0:0:0:0:
256,192,78094,1,0,0:0:0:0:
256,192,78427,1,0,0:0:0:0:
256,192,78760,1,0,0:0:0:0:
256,192,78927,1,8,0:0:0:0:
256,192,79094,1,8,0:0:0:0:
256,192,79177,1,0,0:0:0:0:
256,192,79260,1,8,0:0:0:0:
256,192,79344,1,8,0:0:0:0:
256,192,79427,1,0,0:0:0:0:
256,192,79594,1,4,0:0:0:0:
256,192,79927,1,0,0:0:0:0:
256,192,80094,1,0,0:0:0:0:
256,192,80260,1,8,0:0:0:0:
256,192,80427,1,0,0:0:0:0:
256,192,80510,1,0,0:0:0:0:
256,192,80594,1,8,0:0:0:0:
256,192,80677,1,8,0:0:0:0:
256,192,80760,1,0,0:0:0:0:
256,192,80927,1,8,0:0:0:0:
256,192,81260,1,0,0:0:0:0:
256,192,81427,1,8,0:0:0:0:
256,192,81594,1,0,0:0:0:0:
256,192,81760,1,8,0:0:0:0:
256,192,81844,1,8,0:0:0:0:
256,192,81927,1,0,0:0:0:0:
256,192,82010,1,0,0:0:0:0:
256,192,82094,1,8,0:0:0:0:
256,192,82260,1,12,0:0:0:0:
256,192,82594,1,0,0:0:0:0:
256,192,82760,1,0,0:0:0:0:
256,192,82927,1,8,0:0:0:0:
256,192,83094,1,0,0:0:0:0:
256,192,83177,1,0,0:0:0:0:
256,192,83260,1,0,0:0:0:0:
256,192,83344,1,0,0:0:0:0:
256,192,83427,1,8,0:0:0:0:
256,192,83594,1,8,0:0:0:0:
256,192,83927,1,0,0:0:0:0:
256,192,84094,1,8,0:0:0:0:
256,192,84260,1,0,0:0:0:0:
256,192,84427,1,0,0:0:0:0:
256,192,84510,1,0,0:0:0:0:
256,192,84594,1,8,0:0:0:0:
256,192,84677,1,0,0:0:0:0:
256,192,84760,1,8,0:0:0:0:
256,192,84927,1,4,0:0:0:0:
256,192,85260,1,0,0:0:0:0:
256,192,85427,1,8,0:0:0:0:
256,192,85594,1,0,0:0:0:0:
256,192,85677,1,0,0:0:0:0:
256,192,85760,1,0,0:0:0:0:
256,192,85927,1,0,0:0:0:0:
256,192,86094,1,8,0:0:0:0:
256,192,86260,1,8,0:0:0:0:
256,192,86427,1,0,0:0:0:0:
256,192,86594,1,0,0:0:0:0:
256,192,86677,1,0,0:0:0:0:
256,192,86760,1,8,0:0:0:0:
256,192,86927,1,0,0:0:0:0:
256,192,87094,1,8,0:0:0:0:
256,192,87177,1,8,0:0:0:0:
256,192,87260,1,0,0:0:0:0:
256,192,87344,1,0,0:0:0:0:
256,192,87427,1,8,0:0:0:0:
256,192,87594,1,8,0:0:0:0:
256,192,87760,1,4,0:0:0:0:
256,192,87927,1,0,0:0:0:0:
256,192,88010,1,0,0:0:0:0:
256,192,88094,1,0,0:0:0:0:
256,192,88260,1,8,0:0:0:0:
256,192,88427,1,0,0:0:0:0:
256,192,88510,1,0,0:0:0:0:
256,192,88594,1,0,0:0:0:0:
256,192,88760,1,8,0:0:0:0:
256,192,88927,1,8,0:0:0:0:
256,192,89010,1,8,0:0:0:0:
256,192,89094,1,0,0:0:0:0:
256,192,89260,1,8,0:0:0:0:
256,192,89427,1,0,0:0:0:0:
256,192,89510,1,8,0:0:0:0:
256,192,89594,1,0,0:0:0:0:
256,192,89760,1,12,0:0:0:0:
256,192,89927,1,0,0:0:0:0:
256,192,90010,1,0,0:0:0:0:
256,192,90094,1,8,0:0:0:0:
256,192,90177,1,8,0:0:0:0:
256,192,90260,1,0,0:0:0:0:
256,192,90427,1,4,0:0:0:0:
256,192,90760,1,8,0:0:0:0:
256,192,90927,1,8,0:0:0:0:
256,192,91010,1,8,0:0:0:0:
256,192,91094,1,0,0:0:0:0:
256,192,91260,1,0,0:0:0:0:
256,192,91427,1,8,0:0:0:0:
256,192,91594,1,0,0:0:0:0:
256,192,91927,1,0,0:0:0:0:
256,192,92094,1,8,0:0:0:0:
256,192,92260,1,0,0:0:0:0:
256,192,92344,1,0,0:0:0:0:
256,192,92427,1,8,0:0:0:0:
256,192,92594,1,0,0:0:0:0:
256,192,92760,1,8,0:0:0:0:
256,192,92927,1,8,0:0:0:0:
256,192,93094,1,0,0:0:0:0:
256,192,93427,1,8,0:0:0:0:
256,192,93594,1,8,0:0:0:0:
256,192,93677,1,8,0:0:0:0:
256,192,93760,1,0,0:0:0:0:
256,192,93927,1,0,0:0:0:0:
256,192,94094,1,8,0:0:0:0:
256,192,94260,1,0,0:0:0:0:
256,192,94594,1,0,0:0:0:0:
256,192,94760,1,8,0:0:0:0:
256,192,94927,1,0,0:0:0:0:
256,192,95010,1,8,0:0:0:0:
256,192,95094,1,0,0:0:0:0:
256,192,95260,1,0,0:0:0:0:
256,192,95427,1,8,0:0:0:0:
256,192,95510,1,0,0:0:0:0:
256,192,95594,1,0,0:0:0:0:
256,192,95760,1,4,0:0:0:0:
256,192,95927,1,0,0:0:0:0:
256,192,96010,1,0,0:0:0:0:
256,192,96094,1,8,0:0:0:0:
256,192,96260,1,0,0:0:0:0:
256,192,96594,1,8,0:0:0:0:
256,192,96760,1,8,0:0:0:0:
256,192,96927,1,0,0:0:0:0:
256,192,97010,1,8,0:0:0:0:
256,192,97094,1,8,0:0:0:0:
256,192,97260,1,0,0:0:0:0:
256,192,97427,1,8,0:0:0:0:
256,192,97594,1,0,0:0:0:0:
256,192,97927,1,0,0:0:0:0:
256,192,98094,1,8,0:0:0:0:
256,192,98260,1,0,0:0:0:0:
256,192,98344,1,0,0:0:0:0:
256,192,98427,1,8,0:0:0:0:
256,192,98594,1,0,0:0:0:0:
256,192,98760,1,8,0:0:0:0:
256,192,98844,1,8,0:0:0:0:
256,192,98927,1,0,0:0:0:0:
256,192,99010,1,0,0:0:0:0:
256,192,99094,1,8,0:0:0:0:
256,192,99260,1,0,0:0:0:0:
256,192,99427,1,8,0:0:0:0:
256,192,99594,1,4,0:0:0:0:
256,192,99927,1,0,0:0:0:0:
256,192,100094,1,8,0:0:0:0:
256,192,100260,1,8,0:0:0:0:
256,192,100427,1,0,0:0:0:0:
256,192,100510,1,8,0:0:0:0:
256,192,100594,1,0,0:0:0:0:
256,192,100677,1,0,0:0:0:0:
256,192,100760,1,8,0:0:0:0:
256,192,100927,1,8,0:0:0:0:
256,192,101094,1,4,0:0:0:0:
256,192,101427,1,8,0:0:0:0:
256,192,101594,1,0,0:0:0:0:
256,192,101677,1,0,0:0:0:0:
256,192,101760,1,0,0:0:0:0:
256,192,101927,1,0,0:0:0:0:
256,192,102094,1,8,0:0:0:0:
256,192,102260,1,8,0:0:0:0:
256,192,102594,1,0,0:0:0:0:
256,192,102760,1,8,0:0:0:0:
256,192,102927,1,0,0:0:0:0:
256,192,103094,1,0,0:0:0:0:
256,192,103177,1,0,0:0:0:0:
256,192,103260,1,8,0:0:0:0:
256,192,103427,1,8,0:0:0:0:
256,192,103594,1,8,0:0:0:0:
256,192,103677,1,0,0:0:0:0:
256,192,103760,1,0,0:0:0:0:
256,192,103927,1,0,0:0:0:0:
256,192,104094,1,8,0:0:0:0:
256,192,104177,1,8,0:0:0:0:
256,192,104260,1,0,0:0:0:0:
256,192,104427,1,0,0:0:0:0:
256,192,104594,1,0,0:0:0:0:
256,192,104677,1,0,0:0:0:0:
256,192,104760,1,8,0:0:0:0:
256,192,104927,1,0,0:0:0:0:
256,192,105260,1,0,0:0:0:0:
256,192,105427,1,8,0:0:0:0:
256,192,105510,1,8,0:0:0:0:
256,192,105594,1,0,0:0:0:0:
256,192,105760,1,8,0:0:0:0:
256,192,105844,1,0,0:0:0:0:
256,192,105927,1,8,0:0:0:0:
256,192,106010,1,8,0:0:0:0:
256,192,106094,1,0,0:0:0:0:
256,192,106260,1,0,0:0:0:0:
256,192,106427,1,12,0:0:0:0:
256,192,106594,1,0,0:0:0:0:
256,192,106760,1,0,0:0:0:0:
256,192,106927,1,8,0:0:0:0:
256,192,107094,1,8,0:0:0:0:
256,192,107427,1,0,0:0:0:0:
256,192,107594,1,8,0:0:0:0:
256,192,107760,1,0,0:0:0:0:
256,192,108094,1,8,0:0:0:0:
256,192,108260,1,0,0:0:0:0:
256,192,108427,1,0,0:0:0:0:
256,192,108594,1,8,0:0:0:0:
256,192,108760,1,0,0:0:0:0:
256,192,108927,1,8,0:0:0:0:
256,192,109010,1,8,0:0:0:0:
256,192,109094,1,0,0:0:0:0:
256,192,109260,1,0,0:0:0:0:
256,192,109427,1,0,0:0:0:0:
256,192,109594,1,8,0:0:0:0:
256,192,109760,1,8,0:0:0:0:
256,192,110094,1,0,0:0:0:0:
256,192,110260,1,8,0:0:0:0:
256,192,110344,1,8,0:0:0:0:
256,192,110427,1,0,0:0:0:0:
256,192,110594,1,0,0:0:0:0:
256,192,110760,1,8,0:0:0:0:
256,192,110927,1,0,0:0:0:0:
256,192,111094,1,0,0:0:0:0:
256,192,111177,1,0,0:0:0:0:
256,192,111260,1,8,0:0:0:0:
256,192,111344,1,8,0:0:0:0:
256,192,111427,1,0,0:0:0:0:
256,192,111510,1,8,0:0:0:0:
256,192,111594,1,0,0:0:0:0:
256,192,111677,1,0,0:0:0:0:
256,192,111760,1,8,0:0:0:0:
256,192,112260,1,8,0:0:0:0:
256,192,112344,1,8,0:0:0:0:
256,192,112427,1,0,0:0:0:0:
256,192,112927,1,8,0:0:0:0:
256,192,113010,1,0,0:0:0:0:
256,192,113094,1,0,0:0:0:0:
256,192,113427,1,0,0:0:0:0:
256,192,113594,1,0,0:0:0:0:
256,192,113677,1,0,0:0:0:0:
256,192,113760,1,8,0:0:0:0:
256,192,113927,1,0,0:0:0:0:
256,192,114094,1,8,0:0:0:0:
256,192,114177,1,8,0:0:0:0:
256,192,114260,1,0,0:0:0:0:
256,192,114344,1,0,0:0:0:0:
256,192,114427,1,8,0:0:0:0:
256,192,114594,1,0,0:0:0:0:
256,192,114760,1,8,0:0:0:0:
256,192,114927,1,0,0:0:0:0:
256,192,115010,1,0,0:0:0:0:
256,192,115094,1,8,0:0:0:0:
256,192,115260,1,8,0:0:0:0:
256,192,115344,1,8,0:0:0:0:
256,192,115427,1,8,0:0:0:0:
256,192,115510,1,8,0:0:0:0:
256,192,115594,1,0,0:0:0:0:
256,192,115760,1,0,0:0:0:0:
256,192,115927,1,8,0:0:0:0:
256,192,116094,1,8,0:0:0:0:
256,192,116177,1,8,0:0:0:0:
256,192,116260,1,0,0:0:0:0:
256,192,116344,1,0,0:0:0:0:
256,192,116427,1,8,0:0:0:0:
256,192,116483,1,8,0:0:0:0:
256,192,116538,1,8,0:0:0:0:
256,192,116594,1,0,0:0:0:0:
256,192,116677,1,0,0:0:0:0:
256,192,116760,1,8,0:0:0:0:
256,192,116927,1,4,0:0:0:0:
256,192,117260,1,0,0:0:0:0:
256,192,117427,1,8,0:0:0:0:
256,192,117594,1,0,0:0:0:0:
256,192,117677,1,0,0:0:0:0:
256,192,117760,1,8,0:0:0:0:
256,192,117927,1,0,0:0:0:0:
256,192,118094,1,8,0:0:0:0:
256,192,118260,1,8,0:0:0:0:
256,192,118344,1,8,0:0:0:0:
256,192,118427,1,0,0:0:0:0:
256,192,118594,1,0,0:0:0:0:
256,192,118677,1,0,0:0:0:0:
256,192,118760,1,8,0:0:0:0:
256,192,118927,1,0,0:0:0:0:
256,192,119010,1,8,0:0:0:0:
256,192,119094,1,0,0:0:0:0:
256,192,119177,1,0,0:0:0:0:
256,192,119260,1,8,0:0:0:0:
256,192,119344,1,0,0:0:0:0:
256,192,119427,1,8,0:0:0:0:
256,192,119594,1,0,0:0:0:0:
256,192,119927,1,0,0:0:0:0:
256,192,120094,1,8,0:0:0:0:
256,192,120260,1,0,0:0:0:0:
256,192,120344,1,0,0:0:0:0:
256,192,120427,1,8,0:0:0:0:
256,192,120594,1,0,0:0:0:0:
256,192,120760,1,8,0:0:0:0:
256,192,120927,1,0,0:0:0:0:
256,192,121094,1,8,0:0:0:0:
256,192,121177,1,0,0:0:0:0:
256,192,121260,1,0,0:0:0:0:
256,192,121427,1,8,0:0:0:0:
256,192,121594,1,8,0:0:0:0:
256,192,121677,1,8,0:0:0:0:
256,192,121760,1,0,0:0:0:0:
256,192,121844,1,8,0:0:0:0:
256,192,121927,1,0,0:0:0:0:
256,192,122010,1,0,0:0:0:0:
256,192,122094,1,8,0:0:0:0:
256,192,122260,1,4,0:0:0:0:
256,192,122594,1,0,0:0:0:0:
256,192,122760,1,8,0:0:0:0:
256,192,122927,1,0,0:0:0:0:
256,192,123010,1,0,0:0:0:0:
256,192,123094,1,0,0:0:0:0:
256,192,123260,1,0,0:0:0:0:
256,192,123427,1,8,0:0:0:0:
256,192,123594,1,8,0:0:0:0:
256,192,123677,1,8,0:0:0:0:
256,192,123760,1,0,0:0:0:0:
256,192,123927,1,0,0:0:0:0:
256,192,124094,1,8,0:0:0:0:
256,192,124260,1,0,0:0:0:0:
256,192,124594,1,0,0:0:0:0:
256,192,124760,1,8,0:0:0:0:
256,192,124927,1,0,0:0:0:0:
256,192,125010,1,0,0:0:0:0:
256,192,125094,1,8,0:0:0:0:
256,192,125260,1,0,0:0:0:0:
256,192,125344,1,0,0:0:0:0:
256,192,125427,1,8,0:0:0:0:
256,192,125594,1,0,0:0:0:0:
256,192,125677,1,0,0:0:0:0:
256,192,125760,1,8,0:0:0:0:
256,192,125844,1,8,0:0:0:0:
256,192,125927,1,0,0:0:0:0:
256,192,126094,1,12,0:0:0:0:
256,192,126260,1,0,0:0:0:0:
256,192,126344,1,0,0:0:0:0:
256,192,126427,1,8,0:0:0:0:
256,192,126510,1,0,0:0:0:0:
256,192,126594,1,8,0:0:0:0:
256,192,126677,1,8,0:0:0:0:
256,192,126760,1,0,0:0:0:0:
256,192,126844,1,8,0:0:0:0:
256,192,126927,1,8,0:0:0:0:
256,192,127010,1,8,0:0:0:0:
256,192,127094,1,0,0:0:0:0:
256,192,127260,1,8,0:0:0:0:
256,192,127427,1,8,0:0:0:0:
256,192,127594,1,4,0:0:0:0:
256,192,127927,1,0,0:0:0:0:
256,192,128094,1,8,0:0:0:0:
256,192,128260,1,0,0:0:0:0:
256,192,128344,1,0,0:0:0:0:
256,192,128427,1,8,0:0:0:0:
256,192,128594,1,0,0:0:0:0:
256,192,128760,1,8,0:0:0:0:
256,192,128927,1,8,0:0:0:0:
256,192,129010,1,8,0:0:0:0:
256,192,129094,1,0,0:0:0:0:
256,192,129260,1,0,0:0:0:0:
256,192,129344,1,0,0:0:0:0:
256,192,129427,1,8,0:0:0:0:
256,192,129594,1,0,0:0:0:0:
256,192,129677,1,8,0:0:0:0:
256,192,129760,1,0,0:0:0:0:
256,192,129844,1,0,0:0:0:0:
256,192,129927,1,8,0:0:0:0:
256,192,130010,1,0,0:0:0:0:
256,192,130094,1,8,0:0:0:0:
256,192,130260,1,0,0:0:0:0:
256,192,130594,1,0,0:0:0:0:
256,192,130760,1,8,0:0:0:0:
256,192,130927,1,0,0:0:0:0:
256,192,131010,1,0,0:0:0:0:
256,192,131094,1,8,0:0:0:0:
256,192,131260,1,0,0:0:0:0:
256,192,131427,1,8,0:0:0:0:
256,192,131594,1,0,0:0:0:0:
256,192,131760,1,8,0:0:0:0:
256,192,131844,1,8,0:0:0:0:
256,192,131927,1,0,0:0:0:0:
256,192,132010,1,0,0:0:0:0:
256,192,132094,1,8,0:0:0:0:
256,192,132260,1,8,0:0:0:0:
256,192,132344,1,8,0:0:0:0:
256,192,132427,1,0,0:0:0:0:
256,192,132510,1,0,0:0:0:0:
256,192,132594,1,8,0:0:0:0:
256,192,132677,1,8,0:0:0:0:
256,192,132760,1,8,0:0:0:0:
256,192,132927,1,4,0:0:0:0:
256,192,133260,1,0,0:0:0:0:
256,192,133427,1,8,0:0:0:0:
256,192,133594,1,0,0:0:0:0:
256,192,133677,1,0,0:0:0:0:
256,192,133760,1,8,0:0:0:0:
256,192,133844,1,8,0:0:0:0:
256,192,133927,1,0,0:0:0:0:
256,192,134094,1,8,0:0:0:0:
256,192,134260,1,0,0:0:0:0:
256,192,134344,1,0,0:0:0:0:
256,192,134427,1,8,0:0:0:0:
256,192,134594,1,0,0:0:0:0:
256,192,134760,1,8,0:0:0:0:
256,192,134927,1,8,0:0:0:0:
256,192,135010,1,8,0:0:0:0:
256,192,135094,1,0,0:0:0:0:
256,192,135177,1,8,0:0:0:0:
256,192,135260,1,0,0:0:0:0:
256,192,135344,1,0,0:0:0:0:
256,192,135427,1,8,0:0:0:0:
256,192,135510,1,0,0:0:0:0:
256,192,135594,1,8,0:0:0:0:
256,192,135760,1,4,0:0:0:0:
256,192,136094,1,8,0:0:0:0:
256,192,136260,1,0,0:0:0:0:
256,192,136344,1,0,0:0:0:0:
256,192,136427,1,0,0:0:0:0:
256,192,136594,1,0,0:0:0:0:
256,192,136760,1,8,0:0:0:0:
256,192,136927,1,0,0:0:0:0:
256,192,137010,1,0,0:0:0:0:
256,192,137094,1,8,0:0:0:0:
256,192,137260,1,0,0:0:0:0:
256,192,137427,1,8,0:0:0:0:
256,192,137510,1,0,0:0:0:0:
256,192,137594,1,8,0:0:0:0:
256,192,137677,1,8,0:0:0:0:
256,192,137760,1,0,0:0:0:0:
256,192,137927,1,0,0:0:0:0:
256,192,138010,1,0,0:0:0:0:
256,192,138094,1,8,0:0:0:0:
256,192,138177,1,8,0:0:0:0:
256,192,138260,1,8,0:0:0:0:
256,192,138427,1,4,0:0:0:0:
256,192,138760,1,0,0:0:0:0:
256,192,138927,1,8,0:0:0:0:
256,192,139094,1,0,0:0:0:0:
256,192,139260,1,0,0:0:0:0:
256,192,139427,1,8,0:0:0:0:
256,192,139594,1,8,0:0:0:0:
256,192,139677,1,8,0:0:0:0:
256,192,139760,1,0,0:0:0:0:
256,192,139927,1,8,0:0:0:0:
256,192,140094,1,0,0:0:0:0:
256,192,140260,1,0,0:0:0:0:
256,192,140344,1,0,0:0:0:0:
256,192,140427,1,8,0:0:0:0:
256,192,140594,1,0,0:0:0:0:
256,192,140760,1,8,0:0:0:0:
256,192,140927,1,8,0:0:0:0:
256,192,141094,1,4,0:0:0:0:
256,192,142094,1,0,0:0:0:0:
256,192,142427,1,0,0:0:0:0:
256,192,142760,1,0,0:0:0:0:
256,192,142927,1,8,0:0:0:0:
256,192,143260,1,0,0:0:0:0:
256,192,143427,1,0,0:0:0:0:
256,192,143594,1,0,0:0:0:0:
256,192,143677,1,0,0:0:0:0:
256,192,143760,1,8,0:0:0:0:
256,192,144094,1,0,0:0:0:0:
256,192,144260,1,8,0:0:0:0:
256,192,144427,1,0,0:0:0:0:
256,192,144760,1,8,0:0:0:0:
256,192,144927,1,0,0:0:0:0:
256,192,145094,1,0,0:0:0:0:
256,192,145260,1,8,0:0:0:0:
256,192,145427,1,0,0:0:0:0:
256,192,145594,1,0,0:0:0:0:
256,192,145760,1,8,0:0:0:0:
256,192,146094,1,8,0:0:0:0:
256,192,146260,1,0,0:0:0:0:
256,192,146427,1,8,0:0:0:0:
256,192,146594,1,0,0:0:0:0:
256,192,146760,1,0,0:0:0:0:
256,192,146927,1,8,0:0:0:0:
256,192,147094,1,0,0:0:0:0:
256,192,147427,1,8,0:0:0:0:
256,192,147594,1,0,0:0:0:0:
256,192,147760,1,0,0:0:0:0:
256,192,147927,1,8,0:0:0:0:
256,192,148094,1,8,0:0:0:0:
256,192,148260,1,0,0:0:0:0:
256,192,148427,1,8,0:0:0:0:
256,192,148760,1,8,0:0:0:0:
256,192,148927,1,0,0:0:0:0:
256,192,149094,1,4,0:0:0:0:
256,192,149427,1,8,0:0:0:0:
256,192,149594,1,0,0:0:0:0:
256,192,149760,1,0,0:0:0:0:
256,192,150094,1,0,0:0:0:0:
256,192,150260,1,0,0:0:0:0:
256,192,150427,1,8,0:0:0:0:
256,192,150760,1,8,0:0:0:0:
256,192,150927,1,0,0:0:0:0:
256,192,151260,1,8,0:0:0:0:
256,192,151427,1,0,0:0:0:0:
256,192,151594,1,0,0:0:0:0:
256,192,151760,1,8,0:0:0:0:
256,192,151927,1,0,0:0:0:0:
256,192,152094,1,0,0:0:0:0:
256,192,152427,1,0,0:0:0:0:
256,192,152594,1,0,0:0:0:0:
256,192,152760,1,0,0:0:0:0:
256,192,152927,1,8,0:0:0:0:
256,192,153260,1,8,0:0:0:0:
256,192,153594,1,0,0:0:0:0:
256,192,153927,1,0,0:0:0:0:
256,192,154094,1,8,0:0:0:0:
256,192,154260,1,0,0:0:0:0:
256,192,154427,1,4,0:0:0:0:
256,192,154594,1,8,0:0:0:0:
256,192,154760,1,8,0:0:0:0:
256,192,154927,1,0,0:0:0:0:
256,192,155094,1,8,0:0:0:0:
256,192,155427,1,8,0:0:0:0:
256,192,155594,1,0,0:0:0:0:
256,192,155927,1,0,0:0:0:0:
256,192,156094,1,8,0:0:0:0:
256,192,156260,1,0,0:0:0:0:
256,192,156594,1,0,0:0:0:0:
256,192,156760,1,0,0:0:0:0:
256,192,156927,1,8,0:0:0:0:
256,192,157010,1,8,0:0:0:0:
256,192,157094,1,8,0:0:0:0:
256,192,157260,1,0,0:0:0:0:
256,192,157427,1,8,0:0:0:0:
256,192,157594,1,0,0:0:0:0:
256,192,157760,1,8,0:0:0:0:
256,192,158094,1,8,0:0:0:0:
256,192,158260,1,0,0:0:0:0:
256,192,158594,1,0,0:0:0:0:
256,192,158760,1,8,0:0:0:0:
256,192,158927,1,0,0:0:0:0:
256,192,159260,1,0,0:0:0:0:
256,192,159427,1,8,0:0:0:0:
256,192,159594,1,8,0:0:0:0:
256,192,159760,1,4,0:0:0:0:
256,192,160094,1,0,0:0:0:0:
256,192,160260,1,8,0:0:0:0:
256,192,160427,1,0,0:0:0:0:
256,192,160594,1,0,0:0:0:0:
256,192,160760,1,8,0:0:0:0:
256,192,160927,1,8,0:0:0:0:
256,192,161010,1,8,0:0:0:0:
256,192,161094,1,0,0:0:0:0:
256,192,161260,1,0,0:0:0:0:
256,192,161427,1,8,0:0:0:0:
256,192,161594,1,0,0:0:0:0:
256,192,161677,1,0,0:0:0:0:
256,192,161760,1,8,0:0:0:0:
256,192,161844,1,8,0:0:0:0:
256,192,161927,1,0,0:0:0:0:
256,192,162010,1,0,0:0:0:0:
256,192,162094,1,8,0:0:0:0:
256,192,162260,1,0,0:0:0:0:
256,192,162427,1,12,0:0:0:0:
256,192,162594,1,0,0:0:0:0:
256,192,162677,1,0,0:0:0:0:
256,192,162760,1,0,0:0:0:0:
256,192,162927,1,8,0:0:0:0:
256,192,163094,1,0,0:0:0:0:
256,192,163260,1,0,0:0:0:0:
256,192,163344,1,0,0:0:0:0:
256,192,163427,1,8,0:0:0:0:
256,192,163594,1,8,0:0:0:0:
256,192,163677,1,8,0:0:0:0:
256,192,163760,1,0,0:0:0:0:
256,192,163927,1,8,0:0:0:0:
256,192,164094,1,0,0:0:0:0:
256,192,164177,1,0,0:0:0:0:
256,192,164260,1,0,0:0:0:0:
256,192,164427,1,8,0:0:0:0:
256,192,164510,1,0,0:0:0:0:
256,192,164594,1,8,0:0:0:0:
256,192,164677,1,8,0:0:0:0:
256,192,164760,1,0,0:0:0:0:
256,192,164927,1,4,0:0:0:0:
256,192,165260,1,0,0:0:0:0:
256,192,165427,1,8,0:0:0:0:
256,192,165594,1,0,0:0:0:0:
256,192,165677,1,0,0:0:0:0:
256,192,165760,1,0,0:0:0:0:
256,192,165927,1,8,0:0:0:0:
256,192,166094,1,8,0:0:0:0:
256,192,166260,1,0,0:0:0:0:
256,192,166594,1,0,0:0:0:0:
256,192,166760,1,8,0:0:0:0:
256,192,166927,1,8,0:0:0:0:
256,192,167010,1,8,0:0:0:0:
256,192,167094,1,0,0:0:0:0:
256,192,167260,1,0,0:0:0:0:
256,192,167427,1,8,0:0:0:0:
256,192,167594,1,0,0:0:0:0:
256,192,167927,1,0,0:0:0:0:
256,192,168094,1,8,0:0:0:0:
256,192,168260,1,8,0:0:0:0:
256,192,168344,1,0,0:0:0:0:
256,192,168427,1,8,0:0:0:0:
256,192,168594,1,0,0:0:0:0:
256,192,168760,1,8,0:0:0:0:
256,192,168927,1,8,0:0:0:0:
256,192,169010,1,8,0:0:0:0:
256,192,169094,1,0,0:0:0:0:
256,192,169260,1,8,0:0:0:0:
256,192,169427,1,8,0:0:0:0:
256,192,169594,1,0,0:0:0:0:
256,192,169927,1,0,0:0:0:0:
256,192,170010,1,0,0:0:0:0:
256,192,170094,1,0,0:0:0:0:
256,192,170260,1,12,0:0:0:0:
256,192,170594,1,8,0:0:0:0:
256,192,170677,1,0,0:0:0:0:
256,192,170760,1,8,0:0:0:0:
256,192,170844,1,8,0:0:0:0:
256,192,170927,1,0,0:0:0:0:
256,192,171010,1,0,0:0:0:0:
256,192,171094,1,8,0:0:0:0:
256,192,171260,1,0,0:0:0:0:
256,192,171344,1,0,0:0:0:0:
256,192,171427,1,8,0:0:0:0:
256,192,171594,1,0,0:0:0:0:
256,192,171677,1,8,0:0:0:0:
256,192,171760,1,0,0:0:0:0:
256,192,171844,1,0,0:0:0:0:
256,192,171927,1,8,0:0:0:0:
256,192,172010,1,0,0:0:0:0:
256,192,172094,1,8,0:0:0:0:
256,192,172177,1,8,0:0:0:0:
256,192,172260,1,0,0:0:0:0:
256,192,172344,1,8,0:0:0:0:
256,192,172427,1,0,0:0:0:0:
256,192,172594,1,8,0:0:0:0:
256,192,172677,1,8,0:0:0:0:
256,192,172760,1,0,0:0:0:0:
256,192,172844,1,0,0:0:0:0:
256,192,172927,1,8,0:0:0:0:
256,192,173094,1,12,0:0:0:0:
256,192,173260,1,0,0:0:0:0:
256,192,173344,1,0,0:0:0:0:
256,192,173427,1,0,0:0:0:0:
256,192,173594,1,12,0:0:0:0:
256,192,173760,1,0,0:0:0:0:
256,192,173844,1,0,0:0:0:0:
256,192,173927,1,0,0:0:0:0:
256,192,174010,1,0,0:0:0:0:
256,192,174094,1,8,0:0:0:0:
256,192,174177,1,8,0:0:0:0:
256,192,174260,1,8,0:0:0:0:
256,192,174344,1,8,0:0:0:0:
256,192,174427,1,0,0:0:0:0:
256,192,174760,1,8,0:0:0:0:
256,192,174927,1,0,0:0:0:0:
256,192,175260,1,8,0:0:0:0:
256,192,175594,1,4,0:0:0:0:
256,192,176427,1,8,0:0:0:0:
256,192,176760,1,0,0:0:0:0:
256,192,177094,1,0,0:0:0:0:
256,192,177427,1,8,0:0:0:0:
256,192,177594,1,0,0:0:0:0:
256,192,177927,1,8,0:0:0:0:
256,192,178260,1,0,0:0:0:0:
256,192,179094,1,8,0:0:0:0:
256,192,179427,1,0,0:0:0:0:
256,192,179594,1,0,0:0:0:0:
256,192,179677,1,0,0:0:0:0:
256,192,179760,1,8,0:0:0:0:
256,192,179927,1,0,0:0:0:0:
256,192,180010,1,0,0:0:0:0:
256,192,180094,1,8,0:0:0:0:
256,192,180260,1,8,0:0:0:0:
256,192,180344,1,0,0:0:0:0:
256,192,180427,1,0,0:0:0:0:
256,192,180510,1,0,0:0:0:0:
256,192,180594,1,8,0:0:0:0:
256,192,180677,1,8,0:0:0:0:
256,192,180760,1,8,0:0:0:0:
256,192,180927,1,4,0:0:0:0:
256,192,181260,1,0,0:0:0:0:
256,192,181427,1,8,0:0:0:0:
256,192,181594,1,0,0:0:0:0:
256,192,181677,1,0,0:0:0:0:
256,192,181760,1,0,0:0:0:0:
256,192,181927,1,0,0:0:0:0:
256,192,182094,1,8,0:0:0:0:
256,192,182260,1,8,0:0:0:0:
256,192,182344,1,8,0:0:0:0:
256,192,182427,1,0,0:0:0:0:
256,192,182594,1,0,0:0:0:0:
256,192,182760,1,8,0:0:0:0:
256,192,182927,1,0,0:0:0:0:
256,192,183010,1,0,0:0:0:0:
256,192,183094,1,8,0:0:0:0:
256,192,183177,1,8,0:0:0:0:
256,192,183260,1,0,0:0:0:0:
256,192,183427,1,8,0:0:0:0:
256,192,183760,1,8,0:0:0:0:
256,192,183927,1,0,0:0:0:0:
256,192,184094,1,12,0:0:0:0:
256,192,184260,1,0,0:0:0:0:
256,192,184344,1,0,0:0:0:0:
256,192,184427,1,0,0:0:0:0:
256,192,184594,1,0,0:0:0:0:
256,192,184760,1,8,0:0:0:0:
256,192,184844,1,8,0:0:0:0:
256,192,184927,1,0,0:0:0:0:
256,192,185010,1,0,0:0:0:0:
256,192,185094,1,0,0:0:0:0:
256,192,185344,1,0,0:0:0:0:
256,192,185427,1,8,0:0:0:0:
256,192,185594,1,0,0:0:0:0:
256,192,185677,1,8,0:0:0:0:
256,192,185760,1,0,0:0:0:0:
256,192,185927,1,8,0:0:0:0:
256,192,186094,1,8,0:0:0:0:
256,192,186260,1,4,0:0:0:0:
256,192,186594,1,0,0:0:0:0:
256,192,186760,1,8,0:0:0:0:
256,192,186927,1,8,0:0:0:0:
256,192,187010,1,0,0:0:0:0:
256,192,187094,1,8,0:0:0:0:
256,192,187177,1,8,0:0:0:0:
256,192,187260,1,0,0:0:0:0:
256,192,187344,1,0,0:0:0:0:
256,192,187427,1,8,0:0:0:0:
256,192,187594,1,0,0:0:0:0:
256,192,187760,1,8,0:0:0:0:
256,192,187844,1,0,0:0:0:0:
256,192,187927,1,0,0:0:0:0:
256,192,188010,1,0,0:0:0:0:
256,192,188094,1,8,0:0:0:0:
256,192,188177,1,8,0:0:0:0:
256,192,188260,1,0,0:0:0:0:
256,192,188344,1,8,0:0:0:0:
256,192,188427,1,0,0:0:0:0:
256,192,188510,1,0,0:0:0:0:
256,192,188594,1,8,0:0:0:0:
256,192,188677,1,0,0:0:0:0:
256,192,188760,1,8,0:0:0:0:
256,192,188927,1,4,0:0:0:0:
256,192,189260,1,0,0:0:0:0:
256,192,189427,1,8,0:0:0:0:
256,192,189594,1,8,0:0:0:0:
256,192,189677,1,0,0:0:0:0:
256,192,189760,1,8,0:0:0:0:
256,192,189844,1,8,0:0:0:0:
256,192,189927,1,0,0:0:0:0:
256,192,190094,1,8,0:0:0:0:
256,192,190177,1,8,0:0:0:0:
256,192,190260,1,0,0:0:0:0:
256,192,190427,1,12,0:0:0:0:
256,192,190594,1,0,0:0:0:0:
256,192,190677,1,0,0:0:0:0:
256,192,190760,1,8,0:0:0:0:
256,192,190844,1,0,0:0:0:0:
256,192,190927,1,8,0:0:0:0:
256,192,191010,1,8,0:0:0:0:
256,192,191094,1,0,0:0:0:0:
256,192,191177,1,0,0:0:0:0:
256,192,191260,1,8,0:0:0:0:
256,192,191344,1,8,0:0:0:0:
256,192,191427,1,8,0:0:0:0:
256,192,191594,1,4,0:0:0:0:
256,192,191927,1,0,0:0:0:0:
256,192,192094,1,8,0:0:0:0:
256,192,192260,1,0,0:0:0:0:
256,192,192427,1,8,0:0:0:0:
256,192,192510,1,8,0:0:0:0:
256,192,192594,1,0,0:0:0:0:
256,192,192677,1,0,0:0:0:0:
256,192,192760,1,8,0:0:0:0:
256,192,192927,1,8,0:0:0:0:
256,192,193094,1,0,0:0:0:0:
256,192,193260,1,0,0:0:0:0:
256,192,193427,1,8,0:0:0:0:
256,192,193760,1,0,0:0:0:0:
256,192,193927,1,0,0:0:0:0:
256,192,194094,1,8,0:0:0:0:
256,192,194260,1,0,0:0:0:0:
256,192,194344,1,0,0:0:0:0:
256,192,194427,1,8,0:0:0:0:
256,192,194510,1,8,0:0:0:0:
256,192,194594,1,0,0:0:0:0:
256,192,194760,1,8,0:0:0:0:
256,192,194927,1,8,0:0:0:0:
256,192,195094,1,0,0:0:0:0:
256,192,195260,1,8,0:0:0:0:
256,192,195344,1,0,0:0:0:0:
256,192,195427,1,8,0:0:0:0:
256,192,195594,1,0,0:0:0:0:
256,192,195677,1,0,0:0:0:0:
256,192,195760,1,8,0:0:0:0:
256,192,195927,1,0,0:0:0:0:
256,192,196010,1,8,0:0:0:0:
256,192,196094,1,0,0:0:0:0:
256,192,196260,1,0,0:0:0:0:
256,192,196427,1,8,0:0:0:0:
256,192,196510,1,8,0:0:0:0:
256,192,196594,1,0,0:0:0:0:
256,192,196677,1,0,0:0:0:0:
256,192,196760,1,8,0:0:0:0:
256,192,196844,1,8,0:0:0:0:
256,192,196927,1,0,0:0:0:0:
256,192,197094,1,12,0:0:0:0:
256,192,197427,1,0,0:0:0:0:
256,192,197760,1,8,0:0:0:0:
256,192,197927,1,0,0:0:0:0:
256,192,198094,1,8,0:0:0:0:
256,192,198260,1,8,0:0:0:0:
256,192,198344,1,8,0:0:0:0:
256,192,198427,1,8,0:0:0:0:
256,192,198594,1,0,0:0:0:0:
256,192,198760,1,8,0:0:0:0:
256,192,198927,1,0,0:0:0:0:
256,192,199010,1,0,0:0:0:0:
256,192,199094,1,0,0:0:0:0:
256,192,199260,1,0,0:0:0:0:
256,192,199427,1,8,0:0:0:0:
256,192,199594,1,8,0:0:0:0:
256,192,199760,1,0,0:0:0:0:
256,192,200094,1,8,0:0:0:0:
256,192,200427,1,8,0:0:0:0:
256,192,200594,1,0,0:0:0:0:
256,192,200760,1,8,0:0:0:0:
256,192,200927,1,0,0:0:0:0:
256,192,201010,1,0,0:0:0:0:
256,192,201094,1,8,0:0:0:0:
256,192,201260,1,0,0:0:0:0:
256,192,201427,1,8,0:0:0:0:
256,192,201594,1,0,0:0:0:0:
256,192,201677,1,0,0:0:0:0:
256,192,201760,1,8,0:0:0:0:
256,192,201927,1,8,0:0:0:0:
256,192,202010,1,0,0:0:0:0:
256,192,202094,1,8,0:0:0:0:
256,192,202177,1,8,0:0:0:0:
256,192,202260,1,0,0:0:0:0:
256,192,202427,1,12,0:0:0:0:
256,192,202760,1,8,0:0:0:0:
256,192,202927,1,0,0:0:0:0:
256,192,203010,1,0,0:0:0:0:
256,192,203094,1,0,0:0:0:0:
256,192,203260,1,0,0:0:0:0:
256,192,203427,1,8,0:0:0:0:
256,192,203594,1,0,0:0:0:0:
256,192,203760,1,8,0:0:0:0:
256,192,204094,1,8,0:0:0:0:
256,192,204260,1,0,0:0:0:0:
256,192,204344,1,0,0:0:0:0:
256,192,204427,1,0,0:0:0:0:
256,192,204594,1,0,0:0:0:0:
256,192,204760,1,8,0:0:0:0:
256,192,204844,1,8,0:0:0:0:
256,192,204927,1,0,0:0:0:0:
256,192,205010,1,0,0:0:0:0:
256,192,205094,1,8,0:0:0:0:
256,192,205260,1,0,0:0:0:0:
256,192,205427,1,0,0:0:0:0:
256,192,205594,1,8,0:0:0:0:
256,192,205677,1,0,0:0:0:0:
256,192,205760,1,0,0:0:0:0:
256,192,205927,1,0,0:0:0:0:
256,192,206094,1,8,0:0:0:0:
256,192,206177,1,0,0:0:0:0:
256,192,206260,1,0,0:0:0:0:
256,192,206427,1,0,0:0:0:0:
256,192,206594,1,8,0:0:0:0:
256,192,206677,1,0,0:0:0:0:
256,192,206760,1,0,0:0:0:0:
256,192,206927,1,0,0:0:0:0:
256,192,207094,1,8,0:0:0:0:
256,192,207260,1,0,0:0:0:0:
256,192,207344,1,0,0:0:0:0:
256,192,207427,1,8,0:0:0:0:
256,192,207510,1,8,0:0:0:0:
256,192,207594,1,0,0:0:0:0:
256,192,207760,1,4,0:0:0:0:
256,192,208094,1,0,0:0:0:0:
256,192,208260,1,8,0:0:0:0:
256,192,208427,1,0,0:0:0:0:
256,192,208594,1,0,0:0:0:0:
256,192,208760,1,8,0:0:0:0:
256,192,208927,1,8,0:0:0:0:
256,192,209010,1,8,0:0:0:0:
256,192,209094,1,0,0:0:0:0:
256,192,209260,1,8,0:0:0:0:
256,192,209427,1,0,0:0:0:0:
256,192,209594,1,0,0:0:0:0:
256,192,209677,1,0,0:0:0:0:
256,192,209760,1,8,0:0:0:0:
256,192,209927,1,0,0:0:0:0:
256,192,210094,1,8,0:0:0:0:
256,192,210260,1,8,0:0:0:0:
256,192,210427,1,4,0:0:0:0:
256,192,211427,1,0,0:0:0:0:
256,192,211760,1,0,0:0:0:0:
256,192,212094,1,0,0:0:0:0:
256,192,212260,1,8,0:0:0:0:
256,192,212594,1,0,0:0:0:0:
256,192,212927,1,0,0:0:0:0:
256,192,213094,1,0,0:0:0:0:
256,192,213260,1,8,0:0:0:0:
256,192,213344,1,8,0:0:0:0:
256,192,213427,1,0,0:0:0:0:
256,192,213594,1,4,0:0:0:0:
256,192,213927,1,0,0:0:0:0:
256,192,214094,1,0,0:0:0:0:
256,192,214260,1,8,0:0:0:0:
256,192,214427,1,0,0:0:0:0:
256,192,214510,1,0,0:0:0:0:
256,192,214594,1,8,0:0:0:0:
256,192,214677,1,8,0:0:0:0:
256,192,214760,1,0,0:0:0:0:
256,192,214927,1,8,0:0:0:0:
256,192,215260,1,0,0:0:0:0:
256,192,215427,1,8,0:0:0:0:
256,192,215594,1,0,0:0:0:0:
256,192,215760,1,8,0:0:0:0:
256,192,215844,1,8,0:0:0:0:
256,192,215927,1,0,0:0:0:0:
256,192,216010,1,0,0:0:0:0:
256,192,216094,1,8,0:0:0:0:
256,192,216260,1,12,0:0:0:0:
256,192,216594,1,0,0:0:0:0:
256,192,216760,1,0,0:0:0:0:
256,192,216927,1,8,0:0:0:0:
256,192,217094,1,0,0:0:0:0:
256,192,217177,1,0,0:0:0:0:
256,192,217260,1,0,0:0:0:0:
256,192,217344,1,0,0:0:0:0:
256,192,217427,1,8,0:0:0:0:
256,192,217594,1,8,0:0:0:0:
256,192,217927,1,0,0:0:0:0:
256,192,218094,1,8,0:0:0:0:
256,192,218260,1,0,0:0:0:0:
256,192,218427,1,0,0:0:0:0:
256,192,218510,1,0,0:0:0:0:
256,192,218594,1,8,0:0:0:0:
256,192,218677,1,0,0:0:0:0:
256,192,218760,1,8,0:0:0:0:
256,192,218927,1,4,0:0:0:0:
256,192,219260,1,0,0:0:0:0:
256,192,219427,1,8,0:0:0:0:
256,192,219760,1,8,0:0:0:0:
256,192,219927,1,0,0:0:0:0:
256,192,220094,1,8,0:0:0:0:
256,192,220260,1,8,0:0:0:0:
256,192,220427,1,0,0:0:0:0:
256,192,220594,1,0,0:0:0:0:
256,192,220677,1,0,0:0:0:0:
256,192,220760,1,8,0:0:0:0:
256,192,220927,1,0,0:0:0:0:
256,192,221094,1,8,0:0:0:0:
256,192,221177,1,8,0:0:0:0:
256,192,221260,1,0,0:0:0:0:
256,192,221344,1,0,0:0:0:0:
256,192,221427,1,8,0:0:0:0:
256,192,221594,1,8,0:0:0:0:
256,192,221760,1,4,0:0:0:0:
256,192,221927,1,0,0:0:0:0:
256,192,222010,1,0,0:0:0:0:
256,192,222094,1,0,0:0:0:0:
256,192,222260,1,8,0:0:0:0:
256,192,222427,1,0,0:0:0:0:
256,192,222510,1,0,0:0:0:0:
256,192,222594,1,0,0:0:0:0:
256,192,222760,1,8,0:0:0:0:
256,192,222927,1,0,0:0:0:0:
256,192,223010,1,0,0:0:0:0:
256,192,223094,1,8,0:0:0:0:
256,192,223260,1,0,0:0:0:0:
256,192,223427,1,8,0:0:0:0:
256,192,223510,1,8,0:0:0:0:
256,192,223594,1,0,0:0:0:0:
256,192,223677,1,8,0:0:0:0:
256,192,223760,1,0,0:0:0:0:
256,192,223844,1,0,0:0:0:0:
256,192,223927,1,8,0:0:0:0:
256,192,224010,1,8,0:0:0:0:
256,192,224094,1,0,0:0:0:0:
256,192,224260,1,4,0:0:0:0:
256,192,224594,1,0,0:0:0:0:
256,192,224760,1,0,0:0:0:0:
256,192,224927,1,8,0:0:0:0:
256,192,225094,1,0,0:0:0:0:
256,192,225177,1,0,0:0:0:0:
256,192,225260,1,8,0:0:0:0:
256,192,225344,1,8,0:0:0:0:
256,192,225427,1,0,0:0:0:0:
256,192,225594,1,12,0:0:0:0:
256,192,225927,1,0,0:0:0:0:
256,192,226094,1,8,0:0:0:0:
256,192,226260,1,8,0:0:0:0:
256,192,226427,1,0,0:0:0:0:
256,192,226510,1,8,0:0:0:0:
256,192,226594,1,0,0:0:0:0:
256,192,226677,1,0,0:0:0:0:
256,192,226760,1,8,0:0:0:0:
256,192,226927,1,4,0:0:0:0:
256,192,227260,1,0,0:0:0:0:
256,192,227427,1,0,0:0:0:0:
256,192,227594,1,8,0:0:0:0:
256,192,227760,1,0,0:0:0:0:
256,192,227844,1,0,0:0:0:0:
256,192,227927,1,0,0:0:0:0:
256,192,228010,1,0,0:0:0:0:
256,192,228094,1,8,0:0:0:0:
256,192,228260,1,12,0:0:0:0:
256,192,228594,1,0,0:0:0:0:
256,192,228760,1,8,0:0:0:0:
256,192,228927,1,0,0:0:0:0:
256,192,229094,1,0,0:0:0:0:
256,192,229177,1,0,0:0:0:0:
256,192,229260,1,8,0:0:0:0:
256,192,229344,1,0,0:0:0:0:
256,192,229427,1,8,0:0:0:0:
256,192,229594,1,4,0:0:0:0:
256,192,229927,1,0,0:0:0:0:
256,192,230094,1,8,0:0:0:0:
256,192,230260,1,0,0:0:0:0:
256,192,230427,1,8,0:0:0:0:
256,192,230510,1,8,0:0:0:0:
256,192,230594,1,0,0:0:0:0:
256,192,230760,1,8,0:0:0:0:
256,192,230927,1,8,0:0:0:0:
256,192,231094,1,0,0:0:0:0:
256,192,231260,1,0,0:0:0:0:
256,192,231344,1,0,0:0:0:0:
256,192,231427,1,8,0:0:0:0:
256,192,231594,1,0,0:0:0:0:
256,192,231760,1,8,0:0:0:0:
256,192,231844,1,8,0:0:0:0:
256,192,231927,1,0,0:0:0:0:
256,192,232010,1,0,0:0:0:0:
256,192,232094,1,8,0:0:0:0:
256,192,232260,1,8,0:0:0:0:
256,192,232427,1,4,0:0:0:0:
256,192,232594,1,0,0:0:0:0:
256,192,232677,1,0,0:0:0:0:
256,192,232760,1,0,0:0:0:0:
256,192,232927,1,8,0:0:0:0:
256,192,233094,1,0,0:0:0:0:
256,192,233177,1,0,0:0:0:0:
256,192,233260,1,0,0:0:0:0:
256,192,233427,1,8,0:0:0:0:
256,192,233594,1,8,0:0:0:0:
256,192,233677,1,8,0:0:0:0:
256,192,233760,1,0,0:0:0:0:
256,192,233927,1,8,0:0:0:0:
256,192,234094,1,0,0:0:0:0:
256,192,234177,1,8,0:0:0:0:
256,192,234260,1,0,0:0:0:0:
256,192,234344,1,0,0:0:0:0:
256,192,234427,1,8,0:0:0:0:
256,192,234483,1,8,0:0:0:0:
256,192,234538,1,8,0:0:0:0:
256,192,234594,1,0,0:0:0:0:
256,192,234677,1,0,0:0:0:0:
256,192,234760,1,8,0:0:0:0:
256,192,234844,1,8,0:0:0:0:
256,192,234927,1,0,0:0:0:0:
256,192,235094,12,0,237760,0:0:0:0:
