osu file format v14

[General]
AudioFilename: Marine Blue ni Sotte.mp3
AudioLeadIn: 0
PreviewTime: 115427
Countdown: 0
SampleSet: Normal
StackLeniency: 0.7
Mode: 1
LetterboxInBreaks: 0
WidescreenStoryboard: 0

[Editor]
DistanceSpacing: 2
BeatDivisor: 4
GridSize: 32
TimelineZoom: 1

[Metadata]
Title:Marine Blue ni Sotte
TitleUnicode:マリンブルーに沿って
Artist:Sasaki Sayaka
ArtistUnicode:佐咲紗花
Creator:Nardoxyribonucleic
Version:Futsuu
Source:ちいさな彼女の小夜曲
Tags:Taiko feng Visual Novel Chiisana Kanojo no Sayokyoku Serenade Opening
BeatmapID:1343597
BeatmapSetID:630650

[Difficulty]
HPDrainRate:6
CircleSize:5
OverallDifficulty:4
ApproachRate:4
SliderMultiplier:1.4
SliderTickRate:1

[Events]
//Background and Video events
0,0,"Matsuri.jpg",0,75
//Break Periods
//Storyboard Layer 0 (Background)
//Storyboard Layer 1 (Fail)
//Storyboard Layer 2 (Pass)
//Storyboard Layer 3 (Foreground)
//Storyboard Sound Samples

[TimingPoints]
-239,333.333333333333,4,1,0,90,1,0
15760,-100,4,1,0,70,0,0
37094,-100,4,1,0,80,0,0
52927,-100,4,1,0,90,0,1
77094,-100,4,1,0,70,0,0
79594,-100,4,1,0,90,0,0
90427,-100,4,1,0,70,0,0
101094,-100,4,1,0,80,0,0
116927,-100,4,1,0,90,0,1
141094,-100,4,1,0,70,0,0
154427,-100,4,1,0,80,0,0
159760,-100,4,1,0,90,0,0
164927,-100,4,1,0,80,0,0
175594,-100,4,1,0,70,0,0
177094,-111.111111111111,4,1,0,70,0,0
179760,-100,4,1,0,70,0,0
180927,-100,4,1,0,90,0,1
210427,-100,4,1,0,70,0,0
213594,-100,4,1,0,90,0,0
235094,-100,4,1,0,30,0,0
236427,-100,4,1,0,15,0,0
237760,-100,4,1,0,5,0,0

[HitObjects]
256,192,3760,5,8,0:0:0:0:
256,192,4094,1,8,0:0:0:0:
256,192,4260,1,0,0:0:0:0:
256,192,4427,1,8,0:0:0:0:
256,192,4927,1,4,0:0:0:0:
256,192,5594,1,8,0:0:0:0:
256,192,5927,1,8,0:0:0:0:
256,192,6260,1,8,0:0:0:0:
256,192,6594,1,0,0:0:0:0:
256,192,6760,1,8,0:0:0:0:
256,192,6927,1,0,0:0:0:0:
256,192,7260,1,0,0:0:0:0:
256,192,7594,1,12,0:0:0:0:
256,192,8260,1,8,0:0:0:0:
256,192,8594,1,0,0:0:0:0:
256,192,8927,1,8,0:0:0:0:
256,192,9260,1,0,0:0:0:0:
256,192,9427,1,8,0:0:0:0:
256,192,9594,1,0,0:0:0:0:
256,192,9927,1,8,0:0:0:0:
256,192,10260,1,4,0:0:0:0:
256,192,11094,1,8,0:0:0:0:
256,192,11260,1,0,0:0:0:0:
256,192,11427,1,8,0:0:0:0:
256,192,11760,1,0,0:0:0:0:
256,192,12094,1,8,0:0:0:0:
256,192,12427,1,0,0:0:0:0:
256,192,12594,1,0,0:0:0:0:
256,192,12760,1,8,0:0:0:0:
256,192,13094,1,4,0:0:0:0:
256,192,13594,1,8,0:0:0:0:
256,192,14094,1,8,0:0:0:0:
256,192,14594,1,8,0:0:0:0:
256,192,15094,1,12,0:0:0:0:
256,192,15260,1,12,0:0:0:0:
256,192,15760,1,4,0:0:0:0:
256,192,16427,1,8,0:0:0:0:
256,192,16760,1,8,0:0:0:0:
256,192,16927,1,0,0:0:0:0:
256,192,17260,1,0,0:0:0:0:
256,192,17427,1,8,0:0:0:0:
256,192,17760,1,0,0:0:0:0:
256,192,18094,1,8,0:0:0:0:
256,192,18427,1,0,0:0:0:0:
256,192,19094,1,0,0:0:0:0:
256,192,19427,1,8,0:0:0:0:
256,192,19594,1,0,0:0:0:0:
256,192,19927,1,0,0:0:0:0:
256,192,20094,1,8,0:0:0:0:
256,192,20594,1,8,0:0:0:0:
256,192,21094,1,4,0:0:0:0:
256,192,21427,1,8,0:0:0:0:
256,192,21594,1,0,0:0:0:0:
256,192,21927,1,8,0:0:0:0:
256,192,22260,1,0,0:0:0:0:
256,192,22594,1,8,0:0:0:0:
256,192,22927,1,0,0:0:0:0:
256,192,23594,1,0,0:0:0:0:
256,192,23760,1,0,0:0:0:0:
256,192,24094,1,8,0:0:0:0:
256,192,24260,1,0,0:0:0:0:
256,192,24594,1,8,0:0:0:0:
256,192,24927,1,4,0:0:0:0:
256,192,25760,1,0,0:0:0:0:
256,192,25927,1,0,0:0:0:0:
256,192,26094,1,8,0:0:0:0:
256,192,26427,1,4,0:0:0:0:
256,192,27094,1,8,0:0:0:0:
256,192,27427,1,8,0:0:0:0:
256,192,27594,1,0,0:0:0:0:
256,192,27927,1,0,0:0:0:0:
256,192,28094,1,8,0:0:0:0:
256,192,28427,1,0,0:0:0:0:
256,192,28760,1,8,0:0:0:0:
256,192,28927,1,8,0:0:0:0:
256,192,29094,1,0,0:0:0:0:
256,192,29760,1,0,0:0:0:0:
256,192,30094,1,8,0:0:0:0:
256,192,30260,1,0,0:0:0:0:
256,192,30594,1,0,0:0:0:0:
256,192,30760,1,8,0:0:0:0:
256,192,31094,1,0,0:0:0:0:
256,192,31260,1,8,0:0:0:0:
256,192,31427,1,8,0:0:0:0:
256,192,31760,1,12,0:0:0:0:
256,192,32094,1,8,0:0:0:0:
256,192,32260,1,0,0:0:0:0:
256,192,32594,1,8,0:0:0:0:
256,192,32927,1,0,0:0:0:0:
256,192,33260,1,8,0:0:0:0:
256,192,33427,1,8,0:0:0:0:
256,192,33594,1,0,0:0:0:0:
256,192,34260,1,0,0:0:0:0:
256,192,34427,1,8,0:0:0:0:
256,192,34760,1,8,0:0:0:0:
256,192,34927,1,0,0:0:0:0:
256,192,35260,1,0,0:0:0:0:
256,192,35594,1,12,0:0:0:0:
256,192,36427,1,8,0:0:0:0:
256,192,36594,1,8,0:0:0:0:
256,192,36760,1,8,0:0:0:0:
256,192,37094,1,4,0:0:0:0:
256,192,37760,1,0,0:0:0:0:
256,192,38094,1,8,0:0:0:0:
256,192,38260,1,8,0:0:0:0:
256,192,38594,1,0,0:0:0:0:
256,192,38760,1,8,0:0:0:0:
256,192,39094,1,0,0:0:0:0:
256,192,39427,1,8,0:0:0:0:
256,192,39760,1,0,0:0:0:0:
256,192,40427,1,0,0:0:0:0:
256,192,40760,1,8,0:0:0:0:
256,192,40927,1,8,0:0:0:0:
256,192,41260,1,0,0:0:0:0:
256,192,41427,1,12,0:0:0:0:
256,192,41760,1,0,0:0:0:0:
256,192,41927,1,8,0:0:0:0:
256,192,42094,1,8,0:0:0:0:
256,192,42427,1,4,0:0:0:0:
256,192,43094,1,8,0:0:0:0:
256,192,43427,1,0,0:0:0:0:
256,192,43594,1,8,0:0:0:0:
256,192,43760,1,0,0:0:0:0:
256,192,44094,1,0,0:0:0:0:
256,192,44427,1,8,0:0:0:0:
256,192,45094,1,0,0:0:0:0:
256,192,45760,1,8,0:0:0:0:
256,192,46094,1,0,0:0:0:0:
256,192,46260,1,8,0:0:0:0:
256,192,46427,1,0,0:0:0:0:
256,192,46760,1,8,0:0:0:0:
256,192,47094,1,0,0:0:0:0:
256,192,47260,1,0,0:0:0:0:
256,192,47427,1,8,0:0:0:0:
256,192,47760,1,4,0:0:0:0:
256,192,48427,1,12,0:0:0:0:
256,192,49094,1,4,0:0:0:0:
256,192,49760,1,12,0:0:0:0:
256,192,50094,1,0,0:0:0:0:
256,192,50427,1,12,0:0:0:0:
256,192,50760,1,0,0:0:0:0:
256,192,51094,1,8,0:0:0:0:
256,192,51260,1,8,0:0:0:0:
256,192,51427,1,8,0:0:0:0:
256,192,51760,1,0,0:0:0:0:
256,192,52594,1,8,0:0:0:0:
256,192,52927,1,4,0:0:0:0:
256,192,53760,1,8,0:0:0:0:
256,192,54094,1,0,0:0:0:0:
256,192,54260,1,0,0:0:0:0:
256,192,54427,1,0,0:0:0:0:
256,192,54760,1,8,0:0:0:0:
256,192,54927,1,0,0:0:0:0:
256,192,55260,1,8,0:0:0:0:
256,192,55594,1,0,0:0:0:0:
256,192,56427,1,8,0:0:0:0:
256,192,56760,1,0,0:0:0:0:
256,192,56927,1,0,0:0:0:0:
256,192,57094,1,0,0:0:0:0:
256,192,57427,1,0,0:0:0:0:
256,192,57594,1,8,0:0:0:0:
256,192,57927,1,8,0:0:0:0:
256,192,58260,1,4,0:0:0:0:
256,192,59094,1,0,0:0:0:0:
256,192,59427,1,8,0:0:0:0:
256,192,59760,1,0,0:0:0:0:
256,192,60094,1,8,0:0:0:0:
256,192,60260,1,0,0:0:0:0:
256,192,60594,1,0,0:0:0:0:
256,192,60760,1,8,0:0:0:0:
256,192,61094,1,0,0:0:0:0:
256,192,61427,1,8,0:0:0:0:
256,192,61594,1,0,0:0:0:0:
256,192,61760,1,0,0:0:0:0:
256,192,62094,1,8,0:0:0:0:
256,192,62427,1,0,0:0:0:0:
256,192,62760,1,8,0:0:0:0:
256,192,62927,1,0,0:0:0:0:
256,192,63260,1,8,0:0:0:0:
256,192,63594,1,4,0:0:0:0:
256,192,64427,1,8,0:0:0:0:
256,192,64760,1,0,0:0:0:0:
256,192,64927,1,0,0:0:0:0:
256,192,65094,1,0,0:0:0:0:
256,192,65427,1,8,0:0:0:0:
256,192,65594,1,0,0:0:0:0:
256,192,65927,1,8,0:0:0:0:
256,192,66260,1,0,0:0:0:0:
256,192,67094,1,8,0:0:0:0:
256,192,67427,1,0,0:0:0:0:
256,192,67594,1,0,0:0:0:0:
256,192,67760,1,8,0:0:0:0:
256,192,68094,1,0,0:0:0:0:
256,192,68260,1,8,0:0:0:0:
256,192,68594,1,8,0:0:0:0:
256,192,68927,1,4,0:0:0:0:
256,192,69760,1,0,0:0:0:0:
256,192,70094,1,8,0:0:0:0:
256,192,70427,1,0,0:0:0:0:
256,192,70760,1,8,0:0:0:0:
256,192,70927,1,0,0:0:0:0:
256,192,71260,1,0,0:0:0:0:
256,192,71427,1,8,0:0:0:0:
256,192,71760,1,4,0:0:0:0:
256,192,72427,1,0,0:0:0:0:
256,192,72760,1,8,0:0:0:0:
256,192,72927,1,8,0:0:0:0:
256,192,73094,1,0,0:0:0:0:
256,192,73427,1,8,0:0:0:0:
256,192,73760,1,0,0:0:0:0:
256,192,73927,1,0,0:0:0:0:
256,192,74094,1,8,0:0:0:0:
256,192,74427,1,4,0:0:0:0:
256,192,74927,1,8,0:0:0:0:
256,192,75427,1,8,0:0:0:0:
256,192,75927,1,8,0:0:0:0:
256,192,76260,1,0,0:0:0:0:
256,192,76427,1,8,0:0:0:0:
256,192,76760,1,8,0:0:0:0:
256,192,77094,1,4,0:0:0:0:
256,192,78427,1,0,0:0:0:0:
256,192,78927,1,8,0:0:0:0:
256,192,79260,1,8,0:0:0:0:
256,192,79427,1,8,0:0:0:0:
256,192,79594,1,4,0:0:0:0:
256,192,80260,1,8,0:0:0:0:
256,192,80594,1,8,0:0:0:0:
256,192,80927,1,8,0:0:0:0:
256,192,81260,1,0,0:0:0:0:
256,192,81427,1,8,0:0:0:0:
256,192,81594,1,0,0:0:0:0:
256,192,81927,1,0,0:0:0:0:
256,192,82260,1,12,0:0:0:0:
256,192,82927,1,8,0:0:0:0:
256,192,83260,1,0,0:0:0:0:
256,192,83594,1,8,0:0:0:0:
256,192,83927,1,0,0:0:0:0:
256,192,84094,1,8,0:0:0:0:
256,192,84260,1,0,0:0:0:0:
256,192,84594,1,8,0:0:0:0:
256,192,84927,1,4,0:0:0:0:
256,192,85760,1,8,0:0:0:0:
256,192,85927,1,0,0:0:0:0:
256,192,86094,1,8,0:0:0:0:
256,192,86427,1,0,0:0:0:0:
256,192,86760,1,8,0:0:0:0:
256,192,87094,1,0,0:0:0:0:
256,192,87260,1,0,0:0:0:0:
256,192,87427,1,8,0:0:0:0:
256,192,87760,1,4,0:0:0:0:
256,192,88260,1,8,0:0:0:0:
256,192,88760,1,8,0:0:0:0:
256,192,89260,1,8,0:0:0:0:
256,192,89594,1,0,0:0:0:0:
256,192,89760,1,12,0:0:0:0:
256,192,90094,1,8,0:0:0:0:
256,192,90260,1,8,0:0:0:0:
256,192,90427,1,4,0:0:0:0:
256,192,91094,1,8,0:0:0:0:
256,192,91427,1,8,0:0:0:0:
256,192,91594,1,0,0:0:0:0:
256,192,91927,1,0,0:0:0:0:
256,192,92094,1,8,0:0:0:0:
256,192,92427,1,0,0:0:0:0:
256,192,92760,1,8,0:0:0:0:
256,192,92927,1,8,0:0:0:0:
256,192,93094,1,0,0:0:0:0:
256,192,93760,1,0,0:0:0:0:
256,192,94094,1,8,0:0:0:0:
256,192,94260,1,0,0:0:0:0:
256,192,94594,1,0,0:0:0:0:
256,192,94760,1,8,0:0:0:0:
256,192,95094,1,0,0:0:0:0:
256,192,95427,1,8,0:0:0:0:
256,192,95760,1,4,0:0:0:0:
256,192,96094,1,8,0:0:0:0:
256,192,96260,1,0,0:0:0:0:
256,192,96594,1,8,0:0:0:0:
256,192,96927,1,0,0:0:0:0:
256,192,97260,1,8,0:0:0:0:
256,192,97427,1,8,0:0:0:0:
256,192,97594,1,0,0:0:0:0:
256,192,98260,1,0,0:0:0:0:
256,192,98427,1,8,0:0:0:0:
256,192,98760,1,8,0:0:0:0:
256,192,98927,1,0,0:0:0:0:
256,192,99260,1,0,0:0:0:0:
256,192,99594,1,12,0:0:0:0:
256,192,100427,1,8,0:0:0:0:
256,192,100594,1,8,0:0:0:0:
256,192,100760,1,8,0:0:0:0:
256,192,101094,1,4,0:0:0:0:
256,192,101760,1,0,0:0:0:0:
256,192,102094,1,8,0:0:0:0:
256,192,102260,1,8,0:0:0:0:
256,192,102594,1,0,0:0:0:0:
256,192,102760,1,8,0:0:0:0:
256,192,103094,1,0,0:0:0:0:
256,192,103427,1,8,0:0:0:0:
256,192,103594,1,8,0:0:0:0:
256,192,103760,1,0,0:0:0:0:
256,192,104427,1,0,0:0:0:0:
256,192,104760,1,8,0:0:0:0:
256,192,104927,1,8,0:0:0:0:
256,192,105260,1,0,0:0:0:0:
256,192,105427,1,12,0:0:0:0:
256,192,105760,1,0,0:0:0:0:
256,192,105927,1,8,0:0:0:0:
256,192,106094,1,8,0:0:0:0:
256,192,106427,1,4,0:0:0:0:
256,192,107094,1,8,0:0:0:0:
256,192,107427,1,0,0:0:0:0:
256,192,107594,1,8,0:0:0:0:
256,192,107760,1,0,0:0:0:0:
256,192,108094,1,8,0:0:0:0:
256,192,108427,1,0,0:0:0:0:
256,192,108594,1,8,0:0:0:0:
256,192,108927,1,8,0:0:0:0:
256,192,109094,1,0,0:0:0:0:
256,192,109760,1,8,0:0:0:0:
256,192,110094,1,0,0:0:0:0:
256,192,110260,1,8,0:0:0:0:
256,192,110427,1,0,0:0:0:0:
256,192,110760,1,8,0:0:0:0:
256,192,111094,1,0,0:0:0:0:
256,192,111260,1,8,0:0:0:0:
256,192,111427,1,0,0:0:0:0:
256,192,111760,1,12,0:0:0:0:
256,192,112427,1,12,0:0:0:0:
256,192,113094,1,4,0:0:0:0:
256,192,113427,1,0,0:0:0:0:
256,192,113760,1,8,0:0:0:0:
256,192,114094,1,0,0:0:0:0:
256,192,114427,1,8,0:0:0:0:
256,192,114594,1,0,0:0:0:0:
256,192,114760,1,8,0:0:0:0:
256,192,115094,1,0,0:0:0:0:
256,192,115427,1,8,0:0:0:0:
256,192,115594,1,8,0:0:0:0:
256,192,115760,1,0,0:0:0:0:
256,192,116094,1,8,0:0:0:0:
256,192,116260,1,0,0:0:0:0:
256,192,116594,1,8,0:0:0:0:
256,192,116927,1,4,0:0:0:0:
256,192,117760,1,8,0:0:0:0:
256,192,118094,1,0,0:0:0:0:
256,192,118260,1,0,0:0:0:0:
256,192,118427,1,0,0:0:0:0:
256,192,118760,1,8,0:0:0:0:
256,192,118927,1,0,0:0:0:0:
256,192,119260,1,8,0:0:0:0:
256,192,119594,1,0,0:0:0:0:
256,192,120427,1,8,0:0:0:0:
256,192,120760,1,0,0:0:0:0:
256,192,120927,1,0,0:0:0:0:
256,192,121094,1,0,0:0:0:0:
256,192,121427,1,0,0:0:0:0:
256,192,121594,1,8,0:0:0:0:
256,192,121927,1,8,0:0:0:0:
256,192,122260,1,4,0:0:0:0:
256,192,123094,1,0,0:0:0:0:
256,192,123427,1,8,0:0:0:0:
256,192,123760,1,0,0:0:0:0:
256,192,124094,1,8,0:0:0:0:
256,192,124260,1,0,0:0:0:0:
256,192,124594,1,0,0:0:0:0:
256,192,124760,1,8,0:0:0:0:
256,192,125094,1,0,0:0:0:0:
256,192,125427,1,8,0:0:0:0:
256,192,125594,1,0,0:0:0:0:
256,192,125760,1,0,0:0:0:0:
256,192,126094,1,12,0:0:0:0:
256,192,126427,1,4,0:0:0:0:
256,192,126760,1,8,0:0:0:0:
256,192,126927,1,0,0:0:0:0:
256,192,127260,1,8,0:0:0:0:
256,192,127594,1,4,0:0:0:0:
256,192,128427,1,8,0:0:0:0:
256,192,128760,1,0,0:0:0:0:
256,192,128927,1,0,0:0:0:0:
256,192,129094,1,0,0:0:0:0:
256,192,129427,1,8,0:0:0:0:
256,192,129594,1,0,0:0:0:0:
256,192,129927,1,8,0:0:0:0:
256,192,130260,1,0,0:0:0:0:
256,192,131094,1,8,0:0:0:0:
256,192,131427,1,0,0:0:0:0:
256,192,131594,1,0,0:0:0:0:
256,192,131760,1,8,0:0:0:0:
256,192,132094,1,0,0:0:0:0:
256,192,132260,1,8,0:0:0:0:
256,192,132594,1,8,0:0:0:0:
256,192,132927,1,4,0:0:0:0:
256,192,133760,1,0,0:0:0:0:
256,192,134094,1,8,0:0:0:0:
256,192,134427,1,0,0:0:0:0:
256,192,134760,1,8,0:0:0:0:
256,192,134927,1,0,0:0:0:0:
256,192,135260,1,0,0:0:0:0:
256,192,135427,1,8,0:0:0:0:
256,192,135760,1,4,0:0:0:0:
256,192,136427,1,0,0:0:0:0:
256,192,136760,1,8,0:0:0:0:
256,192,136927,1,8,0:0:0:0:
256,192,137094,1,0,0:0:0:0:
256,192,137427,1,8,0:0:0:0:
256,192,137760,1,0,0:0:0:0:
256,192,137927,1,0,0:0:0:0:
256,192,138094,1,8,0:0:0:0:
256,192,138427,1,4,0:0:0:0:
256,192,138927,1,8,0:0:0:0:
256,192,139427,1,8,0:0:0:0:
256,192,139927,1,8,0:0:0:0:
256,192,140260,1,0,0:0:0:0:
256,192,140427,1,8,0:0:0:0:
256,192,140760,1,8,0:0:0:0:
256,192,141094,1,4,0:0:0:0:
256,192,142427,1,0,0:0:0:0:
256,192,142927,1,8,0:0:0:0:
256,192,143427,1,0,0:0:0:0:
256,192,143760,1,12,0:0:0:0:
256,192,144427,1,0,0:0:0:0:
256,192,144760,1,8,0:0:0:0:
256,192,145094,1,0,0:0:0:0:
256,192,145427,1,0,0:0:0:0:
256,192,145594,1,0,0:0:0:0:
256,192,145760,1,8,0:0:0:0:
256,192,146094,1,8,0:0:0:0:
256,192,146427,1,0,0:0:0:0:
256,192,147094,1,0,0:0:0:0:
256,192,147427,1,8,0:0:0:0:
256,192,147760,1,0,0:0:0:0:
256,192,148094,1,8,0:0:0:0:
256,192,148260,1,8,0:0:0:0:
256,192,148427,1,0,0:0:0:0:
256,192,148760,1,8,0:0:0:0:
256,192,149094,1,4,0:0:0:0:
256,192,149760,1,8,0:0:0:0:
256,192,150094,1,0,0:0:0:0:
256,192,150427,1,8,0:0:0:0:
256,192,150760,1,8,0:0:0:0:
256,192,150927,1,0,0:0:0:0:
256,192,151260,1,8,0:0:0:0:
256,192,151594,1,0,0:0:0:0:
256,192,151927,1,0,0:0:0:0:
256,192,152094,1,0,0:0:0:0:
256,192,152427,1,0,0:0:0:0:
256,192,152594,1,0,0:0:0:0:
256,192,152927,1,8,0:0:0:0:
256,192,153260,1,8,0:0:0:0:
256,192,153594,1,0,0:0:0:0:
256,192,154427,1,4,0:0:0:0:
256,192,154760,1,8,0:0:0:0:
256,192,154927,1,8,0:0:0:0:
256,192,155094,1,8,0:0:0:0:
256,192,155427,1,8,0:0:0:0:
256,192,155594,1,0,0:0:0:0:
256,192,155927,1,8,0:0:0:0:
256,192,156260,1,8,0:0:0:0:
256,192,156594,1,0,0:0:0:0:
256,192,157094,1,8,0:0:0:0:
256,192,157427,1,0,0:0:0:0:
256,192,157594,1,0,0:0:0:0:
256,192,157760,1,0,0:0:0:0:
256,192,158094,1,8,0:0:0:0:
256,192,158260,1,0,0:0:0:0:
256,192,158594,1,0,0:0:0:0:
256,192,158927,1,8,0:0:0:0:
256,192,159260,1,0,0:0:0:0:
256,192,159427,1,8,0:0:0:0:
256,192,159760,1,4,0:0:0:0:
256,192,160427,1,0,0:0:0:0:
256,192,161094,1,8,0:0:0:0:
256,192,161427,1,0,0:0:0:0:
256,192,161594,1,8,0:0:0:0:
256,192,161760,1,0,0:0:0:0:
256,192,162094,1,8,0:0:0:0:
256,192,162427,1,12,0:0:0:0:
256,192,162760,1,0,0:0:0:0:
256,192,162927,1,8,0:0:0:0:
256,192,163260,1,0,0:0:0:0:
256,192,163427,1,8,0:0:0:0:
256,192,163760,1,0,0:0:0:0:
256,192,163927,1,8,0:0:0:0:
256,192,164260,1,0,0:0:0:0:
256,192,164594,1,8,0:0:0:0:
256,192,164760,1,8,0:0:0:0:
256,192,164927,1,4,0:0:0:0:
256,192,165760,1,0,0:0:0:0:
256,192,166094,1,8,0:0:0:0:
256,192,166260,1,0,0:0:0:0:
256,192,166594,1,8,0:0:0:0:
256,192,166927,1,0,0:0:0:0:
256,192,167260,1,8,0:0:0:0:
256,192,167427,1,8,0:0:0:0:
256,192,167594,1,0,0:0:0:0:
256,192,167927,1,0,0:0:0:0:
256,192,168260,1,8,0:0:0:0:
256,192,168594,1,8,0:0:0:0:
256,192,168927,1,0,0:0:0:0:
256,192,169260,1,8,0:0:0:0:
256,192,169427,1,8,0:0:0:0:
256,192,169594,1,0,0:0:0:0:
256,192,170260,1,12,0:0:0:0:
256,192,170594,1,0,0:0:0:0:
256,192,170760,1,8,0:0:0:0:
256,192,171094,1,8,0:0:0:0:
256,192,171260,1,0,0:0:0:0:
256,192,171427,1,8,0:0:0:0:
256,192,171760,1,0,0:0:0:0:
256,192,172094,1,8,0:0:0:0:
256,192,172260,1,0,0:0:0:0:
256,192,172594,1,8,0:0:0:0:
256,192,172760,1,0,0:0:0:0:
256,192,173094,1,12,0:0:0:0:
256,192,173594,1,12,0:0:0:0:
256,192,174094,1,8,0:0:0:0:
256,192,174260,1,8,0:0:0:0:
256,192,174427,1,0,0:0:0:0:
256,192,174760,1,8,0:0:0:0:
256,192,174927,1,0,0:0:0:0:
256,192,175260,1,8,0:0:0:0:
256,192,175594,1,4,0:0:0:0:
256,192,177094,1,0,0:0:0:0:
256,192,177760,1,8,0:0:0:0:
256,192,178427,1,0,0:0:0:0:
256,192,179760,1,8,0:0:0:0:
256,192,180094,1,0,0:0:0:0:
256,192,180260,1,8,0:0:0:0:
256,192,180594,1,8,0:0:0:0:
256,192,180760,1,8,0:0:0:0:
256,192,180927,1,4,0:0:0:0:
256,192,181760,1,0,0:0:0:0:
256,192,182094,1,8,0:0:0:0:
256,192,182427,1,0,0:0:0:0:
256,192,182760,1,8,0:0:0:0:
256,192,182927,1,0,0:0:0:0:
256,192,183260,1,0,0:0:0:0:
256,192,183427,1,8,0:0:0:0:
256,192,183760,1,0,0:0:0:0:
256,192,184094,1,12,0:0:0:0:
256,192,184427,1,0,0:0:0:0:
256,192,184594,1,0,0:0:0:0:
256,192,184760,1,12,0:0:0:0:
256,192,185094,1,0,0:0:0:0:
256,192,185427,1,8,0:0:0:0:
256,192,185594,1,0,0:0:0:0:
256,192,185927,1,8,0:0:0:0:
256,192,186260,1,4,0:0:0:0:
256,192,187094,1,8,0:0:0:0:
256,192,187427,1,0,0:0:0:0:
256,192,187594,1,0,0:0:0:0:
256,192,187760,1,0,0:0:0:0:
256,192,188094,1,8,0:0:0:0:
256,192,188260,1,0,0:0:0:0:
256,192,188594,1,8,0:0:0:0:
256,192,188927,1,4,0:0:0:0:
256,192,189260,1,0,0:0:0:0:
256,192,189427,1,8,0:0:0:0:
256,192,189760,1,8,0:0:0:0:
256,192,190094,1,0,0:0:0:0:
256,192,190260,1,0,0:0:0:0:
256,192,190427,1,12,0:0:0:0:
256,192,190760,1,0,0:0:0:0:
256,192,190927,1,8,0:0:0:0:
256,192,191260,1,8,0:0:0:0:
256,192,191594,1,4,0:0:0:0:
256,192,192427,1,0,0:0:0:0:
256,192,192760,1,8,0:0:0:0:
256,192,193094,1,0,0:0:0:0:
256,192,193427,1,8,0:0:0:0:
256,192,193760,1,0,0:0:0:0:
256,192,193927,1,0,0:0:0:0:
256,192,194094,1,8,0:0:0:0:
256,192,194427,1,4,0:0:0:0:
256,192,195094,1,0,0:0:0:0:
256,192,195427,1,8,0:0:0:0:
256,192,195594,1,8,0:0:0:0:
256,192,195760,1,0,0:0:0:0:
256,192,196094,1,8,0:0:0:0:
256,192,196427,1,0,0:0:0:0:
256,192,196760,1,8,0:0:0:0:
256,192,196927,1,0,0:0:0:0:
256,192,197094,1,12,0:0:0:0:
256,192,197760,1,8,0:0:0:0:
256,192,198094,1,8,0:0:0:0:
256,192,198260,1,8,0:0:0:0:
256,192,198427,1,8,0:0:0:0:
256,192,198760,1,8,0:0:0:0:
256,192,198927,1,0,0:0:0:0:
256,192,199094,1,0,0:0:0:0:
256,192,199427,1,8,0:0:0:0:
256,192,199760,1,0,0:0:0:0:
256,192,200427,1,8,0:0:0:0:
256,192,200760,1,0,0:0:0:0:
256,192,200927,1,0,0:0:0:0:
256,192,201094,1,0,0:0:0:0:
256,192,201427,1,8,0:0:0:0:
256,192,201760,1,0,0:0:0:0:
256,192,201927,1,0,0:0:0:0:
256,192,202094,1,8,0:0:0:0:
256,192,202427,1,12,0:0:0:0:
256,192,203094,1,0,0:0:0:0:
256,192,203427,1,0,0:0:0:0:
256,192,203594,1,8,0:0:0:0:
256,192,203760,1,8,0:0:0:0:
256,192,204094,1,8,0:0:0:0:
256,192,204260,1,0,0:0:0:0:
256,192,204427,1,0,0:0:0:0:
256,192,204760,1,8,0:0:0:0:
256,192,205094,1,12,0:0:0:0:
256,192,205594,1,8,0:0:0:0:
256,192,206094,1,8,0:0:0:0:
256,192,206594,1,8,0:0:0:0:
256,192,206927,1,0,0:0:0:0:
256,192,207094,1,8,0:0:0:0:
256,192,207427,1,8,0:0:0:0:
256,192,207594,1,8,0:0:0:0:
256,192,207760,1,4,0:0:0:0:
256,192,208260,1,8,0:0:0:0:
256,192,208760,1,8,0:0:0:0:
256,192,209260,1,8,0:0:0:0:
256,192,209594,1,0,0:0:0:0:
256,192,209760,1,8,0:0:0:0:
256,192,210094,1,8,0:0:0:0:
256,192,210427,1,4,0:0:0:0:
256,192,211760,1,0,0:0:0:0:
256,192,212260,1,8,0:0:0:0:
256,192,212927,1,0,0:0:0:0:
256,192,213260,1,8,0:0:0:0:
256,192,213427,1,8,0:0:0:0:
256,192,213594,1,4,0:0:0:0:
256,192,214260,1,8,0:0:0:0:
256,192,214594,1,8,0:0:0:0:
256,192,214927,1,8,0:0:0:0:
256,192,215260,1,0,0:0:0:0:
256,192,215427,1,8,0:0:0:0:
256,192,215594,1,0,0:0:0:0:
256,192,215927,1,0,0:0:0:0:
256,192,216260,1,12,0:0:0:0:
256,192,216927,1,8,0:0:0:0:
256,192,217260,1,0,0:0:0:0:
256,192,217594,1,8,0:0:0:0:
256,192,217927,1,0,0:0:0:0:
256,192,218094,1,8,0:0:0:0:
256,192,218260,1,0,0:0:0:0:
256,192,218594,1,8,0:0:0:0:
256,192,218927,1,4,0:0:0:0:
256,192,219760,1,8,0:0:0:0:
256,192,219927,1,0,0:0:0:0:
256,192,220094,1,8,0:0:0:0:
256,192,220427,1,0,0:0:0:0:
256,192,220760,1,8,0:0:0:0:
256,192,221094,1,0,0:0:0:0:
256,192,221260,1,0,0:0:0:0:
256,192,221427,1,8,0:0:0:0:
256,192,221760,1,4,0:0:0:0:
256,192,222094,1,0,0:0:0:0:
256,192,222260,1,8,0:0:0:0:
256,192,222594,1,0,0:0:0:0:
256,192,222760,1,8,0:0:0:0:
256,192,223094,1,8,0:0:0:0:
256,192,223427,1,8,0:0:0:0:
256,192,223594,1,8,0:0:0:0:
256,192,223760,1,0,0:0:0:0:
256,192,224094,1,8,0:0:0:0:
256,192,224260,1,4,0:0:0:0:
256,192,224927,1,8,0:0:0:0:
256,192,225260,1,8,0:0:0:0:
256,192,225594,1,12,0:0:0:0:
256,192,225927,1,0,0:0:0:0:
256,192,226094,1,8,0:0:0:0:
256,192,226260,1,8,0:0:0:0:
256,192,226594,1,0,0:0:0:0:
256,192,226927,1,12,0:0:0:0:
256,192,227594,1,8,0:0:0:0:
256,192,227927,1,0,0:0:0:0:
256,192,228260,1,12,0:0:0:0:
256,192,228594,1,0,0:0:0:0:
256,192,228760,1,8,0:0:0:0:
256,192,228927,1,0,0:0:0:0:
256,192,229260,1,8,0:0:0:0:
256,192,229594,1,4,0:0:0:0:
256,192,230427,1,8,0:0:0:0:
256,192,230594,1,0,0:0:0:0:
256,192,230760,1,8,0:0:0:0:
256,192,231094,1,0,0:0:0:0:
256,192,231427,1,8,0:0:0:0:
256,192,231760,1,0,0:0:0:0:
256,192,231927,1,0,0:0:0:0:
256,192,232094,1,8,0:0:0:0:
256,192,232427,1,4,0:0:0:0:
256,192,232927,1,8,0:0:0:0:
256,192,233427,1,8,0:0:0:0:
256,192,233927,1,8,0:0:0:0:
256,192,234094,1,0,0:0:0:0:
256,192,234260,1,0,0:0:0:0:
256,192,234427,1,8,0:0:0:0:
256,192,234760,1,8,0:0:0:0:
256,192,234927,1,0,0:0:0:0:
256,192,235094,12,0,237760,0:0:0:0:
