osu file format v13

[General]
AudioFilename: mp3 desu.mp3
AudioLeadIn: 0
PreviewTime: 71753
Countdown: 0
SampleSet: Normal
StackLeniency: 0.7
Mode: 3
LetterboxInBreaks: 0
SpecialStyle: 0
WidescreenStoryboard: 0

[Editor]
DistanceSpacing: 1.3
BeatDivisor: 4
GridSize: 4
TimelineZoom: 1.7

[Metadata]
Title:Koi Saku Mirai
TitleUnicode:恋さくミライ
Artist:Sasaki Sayaka
ArtistUnicode:佐咲紗花
Creator:hutunohito
Version:7K Hyper
Source:恋がさくころ桜どき
Tags:eroge ぱれっと hentai game
BeatmapID:392993
BeatmapSetID:160570

[Difficulty]
HPDrainRate:8
CircleSize:7
OverallDifficulty:8
ApproachRate:5
SliderMultiplier:1.4
SliderTickRate:1

[Events]
//Background and Video events
0,0,"bg.jpg",0,0
Video,-193,"sakusaku.avi"
//Break Periods
//Storyboard Layer 0 (Background)
//Storyboard Layer 1 (Fail)
//Storyboard Layer 2 (Pass)
//Storyboard Layer 3 (Foreground)
//Storyboard Sound Samples
//Background Colour Transformations
3,100,163,162,255

[TimingPoints]
2468,357.142857142857,4,2,0,30,1,0
15325,-100,4,1,0,40,0,0
26575,-100,4,2,0,30,0,0
36575,-100,4,1,0,40,0,0
38203,-100,4,1,0,30,0,0
49610,-100,4,2,0,35,0,0
60146,-100,4,1,0,40,0,0
72467,-100,4,1,0,40,0,1
83717,-100,4,1,0,40,0,0
83896,-100,4,1,0,40,0,1
95235,-100,4,1,0,30,0,0
95325,-100,4,1,0,30,0,1
95414,-100,4,1,0,30,0,0

[Colours]
Combo1 : 222,0,131
Combo2 : 0,191,244
Combo3 : 240,229,0
Combo4 : 239,96,0
Combo5 : 123,205,0

[HitObjects]
182,192,3182,5,0,0:0:0:0:
329,192,3360,1,0,0:0:0:0:
109,192,3539,1,0,0:0:0:0:
402,192,3718,1,0,0:0:0:0:
182,192,3896,128,2,4075:0:0:0:0:
329,192,4253,1,0,0:0:0:0:
36,192,4432,128,2,4968:0:0:0:0:
329,192,5325,128,2,5503:0:0:0:0:
182,192,5682,1,0,0:0:0:0:
475,192,5860,128,2,6396:0:0:0:0:
36,192,6753,1,2,0:0:0:0:
182,192,6932,1,0,0:0:0:0:
329,192,7110,1,0,0:0:0:0:
256,192,7289,1,2,0:0:0:0:
329,192,7646,1,2,0:0:0:0:
182,192,7646,1,2,0:0:0:0:
475,192,8003,1,0,0:0:0:0:
36,192,8182,1,0,0:0:0:0:
182,192,8182,1,2,0:0:0:0:
402,192,8360,1,0,0:0:0:0:
109,192,8539,1,0,0:0:0:0:
329,192,8717,1,2,0:0:0:0:
475,192,8717,1,0,0:0:0:0:
475,192,9253,1,0,0:0:0:0:
402,192,9342,1,0,0:0:0:0:
256,192,9432,1,0,0:0:0:0:
109,192,9521,1,0,0:0:0:0:
36,192,9610,128,2,10682:0:0:0:0:
109,192,10682,1,0,0:0:0:0:
182,192,10860,1,0,0:0:0:0:
329,192,11039,128,2,11575:0:0:0:0:
36,192,11575,128,0,12467:0:0:0:0:
475,192,11575,128,2,12467:0:0:0:0:
182,192,12467,128,2,13003:0:0:0:0:
256,192,13003,128,2,13717:0:0:0:0:
402,192,13717,128,2,14967:0:0:0:0:
109,192,14967,1,0,0:0:0:0:
36,192,15325,1,0,0:0:0:0:
256,192,15325,1,4,0:0:0:0:
475,192,15325,1,0,0:0:0:0:
36,192,15682,1,8,0:0:0:0:
329,192,15860,1,0,0:0:0:0:
475,192,15860,1,0,0:0:0:0:
36,192,16039,1,0,0:0:0:0:
329,192,16217,1,0,0:0:0:0:
182,192,16217,1,0,0:0:0:0:
36,192,16396,1,8,0:0:0:0:
329,192,16575,1,0,0:0:0:0:
182,192,16575,1,0,0:0:0:0:
36,192,16753,1,0,0:0:0:0:
329,192,16932,1,0,0:0:0:0:
256,192,17110,1,0,0:0:0:0:
36,192,17110,1,8,0:0:0:0:
329,192,17289,1,0,0:0:0:0:
36,192,17467,1,0,0:0:0:0:
36,192,17825,1,8,0:0:0:0:
402,192,18003,1,0,0:0:0:0:
329,192,18092,1,0,0:0:0:0:
256,192,18182,1,0,0:0:0:0:
36,192,18182,1,0,0:0:0:0:
182,192,18360,1,0,0:0:0:0:
36,192,18539,1,8,0:0:0:0:
256,192,18539,1,0,0:0:0:0:
182,192,18717,1,0,0:0:0:0:
36,192,18896,1,0,0:0:0:0:
329,192,19075,1,0,0:0:0:0:
402,192,19253,1,0,0:0:0:0:
36,192,19253,1,8,0:0:0:0:
329,192,19432,1,0,0:0:0:0:
36,192,19610,1,0,0:0:0:0:
109,192,19789,1,0,0:0:0:0:
475,192,19967,1,0,0:0:0:0:
36,192,19967,1,8,0:0:0:0:
109,192,20146,1,0,0:0:0:0:
36,192,20325,1,0,0:0:0:0:
36,192,20682,1,8,0:0:0:0:
182,192,20771,1,0,0:0:0:0:
329,192,20860,1,0,0:0:0:0:
475,192,20950,1,0,0:0:0:0:
256,192,21039,1,4,0:0:0:0:
36,192,21039,1,0,0:0:0:0:
36,192,21396,1,8,0:0:0:0:
109,192,21575,1,0,0:0:0:0:
256,192,21575,1,0,0:0:0:0:
36,192,21753,1,0,0:0:0:0:
256,192,21932,1,0,0:0:0:0:
402,192,21932,1,0,0:0:0:0:
36,192,22110,1,8,0:0:0:0:
402,192,22289,1,0,0:0:0:0:
109,192,22289,1,0,0:0:0:0:
36,192,22467,1,0,0:0:0:0:
402,192,22646,1,0,0:0:0:0:
256,192,22825,1,0,0:0:0:0:
36,192,22825,1,8,0:0:0:0:
109,192,23003,1,0,0:0:0:0:
36,192,23182,1,0,0:0:0:0:
109,192,23539,1,8,0:0:0:0:
36,192,23717,1,0,0:0:0:0:
182,192,23807,1,0,0:0:0:0:
329,192,23896,1,8,0:0:0:0:
475,192,24075,1,0,0:0:0:0:
329,192,24164,1,0,0:0:0:0:
182,192,24253,1,8,0:0:0:0:
36,192,24432,1,0,0:0:0:0:
182,192,24521,1,0,0:0:0:0:
329,192,24610,1,8,0:0:0:0:
329,192,24789,1,8,0:0:0:0:
329,192,24967,1,8,0:0:0:0:
329,192,25146,1,2,0:0:0:0:
182,192,25146,1,8,0:0:0:0:
182,192,25503,1,8,0:0:0:0:
329,192,25503,1,2,0:0:0:0:
182,192,25860,1,8,0:0:0:0:
329,192,25860,1,2,0:0:0:0:
402,192,26039,1,0,0:0:0:0:
256,192,26039,1,2,0:0:0:0:
109,192,26039,1,8,0:0:0:0:
36,192,26396,1,0,0:0:0:0:
182,192,26396,1,4,2:0:0:0:
329,192,26396,1,4,2:0:0:0:
475,192,26396,1,0,0:0:0:0:
475,192,26753,1,4,0:0:0:0:
36,192,27110,1,0,0:0:0:0:
475,192,27467,1,0,0:0:0:0:
36,192,27825,1,0,0:0:0:0:
475,192,28182,1,0,0:0:0:0:
36,192,28539,1,0,0:0:0:0:
475,192,28896,1,0,0:0:0:0:
36,192,29253,1,0,0:0:0:0:
109,192,29432,1,0,0:0:0:0:
182,192,29610,1,0,0:0:0:0:
329,192,29610,1,2,0:0:0:0:
475,192,29610,1,0,0:0:0:0:
402,192,29967,1,0,0:0:0:0:
329,192,30146,1,0,0:0:0:0:
182,192,30325,1,0,0:0:0:0:
256,192,30503,1,0,0:0:0:0:
329,192,30682,1,0,0:0:0:0:
402,192,30860,1,0,0:0:0:0:
475,192,31039,1,0,0:0:0:0:
36,192,31039,1,2,0:0:0:0:
182,192,31039,1,2,0:0:0:0:
256,192,31217,1,0,0:0:0:0:
329,192,31396,1,0,0:0:0:0:
36,192,31575,1,2,0:0:0:0:
182,192,31575,1,2,0:0:0:0:
402,192,31575,1,0,0:0:0:0:
256,192,31753,1,0,0:0:0:0:
109,192,32110,1,0,0:0:0:0:
182,192,32467,1,2,0:0:0:0:
329,192,32467,1,2,0:0:0:0:
475,192,32467,1,0,0:0:0:0:
402,192,32646,1,0,0:0:0:0:
256,192,32825,1,0,0:0:0:0:
475,192,33003,1,0,0:0:0:0:
329,192,33003,1,2,0:0:0:0:
182,192,33003,1,2,0:0:0:0:
256,192,33182,1,0,0:0:0:0:
109,192,33360,1,0,0:0:0:0:
182,192,33539,1,2,0:0:0:0:
329,192,33539,1,2,0:0:0:0:
475,192,33539,1,0,0:0:0:0:
36,192,33717,1,0,0:0:0:0:
109,192,33896,1,2,0:0:0:0:
256,192,33896,1,2,0:0:0:0:
402,192,33896,1,0,0:0:0:0:
182,192,34075,1,0,0:0:0:0:
329,192,34253,1,0,0:0:0:0:
402,192,34432,1,0,0:0:0:0:
256,192,34432,1,2,0:0:0:0:
109,192,34432,1,2,0:0:0:0:
329,192,34610,1,0,0:0:0:0:
475,192,34789,1,0,0:0:0:0:
109,192,34967,1,2,0:0:0:0:
256,192,34967,1,2,0:0:0:0:
402,192,34967,1,0,0:0:0:0:
182,192,35146,1,0,0:0:0:0:
36,192,35325,1,0,0:0:0:0:
182,192,35503,1,0,0:0:0:0:
109,192,35682,1,2,0:0:0:0:
256,192,35860,1,0,0:0:0:0:
475,192,36039,1,0,0:0:0:0:
329,192,36039,1,0,0:0:0:0:
402,192,36217,1,0,0:0:0:0:
256,192,36217,1,0,0:0:0:0:
329,192,36396,1,2,0:0:0:0:
182,192,36396,1,0,0:0:0:0:
36,192,36575,1,2,0:0:0:0:
475,192,36575,1,2,0:0:0:0:
256,192,36575,1,0,0:0:0:0:
402,192,36932,1,0,0:0:0:0:
109,192,36932,1,8,0:0:0:0:
109,192,37110,1,8,0:0:0:0:
402,192,37110,1,0,0:0:0:0:
402,192,37289,1,0,0:0:0:0:
109,192,37289,1,8,0:0:0:0:
402,192,37825,1,8,0:0:0:0:
109,192,38003,1,0,0:0:0:0:
402,192,38092,1,0,0:0:0:0:
109,192,38182,1,4,0:0:0:0:
475,192,38360,1,0,0:0:0:0:
36,192,38539,1,0,0:0:0:0:
182,192,38539,1,8,0:0:0:0:
475,192,38717,1,0,0:0:0:0:
109,192,38896,1,0,0:0:0:0:
475,192,39075,1,0,0:0:0:0:
36,192,39253,1,0,0:0:0:0:
182,192,39253,1,8,0:0:0:0:
475,192,39432,1,0,0:0:0:0:
109,192,39610,1,0,0:0:0:0:
329,192,39789,1,0,0:0:0:0:
182,192,39967,1,0,0:0:0:0:
36,192,39967,1,8,0:0:0:0:
329,192,40146,1,0,0:0:0:0:
109,192,40325,1,0,0:0:0:0:
329,192,40503,1,0,0:0:0:0:
182,192,40682,1,0,0:0:0:0:
36,192,40682,1,8,0:0:0:0:
329,192,40860,1,0,0:0:0:0:
402,192,41039,1,0,0:0:0:0:
36,192,41217,1,0,0:0:0:0:
475,192,41396,1,0,0:0:0:0:
329,192,41396,1,8,0:0:0:0:
36,192,41575,1,0,0:0:0:0:
256,192,41575,1,0,0:0:0:0:
402,192,41753,1,0,0:0:0:0:
36,192,41932,1,0,0:0:0:0:
182,192,41932,1,0,0:0:0:0:
475,192,42110,1,0,0:0:0:0:
329,192,42110,1,8,0:0:0:0:
36,192,42289,1,0,0:0:0:0:
256,192,42289,1,0,0:0:0:0:
402,192,42467,1,0,0:0:0:0:
182,192,42646,1,0,0:0:0:0:
329,192,42825,1,0,0:0:0:0:
475,192,42825,1,8,0:0:0:0:
182,192,43003,1,0,0:0:0:0:
402,192,43182,1,0,0:0:0:0:
182,192,43360,1,0,0:0:0:0:
329,192,43539,1,0,0:0:0:0:
475,192,43539,1,8,0:0:0:0:
182,192,43717,1,0,0:0:0:0:
109,192,43896,1,0,0:0:0:0:
256,192,43896,1,2,0:0:0:0:
36,192,43896,1,0,0:0:0:0:
36,192,44253,1,8,0:0:0:0:
256,192,44432,1,2,0:0:0:0:
402,192,44432,1,0,0:0:0:0:
36,192,44610,1,0,0:0:0:0:
256,192,44789,1,0,0:0:0:0:
402,192,44789,1,0,0:0:0:0:
36,192,44967,1,8,0:0:0:0:
256,192,45146,1,2,0:0:0:0:
109,192,45146,1,0,0:0:0:0:
36,192,45325,1,0,0:0:0:0:
256,192,45503,1,2,0:0:0:0:
402,192,45503,1,0,0:0:0:0:
329,192,45682,1,0,0:0:0:0:
36,192,45682,1,8,0:0:0:0:
402,192,45860,1,2,0:0:0:0:
329,192,46039,1,0,0:0:0:0:
36,192,46039,1,0,0:0:0:0:
256,192,46217,1,0,0:0:0:0:
182,192,46396,1,0,0:0:0:0:
36,192,46396,1,8,0:0:0:0:
256,192,46575,1,0,0:0:0:0:
329,192,46753,1,8,0:0:0:0:
475,192,46753,1,0,0:0:0:0:
36,192,46753,1,0,0:0:0:0:
329,192,47110,128,8,47646:0:0:0:0:
475,192,47110,128,0,47646:0:0:0:0:
36,192,47110,1,8,0:0:0:0:
109,192,47467,1,0,0:0:0:0:
182,192,47646,1,8,0:0:0:0:
36,192,47646,1,8,0:0:0:0:
402,192,47646,1,0,0:0:0:0:
109,192,47825,1,0,0:0:0:0:
36,192,48003,1,2,0:0:0:0:
182,192,48003,1,8,0:0:0:0:
329,192,48003,1,8,0:0:0:0:
475,192,48003,1,2,0:0:0:0:
36,192,48360,1,0,0:0:0:0:
475,192,48360,1,0,0:0:0:0:
402,192,48450,1,0,0:0:0:0:
36,192,48539,1,8,0:0:0:0:
329,192,48539,1,0,0:0:0:0:
36,192,48717,1,0,0:0:0:0:
109,192,48717,1,0,0:0:0:0:
36,192,48896,1,2,0:0:0:0:
182,192,48896,1,2,0:0:0:0:
36,192,49075,1,0,0:0:0:0:
256,192,49075,1,0,0:0:0:0:
36,192,49253,1,2,0:0:0:0:
329,192,49253,1,2,0:0:0:0:
36,192,49432,1,0,0:0:0:0:
402,192,49432,1,0,0:0:0:0:
182,192,49610,128,4,50682:0:0:0:0:
329,192,49610,128,4,50682:0:0:0:0:
256,192,49610,1,0,0:0:0:0:
109,192,50146,1,0,0:0:0:0:
402,192,50325,1,0,0:0:0:0:
109,192,50503,1,0,0:0:0:0:
182,192,50860,128,4,51039:0:0:0:0:
329,192,50860,128,4,51039:0:0:0:0:
256,192,50860,1,0,0:0:0:0:
329,192,51217,128,4,52110:0:0:0:0:
182,192,51217,128,4,52110:0:0:0:0:
256,192,51217,1,0,0:0:0:0:
109,192,51575,1,0,0:0:0:0:
402,192,51753,1,0,0:0:0:0:
256,192,52110,1,0,0:0:0:0:
109,192,52467,128,4,53539:0:0:0:0:
402,192,52467,128,4,53539:0:0:0:0:
256,192,52467,1,0,0:0:0:0:
36,192,53003,1,0,0:0:0:0:
475,192,53182,1,0,0:0:0:0:
36,192,53360,1,0,0:0:0:0:
109,192,53717,128,4,53896:0:0:0:0:
402,192,53717,128,4,53896:0:0:0:0:
256,192,53717,1,0,0:0:0:0:
109,192,54075,128,4,54967:0:0:0:0:
402,192,54075,128,4,54967:0:0:0:0:
256,192,54075,1,0,0:0:0:0:
36,192,54432,1,0,0:0:0:0:
475,192,54610,1,0,0:0:0:0:
256,192,54967,1,0,0:0:0:0:
36,192,55325,128,4,56753:0:0:0:0:
182,192,55325,128,4,56753:0:0:0:0:
475,192,55325,1,0,0:0:0:0:
329,192,55860,1,0,0:0:0:0:
475,192,56039,1,0,0:0:0:0:
329,192,56396,1,0,0:0:0:0:
475,192,56575,1,0,0:0:0:0:
329,192,56753,128,4,58182:0:0:0:0:
475,192,56753,128,4,58182:0:0:0:0:
182,192,56932,1,0,0:0:0:0:
36,192,57289,1,0,0:0:0:0:
182,192,57467,1,0,0:0:0:0:
36,192,58182,128,4,61039:0:0:0:0:
256,192,58182,128,4,58896:0:0:0:0:
109,192,58717,1,0,0:0:0:0:
182,192,58807,1,0,0:0:0:0:
329,192,58896,128,2,59432:0:0:0:0:
109,192,59253,1,0,0:0:0:0:
475,192,59432,128,4,61039:0:0:0:0:
402,192,59432,1,0,0:0:0:0:
182,192,60325,1,8,0:0:0:0:
402,192,60503,1,0,0:0:0:0:
182,192,60682,1,8,0:0:0:0:
402,192,60860,1,0,0:0:0:0:
182,192,61039,1,4,0:0:0:0:
256,192,61217,1,0,0:0:0:0:
329,192,61396,1,8,0:0:0:0:
402,192,61396,1,0,0:0:0:0:
475,192,61396,1,2,0:0:0:0:
256,192,61575,1,0,0:0:0:0:
182,192,61753,1,0,0:0:0:0:
256,192,61932,1,0,0:0:0:0:
329,192,62110,1,8,0:0:0:0:
36,192,62110,1,0,0:0:0:0:
109,192,62110,1,2,0:0:0:0:
256,192,62289,1,0,0:0:0:0:
182,192,62467,1,0,0:0:0:0:
256,192,62646,1,0,0:0:0:0:
329,192,62825,1,2,0:0:0:0:
402,192,62825,1,0,0:0:0:0:
475,192,62825,1,8,0:0:0:0:
256,192,63003,1,0,0:0:0:0:
182,192,63182,1,0,0:0:0:0:
256,192,63360,1,0,0:0:0:0:
329,192,63539,1,2,0:0:0:0:
109,192,63539,1,0,0:0:0:0:
36,192,63539,1,8,0:0:0:0:
256,192,63717,1,0,0:0:0:0:
182,192,63896,1,0,0:0:0:0:
256,192,64075,1,0,0:0:0:0:
329,192,64253,1,2,0:0:0:0:
402,192,64253,1,0,0:0:0:0:
475,192,64253,1,8,0:0:0:0:
256,192,64432,1,0,0:0:0:0:
182,192,64610,1,0,0:0:0:0:
256,192,64789,1,0,0:0:0:0:
329,192,64967,1,2,0:0:0:0:
109,192,64967,1,0,0:0:0:0:
36,192,64967,1,8,0:0:0:0:
256,192,65146,1,0,0:0:0:0:
182,192,65325,1,0,0:0:0:0:
256,192,65503,1,0,0:0:0:0:
329,192,65682,1,2,0:0:0:0:
402,192,65682,1,0,0:0:0:0:
475,192,65682,1,8,0:0:0:0:
256,192,65860,1,0,0:0:0:0:
182,192,66039,1,0,0:0:0:0:
256,192,66217,1,0,0:0:0:0:
329,192,66396,1,2,0:0:0:0:
109,192,66396,1,0,0:0:0:0:
36,192,66396,1,8,0:0:0:0:
256,192,66575,1,0,0:0:0:0:
36,192,66753,1,0,0:0:0:0:
182,192,66932,1,0,0:0:0:0:
475,192,67110,1,8,0:0:0:0:
329,192,67110,1,2,0:0:0:0:
402,192,67110,1,0,0:0:0:0:
182,192,67289,1,0,0:0:0:0:
36,192,67467,1,0,0:0:0:0:
256,192,67646,1,2,0:0:0:0:
402,192,67646,1,0,0:0:0:0:
256,192,67825,1,2,0:0:0:0:
402,192,67825,1,0,0:0:0:0:
475,192,67825,1,8,0:0:0:0:
256,192,68003,1,2,0:0:0:0:
402,192,68003,1,0,0:0:0:0:
36,192,68182,1,0,0:0:0:0:
109,192,68182,1,0,0:0:0:0:
36,192,68539,1,0,0:0:0:0:
109,192,68539,1,8,0:0:0:0:
256,192,68539,1,2,0:0:0:0:
182,192,68717,128,0,69075:0:0:0:0:
256,192,69075,1,0,0:0:0:0:
329,192,69253,1,2,0:0:0:0:
475,192,69253,1,8,0:0:0:0:
475,192,69610,128,0,71039:0:0:0:0:
109,192,69610,1,0,0:0:0:0:
182,192,69789,1,0,0:0:0:0:
256,192,69967,1,8,0:0:0:0:
329,192,70146,1,0,0:0:0:0:
182,192,70235,1,0,0:0:0:0:
329,192,70325,1,0,0:0:0:0:
182,192,70414,1,0,0:0:0:0:
329,192,70503,1,0,0:0:0:0:
182,192,70592,1,0,0:0:0:0:
329,192,70682,1,8,0:0:0:0:
182,192,70771,1,0,0:0:0:0:
329,192,70860,1,0,0:0:0:0:
182,192,70950,1,0,0:0:0:0:
329,192,71039,128,4,72110:0:0:0:0:
36,192,71039,1,0,0:0:0:0:
109,192,72110,1,2,0:0:0:0:
402,192,72110,1,8,0:0:0:0:
36,192,72467,1,4,0:0:0:0:
109,192,72467,1,0,0:0:0:0:
182,192,72646,1,0,0:0:0:0:
329,192,72825,1,8,0:0:0:0:
182,192,73003,1,0,0:0:0:0:
36,192,73182,1,0,0:0:0:0:
109,192,73182,1,0,0:0:0:0:
182,192,73360,1,0,0:0:0:0:
329,192,73539,1,8,0:0:0:0:
182,192,73717,1,0,0:0:0:0:
36,192,73896,1,0,0:0:0:0:
256,192,73896,1,2,0:0:0:0:
182,192,74075,1,0,0:0:0:0:
475,192,74253,1,8,0:0:0:0:
182,192,74432,1,0,0:0:0:0:
36,192,74610,1,0,0:0:0:0:
329,192,74610,1,2,0:0:0:0:
182,192,74789,1,0,0:0:0:0:
475,192,74967,1,8,0:0:0:0:
182,192,75146,1,0,0:0:0:0:
402,192,75325,1,2,0:0:0:0:
36,192,75325,1,0,0:0:0:0:
182,192,75503,1,0,0:0:0:0:
256,192,75682,1,8,0:0:0:0:
182,192,75860,1,0,0:0:0:0:
402,192,75860,1,2,0:0:0:0:
36,192,76039,1,0,0:0:0:0:
182,192,76217,1,0,0:0:0:0:
402,192,76217,1,2,0:0:0:0:
256,192,76396,1,8,0:0:0:0:
182,192,76575,1,0,0:0:0:0:
402,192,76575,1,2,0:0:0:0:
36,192,76753,1,0,0:0:0:0:
182,192,76932,1,0,0:0:0:0:
402,192,76932,1,2,0:0:0:0:
329,192,77110,1,8,0:0:0:0:
182,192,77289,1,0,0:0:0:0:
402,192,77289,1,2,0:0:0:0:
36,192,77467,1,0,0:0:0:0:
182,192,77646,1,0,0:0:0:0:
329,192,77825,1,8,0:0:0:0:
182,192,77914,1,0,0:0:0:0:
36,192,78003,1,0,0:0:0:0:
182,192,78092,1,0,0:0:0:0:
329,192,78182,128,4,79253:0:0:0:0:
475,192,78182,1,0,0:0:0:0:
36,192,78539,1,8,0:0:0:0:
36,192,79253,1,8,0:0:0:0:
402,192,79432,1,0,0:0:0:0:
475,192,79610,128,0,80146:0:0:0:0:
109,192,79967,1,8,0:0:0:0:
36,192,80146,128,0,81039:0:0:0:0:
475,192,80682,1,8,0:0:0:0:
109,192,81039,128,0,81575:0:0:0:0:
475,192,81396,1,8,0:0:0:0:
402,192,81575,128,0,81932:0:0:0:0:
475,192,81932,1,0,0:0:0:0:
475,192,82110,1,0,0:0:0:0:
36,192,82110,1,8,0:0:0:0:
256,192,82289,128,0,83896:0:0:0:0:
36,192,83182,1,0,0:0:0:0:
475,192,83360,1,0,0:0:0:0:
36,192,83539,1,8,0:0:0:0:
475,192,83717,1,0,0:0:0:0:
36,192,83896,1,0,0:0:0:0:
329,192,83896,1,2,0:0:0:0:
182,192,83896,1,0,0:0:0:0:
475,192,84075,1,0,0:0:0:0:
36,192,84253,1,8,0:0:0:0:
475,192,84432,1,0,0:0:0:0:
36,192,84610,1,0,0:0:0:0:
475,192,84789,1,0,0:0:0:0:
36,192,84967,1,8,0:0:0:0:
475,192,85146,1,0,0:0:0:0:
36,192,85325,1,0,0:0:0:0:
256,192,85325,1,2,0:0:0:0:
329,192,85325,1,2,0:0:0:0:
475,192,85503,1,0,0:0:0:0:
36,192,85682,1,8,0:0:0:0:
475,192,85860,1,0,0:0:0:0:
36,192,86039,1,0,0:0:0:0:
329,192,86039,1,2,0:0:0:0:
402,192,86039,1,2,0:0:0:0:
475,192,86217,1,0,0:0:0:0:
36,192,86396,1,8,0:0:0:0:
475,192,86575,1,0,0:0:0:0:
36,192,86753,1,0,0:0:0:0:
182,192,86753,1,2,0:0:0:0:
402,192,86753,1,0,0:0:0:0:
256,192,86753,1,2,0:0:0:0:
329,192,86932,1,0,0:0:0:0:
475,192,86932,1,0,0:0:0:0:
36,192,87110,1,8,0:0:0:0:
402,192,87110,1,0,0:0:0:0:
329,192,87289,1,0,0:0:0:0:
475,192,87289,1,0,0:0:0:0:
36,192,87467,1,0,0:0:0:0:
256,192,87467,1,0,0:0:0:0:
182,192,87646,1,0,0:0:0:0:
475,192,87646,1,0,0:0:0:0:
36,192,87825,1,8,0:0:0:0:
109,192,87825,1,0,0:0:0:0:
329,192,88003,1,0,0:0:0:0:
475,192,88003,1,0,0:0:0:0:
36,192,88182,1,0,0:0:0:0:
109,192,88360,1,0,0:0:0:0:
256,192,88450,1,0,0:0:0:0:
402,192,88539,1,0,0:0:0:0:
475,192,88717,1,2,0:0:0:0:
329,192,88717,1,4,0:0:0:0:
182,192,89075,1,2,0:0:0:0:
36,192,89075,1,4,0:0:0:0:
329,192,89432,1,4,1:0:0:0:
475,192,89432,1,4,1:0:0:0:
36,192,89789,1,0,0:0:0:0:
109,192,89967,1,0,0:0:0:0:
182,192,90146,128,0,91039:0:0:0:0:
475,192,90682,1,8,0:0:0:0:
402,192,91039,1,0,0:0:0:0:
329,192,91217,1,0,0:0:0:0:
402,192,91396,1,0,0:0:0:0:
256,192,91575,128,0,92467:0:0:0:0:
475,192,91932,1,0,0:0:0:0:
36,192,92110,1,8,0:0:0:0:
36,192,92467,128,0,92825:0:0:0:0:
475,192,92467,128,0,92825:0:0:0:0:
402,192,92825,128,0,93182:0:0:0:0:
109,192,92825,128,0,93182:0:0:0:0:
329,192,93182,128,0,93539:0:0:0:0:
182,192,93182,128,0,93539:0:0:0:0:
109,192,93539,128,0,93896:0:0:0:0:
402,192,93539,128,0,93896:0:0:0:0:
36,192,93896,128,0,94967:0:0:0:0:
182,192,93896,128,4,94967:0:0:0:0:
329,192,93896,128,4,94967:0:0:0:0:
475,192,93896,128,0,94967:0:0:0:0:
109,192,94967,1,10,0:0:0:0:
402,192,94967,1,0,0:0:0:0:
36,192,95325,1,0,0:0:0:0:
256,192,95325,1,0,0:0:0:0:
402,192,95325,1,4,0:0:0:0:
36,192,95682,1,8,0:0:0:0:
329,192,95860,1,0,0:0:0:0:
475,192,95860,1,0,0:0:0:0:
36,192,96039,1,0,0:0:0:0:
329,192,96217,1,0,0:0:0:0:
182,192,96217,1,0,0:0:0:0:
36,192,96396,1,8,0:0:0:0:
256,192,96575,1,0,0:0:0:0:
402,192,96575,1,0,0:0:0:0:
36,192,96753,1,0,0:0:0:0:
329,192,96932,1,0,0:0:0:0:
475,192,96932,1,0,0:0:0:0:
36,192,97110,1,8,0:0:0:0:
256,192,97110,1,0,0:0:0:0:
402,192,97110,1,0,0:0:0:0:
329,192,97289,1,0,0:0:0:0:
182,192,97289,1,0,0:0:0:0:
36,192,97467,1,0,0:0:0:0:
36,192,97825,1,8,0:0:0:0:
182,192,98003,1,0,0:0:0:0:
329,192,98092,1,0,0:0:0:0:
36,192,98182,1,0,0:0:0:0:
475,192,98182,1,0,0:0:0:0:
256,192,98360,1,0,0:0:0:0:
36,192,98539,1,8,0:0:0:0:
329,192,98539,1,0,0:0:0:0:
402,192,98717,1,0,0:0:0:0:
36,192,98896,1,0,0:0:0:0:
329,192,99075,1,0,0:0:0:0:
36,192,99253,1,8,0:0:0:0:
402,192,99253,1,0,0:0:0:0:
475,192,99432,1,0,0:0:0:0:
36,192,99610,1,0,0:0:0:0:
329,192,99789,1,0,0:0:0:0:
36,192,99967,1,8,0:0:0:0:
256,192,99967,1,0,0:0:0:0:
182,192,100146,1,0,0:0:0:0:
36,192,100325,1,0,0:0:0:0:
36,192,100682,1,8,0:0:0:0:
182,192,100682,1,0,0:0:0:0:
329,192,100771,1,0,0:0:0:0:
475,192,100860,1,0,0:0:0:0:
329,192,100950,1,0,0:0:0:0:
36,192,101039,1,0,0:0:0:0:
182,192,101039,1,4,2:0:0:0:
36,192,101396,1,8,0:0:0:0:
182,192,101575,1,0,0:0:0:0:
329,192,101575,1,0,0:0:0:0:
36,192,101753,1,0,0:0:0:0:
256,192,101932,1,0,0:0:0:0:
402,192,101932,1,0,0:0:0:0:
36,192,102110,1,8,0:0:0:0:
329,192,102289,1,0,0:0:0:0:
475,192,102289,1,0,0:0:0:0:
36,192,102467,1,0,0:0:0:0:
256,192,102646,1,0,0:0:0:0:
402,192,102646,1,0,0:0:0:0:
36,192,102825,1,8,0:0:0:0:
182,192,102825,1,0,0:0:0:0:
329,192,102825,1,0,0:0:0:0:
256,192,103003,1,0,0:0:0:0:
109,192,103003,1,0,0:0:0:0:
36,192,103182,1,0,0:0:0:0:
36,192,103539,1,8,0:0:0:0:
109,192,103717,1,0,0:0:0:0:
256,192,103807,1,0,0:0:0:0:
36,192,103896,1,0,0:0:0:0:
402,192,103896,1,8,0:0:0:0:
182,192,104075,1,0,0:0:0:0:
329,192,104164,1,0,0:0:0:0:
36,192,104253,1,0,0:0:0:0:
475,192,104253,1,8,0:0:0:0:
109,192,104432,1,0,0:0:0:0:
256,192,104521,1,0,0:0:0:0:
36,192,104610,1,0,0:0:0:0:
402,192,104610,1,8,0:0:0:0:
36,192,104789,1,8,0:0:0:0:
36,192,104967,1,8,0:0:0:0:
36,192,105146,1,8,0:0:0:0:
182,192,105146,1,2,0:0:0:0:
329,192,105146,1,0,0:0:0:0:
475,192,105146,1,0,0:0:0:0:
36,192,105503,1,0,0:0:0:0:
182,192,105503,1,8,0:0:0:0:
329,192,105503,1,2,0:0:0:0:
475,192,105503,1,0,0:0:0:0:
36,192,105860,1,0,0:0:0:0:
182,192,105860,1,8,0:0:0:0:
329,192,105860,1,2,0:0:0:0:
475,192,105860,1,0,0:0:0:0:
402,192,106039,1,0,0:0:0:0:
256,192,106039,1,2,0:0:0:0:
109,192,106039,1,8,0:0:0:0:
36,192,106396,1,0,0:0:0:0:
109,192,106396,1,4,2:0:0:0:
256,192,106396,1,4,2:0:0:0:
402,192,106396,1,4,2:0:0:0:
475,192,106396,1,0,0:0:0:0:
109,192,106753,128,4,109610:0:0:0:0:
256,192,106753,128,4,109610:0:0:0:0:
402,192,106753,128,4,109610:0:0:0:0:
182,192,109610,128,4,112467:0:0:0:0:
475,192,109610,128,0,112467:0:0:0:0:
36,192,109610,1,0,0:0:0:0:
36,192,109967,1,0,0:0:0:0:
36,192,110325,1,0,0:0:0:0:
36,192,110682,1,0,0:0:0:0:
36,192,111039,1,0,0:0:0:0:
36,192,111217,1,0,0:0:0:0:
36,192,111396,1,0,0:0:0:0:
36,192,111575,1,0,0:0:0:0:
36,192,111753,1,0,0:0:0:0:
329,192,111842,1,0,0:0:0:0:
36,192,111932,1,0,0:0:0:0:
329,192,112021,1,0,0:0:0:0:
36,192,112110,1,0,0:0:0:0:
329,192,112200,1,0,0:0:0:0:
36,192,112289,1,0,0:0:0:0:
329,192,112378,1,0,0:0:0:0:
36,192,112467,1,4,2:0:0:0:
256,192,112467,1,4,2:0:0:0:
402,192,112467,1,4,0:0:0:0:
