osu file format v13

[General]
AudioFilename: mp3 desu.mp3
AudioLeadIn: 0
PreviewTime: 71753
Countdown: 0
SampleSet: Normal
StackLeniency: 0.7
Mode: 3
LetterboxInBreaks: 0
SpecialStyle: 0
WidescreenStoryboard: 0

[Editor]
DistanceSpacing: 1.3
BeatDivisor: 4
GridSize: 4
TimelineZoom: 2.899999

[Metadata]
Title:Koi Saku Mirai
TitleUnicode:恋さくミライ
Artist:Sasaki Sayaka
ArtistUnicode:佐咲紗花
Creator:hutunohito
Version:7K Black Another
Source:恋がさくころ桜どき
Tags:eroge ぱれっと hentai game
BeatmapID:392261
BeatmapSetID:160570

[Difficulty]
HPDrainRate:8.7
CircleSize:7
OverallDifficulty:9
ApproachRate:5
SliderMultiplier:1.4
SliderTickRate:1

[Events]
//Background and Video events
0,0,"bg.jpg",0,0
Video,-193,"sakusaku.avi"
//Break Periods
//Storyboard Layer 0 (Background)
//Storyboard Layer 1 (Fail)
//Storyboard Layer 2 (Pass)
//Storyboard Layer 3 (Foreground)
//Storyboard Sound Samples
//Background Colour Transformations
3,100,163,162,255

[TimingPoints]
2468,357.142857142857,4,2,0,30,1,0
15325,-100,4,1,0,20,0,0
26575,-100,4,2,0,30,0,0
36575,-100,4,1,0,20,0,0
38203,-100,4,1,0,17,0,0
49610,-100,4,2,0,35,0,0
60146,-100,4,2,0,30,0,0
72467,-100,4,2,0,30,0,1
83717,-100,4,2,0,30,0,0
83896,-100,4,2,0,30,0,1
88182,-100,4,1,0,20,0,1
95235,-100,4,1,0,20,0,0
95325,-100,4,1,0,20,0,1
95414,-100,4,1,0,20,0,0

[Colours]
Combo1 : 222,0,131
Combo2 : 0,191,244
Combo3 : 240,229,0
Combo4 : 239,96,0
Combo5 : 123,205,0

[HitObjects]
36,192,3182,5,0,0:0:0:0:
109,192,3360,1,0,0:0:0:0:
402,192,3539,1,0,0:0:0:0:
475,192,3718,1,0,0:0:0:0:
36,192,3896,1,0,0:0:0:0:
182,192,3896,1,0,0:0:0:0:
329,192,3896,1,0,0:0:0:0:
109,192,4075,1,0,0:0:0:0:
256,192,4253,1,0,0:0:0:0:
402,192,4432,1,0,0:0:0:0:
402,192,4789,1,0,0:0:0:0:
329,192,4968,1,0,0:0:0:0:
256,192,5146,1,0,0:0:0:0:
182,192,5325,1,0,0:0:0:0:
36,192,5325,1,0,0:0:0:0:
329,192,5325,1,2,0:0:0:0:
109,192,5503,1,0,0:0:0:0:
182,192,5682,1,0,0:0:0:0:
256,192,5860,1,0,0:0:0:0:
329,192,6039,1,0,0:0:0:0:
182,192,6039,1,2,0:0:0:0:
475,192,6039,128,0,6753:0:0:0:0:
256,192,6396,1,0,0:0:0:0:
36,192,6753,1,2,0:0:0:0:
329,192,6753,1,0,0:0:0:0:
182,192,6753,128,0,7110:0:0:0:0:
475,192,7110,1,0,0:0:0:0:
329,192,7110,1,0,0:0:0:0:
402,192,7289,1,0,0:0:0:0:
256,192,7289,1,0,0:0:0:0:
329,192,7467,1,0,0:0:0:0:
182,192,7467,1,0,0:0:0:0:
256,192,7646,1,0,0:0:0:0:
109,192,7646,1,0,0:0:0:0:
182,192,7825,1,0,0:0:0:0:
36,192,7825,1,0,0:0:0:0:
109,192,8003,1,0,0:0:0:0:
256,192,8003,1,0,0:0:0:0:
36,192,8182,1,0,0:0:0:0:
182,192,8182,1,0,0:0:0:0:
109,192,8360,1,0,0:0:0:0:
256,192,8360,1,0,0:0:0:0:
475,192,8539,1,0,0:0:0:0:
329,192,8539,1,0,0:0:0:0:
36,192,8717,128,0,9253:0:0:0:0:
182,192,8717,128,0,9253:0:0:0:0:
329,192,9253,1,0,0:0:0:0:
475,192,9253,1,0,0:0:0:0:
402,192,9342,1,0,0:0:0:0:
256,192,9342,1,0,0:0:0:0:
329,192,9432,1,0,0:0:0:0:
182,192,9432,1,0,0:0:0:0:
256,192,9521,1,0,0:0:0:0:
109,192,9521,1,0,0:0:0:0:
182,192,9610,128,0,10682:0:0:0:0:
36,192,9610,128,0,10682:0:0:0:0:
109,192,10682,128,0,10860:0:0:0:0:
256,192,10682,128,0,10860:0:0:0:0:
182,192,10860,128,0,11039:0:0:0:0:
329,192,10860,128,0,11039:0:0:0:0:
256,192,11039,128,2,11575:0:0:0:0:
402,192,11039,128,2,11575:0:0:0:0:
36,192,11575,1,2,0:0:0:0:
182,192,11575,1,2,0:0:0:0:
109,192,11575,128,0,12289:0:0:0:0:
36,192,12289,1,0,0:0:0:0:
475,192,12378,1,0,0:0:0:0:
182,192,12467,1,0,0:0:0:0:
256,192,12467,1,2,0:0:0:0:
329,192,12467,1,0,0:0:0:0:
36,192,12646,1,0,0:0:0:0:
475,192,12646,1,0,0:0:0:0:
182,192,12825,1,0,0:0:0:0:
329,192,12825,1,0,0:0:0:0:
256,192,13003,1,2,0:0:0:0:
109,192,13003,1,0,0:0:0:0:
402,192,13003,1,0,0:0:0:0:
36,192,13360,1,0,0:0:0:0:
475,192,13360,1,0,0:0:0:0:
402,192,13539,1,0,0:0:0:0:
109,192,13539,1,0,0:0:0:0:
36,192,13717,1,0,0:0:0:0:
182,192,13717,1,2,0:0:0:0:
329,192,13717,1,2,0:0:0:0:
475,192,13717,1,0,0:0:0:0:
36,192,13896,1,0,0:0:0:0:
475,192,13896,1,0,0:0:0:0:
109,192,13985,1,0,0:0:0:0:
182,192,14075,1,0,0:0:0:0:
402,192,14075,1,0,0:0:0:0:
256,192,14164,1,0,0:0:0:0:
36,192,14253,1,0,0:0:0:0:
475,192,14253,1,0,0:0:0:0:
109,192,14342,1,0,0:0:0:0:
182,192,14432,1,0,0:0:0:0:
402,192,14432,1,0,0:0:0:0:
256,192,14521,1,0,0:0:0:0:
36,192,14610,1,0,0:0:0:0:
329,192,14610,1,0,0:0:0:0:
475,192,14610,1,0,0:0:0:0:
256,192,14967,1,0,0:0:0:0:
182,192,14967,1,8,0:0:0:0:
36,192,14967,1,0,0:0:0:0:
329,192,14967,1,8,0:0:0:0:
475,192,14967,1,0,0:0:0:0:
36,192,15325,1,4,0:0:0:0:
256,192,15325,1,4,0:0:0:0:
475,192,15325,1,4,0:0:0:0:
109,192,15503,1,0,0:0:0:0:
182,192,15503,1,0,0:0:0:0:
329,192,15503,1,0,0:0:0:0:
402,192,15503,1,0,0:0:0:0:
36,192,15682,1,8,0:0:0:0:
402,192,15682,1,0,0:0:0:0:
182,192,15682,1,0,0:0:0:0:
256,192,15860,1,0,0:0:0:0:
475,192,15860,1,0,0:0:0:0:
402,192,15860,1,0,0:0:0:0:
36,192,16039,1,0,0:0:0:0:
329,192,16039,1,0,0:0:0:0:
182,192,16039,1,0,0:0:0:0:
256,192,16217,1,0,0:0:0:0:
475,192,16217,1,0,0:0:0:0:
329,192,16217,1,0,0:0:0:0:
36,192,16396,1,8,0:0:0:0:
109,192,16396,1,0,0:0:0:0:
402,192,16396,1,0,0:0:0:0:
182,192,16575,128,0,16932:0:0:0:0:
329,192,16575,128,0,16932:0:0:0:0:
36,192,16753,1,0,0:0:0:0:
256,192,16753,1,0,0:0:0:0:
475,192,16753,1,0,0:0:0:0:
109,192,16932,1,0,0:0:0:0:
402,192,16932,1,0,0:0:0:0:
36,192,17110,1,8,0:0:0:0:
256,192,17110,1,0,0:0:0:0:
402,192,17110,1,0,0:0:0:0:
109,192,17110,1,0,0:0:0:0:
329,192,17289,1,0,0:0:0:0:
182,192,17289,1,0,0:0:0:0:
475,192,17289,1,0,0:0:0:0:
36,192,17467,1,0,0:0:0:0:
109,192,17467,1,0,0:0:0:0:
182,192,17646,1,0,0:0:0:0:
256,192,17646,1,0,0:0:0:0:
402,192,17646,1,0,0:0:0:0:
475,192,17646,1,0,0:0:0:0:
36,192,17825,1,8,0:0:0:0:
402,192,17825,1,0,0:0:0:0:
182,192,17825,1,0,0:0:0:0:
329,192,17825,1,0,0:0:0:0:
329,192,18003,1,0,0:0:0:0:
182,192,18003,1,0,0:0:0:0:
402,192,18093,1,0,0:0:0:0:
256,192,18093,1,0,0:0:0:0:
475,192,18182,1,0,0:0:0:0:
329,192,18182,1,0,0:0:0:0:
36,192,18182,1,0,0:0:0:0:
182,192,18360,1,0,0:0:0:0:
329,192,18360,1,0,0:0:0:0:
475,192,18360,1,0,0:0:0:0:
36,192,18539,1,8,0:0:0:0:
402,192,18539,1,0,0:0:0:0:
329,192,18539,1,0,0:0:0:0:
182,192,18539,1,0,0:0:0:0:
109,192,18717,1,0,0:0:0:0:
256,192,18717,1,0,0:0:0:0:
329,192,18717,1,0,0:0:0:0:
36,192,18896,1,0,0:0:0:0:
475,192,18896,1,0,0:0:0:0:
329,192,18896,1,0,0:0:0:0:
109,192,19075,1,0,0:0:0:0:
402,192,19075,1,0,0:0:0:0:
475,192,19075,1,0,0:0:0:0:
256,192,19075,1,0,0:0:0:0:
36,192,19253,1,8,0:0:0:0:
402,192,19253,1,0,0:0:0:0:
182,192,19253,1,0,0:0:0:0:
475,192,19253,1,0,0:0:0:0:
256,192,19432,1,0,0:0:0:0:
182,192,19432,1,0,0:0:0:0:
329,192,19432,1,0,0:0:0:0:
36,192,19610,1,0,0:0:0:0:
109,192,19610,1,0,0:0:0:0:
402,192,19610,1,0,0:0:0:0:
402,192,19789,1,0,0:0:0:0:
475,192,19789,1,0,0:0:0:0:
256,192,19789,1,0,0:0:0:0:
36,192,19967,1,8,0:0:0:0:
329,192,19967,1,0,0:0:0:0:
182,192,19967,1,0,0:0:0:0:
402,192,19967,1,0,0:0:0:0:
256,192,20146,1,0,0:0:0:0:
109,192,20146,1,0,0:0:0:0:
475,192,20146,1,0,0:0:0:0:
329,192,20146,1,0,0:0:0:0:
36,192,20325,1,0,0:0:0:0:
402,192,20325,1,0,0:0:0:0:
329,192,20325,1,0,0:0:0:0:
109,192,20503,1,0,0:0:0:0:
256,192,20503,1,0,0:0:0:0:
402,192,20503,1,0,0:0:0:0:
36,192,20682,1,8,0:0:0:0:
109,192,20682,1,0,0:0:0:0:
256,192,20682,1,0,0:0:0:0:
182,192,20771,1,0,0:0:0:0:
329,192,20771,1,0,0:0:0:0:
256,192,20860,1,0,0:0:0:0:
402,192,20860,1,0,0:0:0:0:
329,192,20950,1,0,0:0:0:0:
475,192,20950,1,0,0:0:0:0:
402,192,21039,1,0,0:0:0:0:
36,192,21039,1,0,0:0:0:0:
182,192,21039,1,0,0:0:0:0:
256,192,21039,1,4,0:0:0:0:
402,192,21217,1,0,0:0:0:0:
36,192,21217,1,0,0:0:0:0:
109,192,21217,1,0,0:0:0:0:
475,192,21396,1,8,0:0:0:0:
182,192,21396,1,0,0:0:0:0:
329,192,21396,1,0,0:0:0:0:
402,192,21575,1,0,0:0:0:0:
36,192,21575,1,0,0:0:0:0:
109,192,21575,1,0,0:0:0:0:
475,192,21753,1,0,0:0:0:0:
109,192,21753,1,0,0:0:0:0:
256,192,21753,1,0,0:0:0:0:
182,192,21932,1,0,0:0:0:0:
329,192,21932,1,0,0:0:0:0:
36,192,21932,1,0,0:0:0:0:
402,192,21932,1,0,0:0:0:0:
475,192,22110,1,8,0:0:0:0:
109,192,22110,1,0,0:0:0:0:
182,192,22110,1,0,0:0:0:0:
329,192,22110,1,0,0:0:0:0:
402,192,22289,1,0,0:0:0:0:
182,192,22289,128,0,22646:0:0:0:0:
256,192,22289,128,0,22646:0:0:0:0:
475,192,22467,1,0,0:0:0:0:
36,192,22467,1,0,0:0:0:0:
329,192,22467,1,0,0:0:0:0:
402,192,22646,1,0,0:0:0:0:
109,192,22646,1,0,0:0:0:0:
475,192,22825,1,8,0:0:0:0:
329,192,22825,1,0,0:0:0:0:
109,192,22825,1,0,0:0:0:0:
402,192,23003,128,0,23539:0:0:0:0:
36,192,23003,128,0,23539:0:0:0:0:
182,192,23003,1,0,0:0:0:0:
475,192,23182,1,0,0:0:0:0:
109,192,23182,1,0,0:0:0:0:
329,192,23182,1,0,0:0:0:0:
182,192,23360,1,0,0:0:0:0:
256,192,23360,1,0,0:0:0:0:
475,192,23539,1,8,0:0:0:0:
109,192,23539,1,0,0:0:0:0:
329,192,23539,1,0,0:0:0:0:
36,192,23717,1,0,0:0:0:0:
182,192,23717,1,0,0:0:0:0:
109,192,23807,1,0,0:0:0:0:
256,192,23807,1,0,0:0:0:0:
475,192,23896,1,0,0:0:0:0:
182,192,23896,1,0,0:0:0:0:
329,192,23896,1,0,0:0:0:0:
256,192,24075,1,0,0:0:0:0:
402,192,24075,1,0,0:0:0:0:
182,192,24164,1,0,0:0:0:0:
329,192,24164,1,0,0:0:0:0:
475,192,24253,1,8,0:0:0:0:
109,192,24253,1,0,0:0:0:0:
256,192,24253,1,0,0:0:0:0:
475,192,24432,1,0,0:0:0:0:
36,192,24432,1,0,0:0:0:0:
329,192,24432,1,0,0:0:0:0:
182,192,24432,1,0,0:0:0:0:
256,192,24521,1,0,0:0:0:0:
109,192,24521,1,0,0:0:0:0:
402,192,24521,1,0,0:0:0:0:
475,192,24610,1,0,0:0:0:0:
36,192,24610,1,0,0:0:0:0:
475,192,24789,1,0,0:0:0:0:
36,192,24789,1,0,0:0:0:0:
256,192,24789,1,0,0:0:0:0:
402,192,24878,1,0,0:0:0:0:
109,192,24878,1,0,0:0:0:0:
475,192,24967,1,0,0:0:0:0:
36,192,24967,1,0,0:0:0:0:
256,192,24967,1,0,0:0:0:0:
402,192,25057,1,0,0:0:0:0:
109,192,25057,1,0,0:0:0:0:
475,192,25146,1,8,0:0:0:0:
329,192,25146,1,0,0:0:0:0:
256,192,25146,1,8,0:0:0:0:
182,192,25146,1,0,0:0:0:0:
36,192,25146,1,8,0:0:0:0:
36,192,25503,1,8,0:0:0:0:
182,192,25503,1,0,0:0:0:0:
256,192,25503,1,8,0:0:0:0:
329,192,25503,1,0,0:0:0:0:
475,192,25503,1,8,0:0:0:0:
109,192,25860,1,0,0:0:0:0:
182,192,25860,1,2,0:0:0:0:
256,192,25860,1,2,0:0:0:0:
329,192,25860,1,2,0:0:0:0:
402,192,25860,1,0,0:0:0:0:
402,192,26039,1,0,0:0:0:0:
329,192,26039,1,2,0:0:0:0:
256,192,26039,1,2,0:0:0:0:
182,192,26039,1,0,0:0:0:0:
109,192,26039,1,0,0:0:0:0:
36,192,26396,1,4,0:0:0:0:
109,192,26396,1,4,0:0:0:0:
402,192,26396,1,4,0:0:0:0:
475,192,26396,1,4,0:0:0:0:
475,192,26753,1,0,0:0:0:0:
36,192,26753,1,0,0:0:0:0:
256,192,26753,1,0,0:0:0:0:
402,192,26932,1,0,0:0:0:0:
256,192,27021,1,2,0:0:0:0:
36,192,27110,1,0,0:0:0:0:
329,192,27110,1,0,0:0:0:0:
256,192,27289,1,0,0:0:0:0:
182,192,27378,1,0,0:0:0:0:
36,192,27467,1,0,0:0:0:0:
475,192,27467,1,0,0:0:0:0:
402,192,27646,1,0,0:0:0:0:
256,192,27735,1,0,0:0:0:0:
36,192,27825,1,0,0:0:0:0:
329,192,27825,1,0,0:0:0:0:
256,192,28003,1,0,0:0:0:0:
182,192,28092,1,0,0:0:0:0:
475,192,28182,1,0,0:0:0:0:
402,192,28182,1,2,0:0:0:0:
36,192,28182,1,2,0:0:0:0:
256,192,28182,1,2,0:0:0:0:
109,192,28360,1,0,0:0:0:0:
256,192,28450,1,0,0:0:0:0:
36,192,28539,1,0,0:0:0:0:
329,192,28539,1,0,0:0:0:0:
256,192,28717,1,0,0:0:0:0:
109,192,28717,1,2,0:0:0:0:
182,192,28717,1,2,0:0:0:0:
402,192,28807,1,0,0:0:0:0:
36,192,28896,1,0,0:0:0:0:
475,192,28896,1,0,0:0:0:0:
402,192,29075,1,0,0:0:0:0:
256,192,29164,1,0,0:0:0:0:
36,192,29253,1,0,0:0:0:0:
329,192,29253,1,0,0:0:0:0:
256,192,29432,1,0,0:0:0:0:
109,192,29521,1,0,0:0:0:0:
36,192,29610,1,0,0:0:0:0:
402,192,29610,1,2,0:0:0:0:
475,192,29610,1,2,0:0:0:0:
256,192,29610,1,2,0:0:0:0:
109,192,29789,1,0,0:0:0:0:
475,192,29878,1,0,0:0:0:0:
329,192,29967,1,0,0:0:0:0:
36,192,29967,1,0,0:0:0:0:
256,192,30146,1,0,0:0:0:0:
182,192,30235,1,0,0:0:0:0:
329,192,30325,1,0,0:0:0:0:
36,192,30325,1,0,0:0:0:0:
109,192,30503,1,0,0:0:0:0:
402,192,30592,1,0,0:0:0:0:
329,192,30682,1,0,0:0:0:0:
36,192,30682,1,0,0:0:0:0:
256,192,30860,1,0,0:0:0:0:
182,192,30950,1,0,0:0:0:0:
36,192,31039,1,0,0:0:0:0:
402,192,31039,1,2,0:0:0:0:
475,192,31039,1,0,0:0:0:0:
109,192,31039,1,2,0:0:0:0:
182,192,31217,1,0,0:0:0:0:
402,192,31307,1,0,0:0:0:0:
329,192,31396,1,0,0:0:0:0:
36,192,31396,1,0,0:0:0:0:
475,192,31575,1,2,0:0:0:0:
402,192,31575,1,2,0:0:0:0:
109,192,31575,1,0,0:0:0:0:
182,192,31664,1,0,0:0:0:0:
329,192,31753,1,0,0:0:0:0:
36,192,31753,1,0,0:0:0:0:
109,192,31932,1,0,0:0:0:0:
475,192,32021,1,0,0:0:0:0:
329,192,32110,1,0,0:0:0:0:
182,192,32110,1,0,0:0:0:0:
256,192,32289,1,0,0:0:0:0:
36,192,32467,1,0,0:0:0:0:
109,192,32467,1,2,0:0:0:0:
182,192,32467,1,2,0:0:0:0:
329,192,32467,1,2,0:0:0:0:
256,192,32646,1,0,0:0:0:0:
109,192,32735,1,0,0:0:0:0:
36,192,32825,1,0,0:0:0:0:
402,192,33003,1,0,0:0:0:0:
182,192,33003,1,2,0:0:0:0:
329,192,33003,1,2,0:0:0:0:
109,192,33003,1,2,0:0:0:0:
475,192,33092,1,0,0:0:0:0:
329,192,33182,1,0,0:0:0:0:
36,192,33182,1,0,0:0:0:0:
402,192,33360,1,0,0:0:0:0:
256,192,33450,1,0,0:0:0:0:
329,192,33539,1,0,0:0:0:0:
182,192,33539,1,2,0:0:0:0:
402,192,33539,1,2,0:0:0:0:
36,192,33539,1,0,0:0:0:0:
256,192,33717,1,0,0:0:0:0:
182,192,33807,1,0,0:0:0:0:
109,192,33896,1,2,0:0:0:0:
402,192,33896,1,0,0:0:0:0:
475,192,33896,1,2,0:0:0:0:
36,192,33896,1,0,0:0:0:0:
256,192,34075,1,0,0:0:0:0:
329,192,34164,1,0,0:0:0:0:
109,192,34253,1,0,0:0:0:0:
402,192,34253,1,0,0:0:0:0:
36,192,34253,1,0,0:0:0:0:
475,192,34432,1,2,0:0:0:0:
402,192,34432,1,0,0:0:0:0:
109,192,34432,1,2,0:0:0:0:
329,192,34432,1,2,0:0:0:0:
182,192,34521,1,0,0:0:0:0:
109,192,34610,1,0,0:0:0:0:
475,192,34610,1,0,0:0:0:0:
36,192,34610,1,0,0:0:0:0:
402,192,34789,1,0,0:0:0:0:
256,192,34878,1,0,0:0:0:0:
109,192,34967,1,0,0:0:0:0:
329,192,34967,1,0,0:0:0:0:
36,192,34967,1,0,0:0:0:0:
256,192,35146,1,0,0:0:0:0:
182,192,35235,1,0,0:0:0:0:
109,192,35325,1,2,0:0:0:0:
329,192,35325,1,2,0:0:0:0:
475,192,35325,1,0,0:0:0:0:
36,192,35325,1,0,0:0:0:0:
109,192,35503,1,0,0:0:0:0:
182,192,35592,1,0,0:0:0:0:
36,192,35682,1,0,0:0:0:0:
402,192,35682,1,0,0:0:0:0:
256,192,35860,1,0,0:0:0:0:
329,192,35950,1,0,0:0:0:0:
402,192,36039,1,0,0:0:0:0:
182,192,36039,1,0,0:0:0:0:
36,192,36039,1,0,0:0:0:0:
329,192,36128,1,0,0:0:0:0:
109,192,36217,1,0,0:0:0:0:
256,192,36217,1,0,0:0:0:0:
329,192,36307,1,0,0:0:0:0:
402,192,36396,1,0,0:0:0:0:
182,192,36396,1,0,0:0:0:0:
36,192,36396,1,0,0:0:0:0:
475,192,36485,1,0,0:0:0:0:
109,192,36575,1,0,0:0:0:0:
182,192,36575,1,0,0:0:0:0:
256,192,36575,1,2,0:0:0:0:
402,192,36575,1,0,0:0:0:0:
329,192,36575,128,0,36932:0:0:0:0:
402,192,36932,1,8,0:0:0:0:
475,192,36932,1,0,0:0:0:0:
109,192,36932,1,8,0:0:0:0:
36,192,36932,1,0,0:0:0:0:
182,192,36932,1,8,0:0:0:0:
402,192,37110,1,8,0:0:0:0:
475,192,37110,1,0,0:0:0:0:
36,192,37110,1,0,0:0:0:0:
109,192,37110,1,8,0:0:0:0:
329,192,37110,1,8,0:0:0:0:
402,192,37289,1,8,0:0:0:0:
475,192,37289,1,0,0:0:0:0:
109,192,37289,1,8,0:0:0:0:
36,192,37289,1,0,0:0:0:0:
256,192,37289,128,0,37825:0:0:0:0:
329,192,37825,1,0,0:0:0:0:
475,192,37825,1,8,0:0:0:0:
36,192,37825,1,8,0:0:0:0:
182,192,37825,1,8,0:0:0:0:
182,192,38003,1,0,0:0:0:0:
36,192,38003,1,0,0:0:0:0:
402,192,38092,1,0,0:0:0:0:
256,192,38092,1,0,0:0:0:0:
36,192,38182,1,4,0:0:0:0:
329,192,38182,1,4,0:0:0:0:
182,192,38182,1,4,0:0:0:0:
475,192,38182,1,0,0:0:0:0:
256,192,38360,1,0,0:0:0:0:
109,192,38450,1,0,0:0:0:0:
36,192,38450,1,0,0:0:0:0:
475,192,38539,1,8,0:0:0:0:
329,192,38539,1,0,0:0:0:0:
182,192,38717,1,0,0:0:0:0:
256,192,38717,1,0,0:0:0:0:
36,192,38717,1,0,0:0:0:0:
402,192,38807,1,0,0:0:0:0:
109,192,38807,1,0,0:0:0:0:
36,192,38896,1,0,0:0:0:0:
329,192,38896,1,0,0:0:0:0:
182,192,38896,1,0,0:0:0:0:
475,192,38896,1,0,0:0:0:0:
256,192,39075,1,0,0:0:0:0:
109,192,39164,1,0,0:0:0:0:
475,192,39253,1,8,0:0:0:0:
329,192,39253,1,0,0:0:0:0:
182,192,39432,1,0,0:0:0:0:
36,192,39432,1,0,0:0:0:0:
256,192,39521,1,0,0:0:0:0:
36,192,39610,1,0,0:0:0:0:
182,192,39610,1,0,0:0:0:0:
475,192,39610,1,0,0:0:0:0:
329,192,39610,1,0,0:0:0:0:
329,192,39789,1,0,0:0:0:0:
109,192,39878,1,0,0:0:0:0:
475,192,39967,1,8,0:0:0:0:
402,192,39967,1,0,0:0:0:0:
182,192,40146,1,0,0:0:0:0:
329,192,40146,1,0,0:0:0:0:
36,192,40146,1,0,0:0:0:0:
109,192,40235,1,0,0:0:0:0:
256,192,40235,1,0,0:0:0:0:
36,192,40325,1,0,0:0:0:0:
402,192,40325,1,0,0:0:0:0:
182,192,40325,1,0,0:0:0:0:
475,192,40325,1,0,0:0:0:0:
256,192,40503,1,0,0:0:0:0:
402,192,40682,1,8,0:0:0:0:
109,192,40682,1,0,0:0:0:0:
182,192,40860,1,0,0:0:0:0:
329,192,40860,1,0,0:0:0:0:
36,192,40860,1,0,0:0:0:0:
475,192,40860,1,0,0:0:0:0:
256,192,40950,1,0,0:0:0:0:
182,192,41039,1,0,0:0:0:0:
36,192,41039,1,0,0:0:0:0:
402,192,41039,1,0,0:0:0:0:
475,192,41039,1,0,0:0:0:0:
256,192,41217,1,0,0:0:0:0:
402,192,41396,1,8,0:0:0:0:
36,192,41396,1,0,0:0:0:0:
329,192,41575,1,0,0:0:0:0:
109,192,41575,1,0,0:0:0:0:
182,192,41575,1,0,0:0:0:0:
256,192,41664,1,0,0:0:0:0:
182,192,41753,1,0,0:0:0:0:
36,192,41753,1,0,0:0:0:0:
402,192,41753,1,0,0:0:0:0:
329,192,41753,1,0,0:0:0:0:
109,192,41932,1,0,0:0:0:0:
256,192,42021,1,0,0:0:0:0:
475,192,42110,1,8,0:0:0:0:
402,192,42110,1,0,0:0:0:0:
329,192,42289,1,0,0:0:0:0:
109,192,42289,1,0,0:0:0:0:
182,192,42289,1,0,0:0:0:0:
256,192,42378,1,0,0:0:0:0:
402,192,42378,1,0,0:0:0:0:
182,192,42467,1,0,0:0:0:0:
36,192,42467,1,0,0:0:0:0:
329,192,42467,1,0,0:0:0:0:
475,192,42467,1,0,0:0:0:0:
402,192,42646,1,0,0:0:0:0:
256,192,42735,1,0,0:0:0:0:
475,192,42825,1,8,0:0:0:0:
109,192,42825,1,0,0:0:0:0:
329,192,43003,1,0,0:0:0:0:
402,192,43003,1,0,0:0:0:0:
182,192,43003,1,0,0:0:0:0:
36,192,43003,1,0,0:0:0:0:
256,192,43092,1,0,0:0:0:0:
182,192,43182,1,0,0:0:0:0:
109,192,43182,1,0,0:0:0:0:
329,192,43182,1,0,0:0:0:0:
475,192,43182,1,0,0:0:0:0:
402,192,43360,1,0,0:0:0:0:
256,192,43450,1,0,0:0:0:0:
475,192,43539,1,8,0:0:0:0:
109,192,43539,1,0,0:0:0:0:
329,192,43717,1,0,0:0:0:0:
402,192,43717,1,0,0:0:0:0:
182,192,43717,1,0,0:0:0:0:
256,192,43807,1,0,0:0:0:0:
475,192,43807,1,0,0:0:0:0:
329,192,43896,1,0,0:0:0:0:
182,192,43896,1,0,0:0:0:0:
36,192,43896,1,0,0:0:0:0:
109,192,44075,1,0,0:0:0:0:
402,192,44164,1,0,0:0:0:0:
36,192,44253,1,8,0:0:0:0:
182,192,44253,1,0,0:0:0:0:
109,192,44432,1,0,0:0:0:0:
329,192,44432,1,0,0:0:0:0:
402,192,44432,1,0,0:0:0:0:
256,192,44521,1,0,0:0:0:0:
329,192,44610,1,0,0:0:0:0:
182,192,44610,1,0,0:0:0:0:
475,192,44610,1,0,0:0:0:0:
36,192,44610,1,0,0:0:0:0:
109,192,44789,1,0,0:0:0:0:
402,192,44878,1,0,0:0:0:0:
36,192,44967,1,8,0:0:0:0:
182,192,44967,1,0,0:0:0:0:
475,192,45146,1,0,0:0:0:0:
109,192,45146,1,0,0:0:0:0:
329,192,45146,1,0,0:0:0:0:
182,192,45235,1,0,0:0:0:0:
256,192,45325,1,0,0:0:0:0:
475,192,45325,1,0,0:0:0:0:
36,192,45325,1,0,0:0:0:0:
402,192,45325,1,0,0:0:0:0:
109,192,45503,1,0,0:0:0:0:
402,192,45592,1,0,0:0:0:0:
36,192,45682,1,8,0:0:0:0:
256,192,45682,1,0,0:0:0:0:
475,192,45860,1,0,0:0:0:0:
109,192,45860,1,0,0:0:0:0:
329,192,45860,1,0,0:0:0:0:
182,192,45950,1,0,0:0:0:0:
402,192,45950,1,0,0:0:0:0:
329,192,46039,1,0,0:0:0:0:
256,192,46039,1,0,0:0:0:0:
475,192,46039,1,0,0:0:0:0:
36,192,46039,1,0,0:0:0:0:
109,192,46217,1,0,0:0:0:0:
402,192,46307,1,0,0:0:0:0:
36,192,46396,1,8,0:0:0:0:
256,192,46396,1,0,0:0:0:0:
475,192,46575,1,0,0:0:0:0:
109,192,46575,1,0,0:0:0:0:
329,192,46575,1,0,0:0:0:0:
182,192,46575,1,0,0:0:0:0:
402,192,46664,1,0,0:0:0:0:
256,192,46664,1,0,0:0:0:0:
475,192,46753,1,0,0:0:0:0:
182,192,46753,1,0,0:0:0:0:
329,192,46753,1,0,0:0:0:0:
36,192,46753,1,0,0:0:0:0:
256,192,46932,1,0,0:0:0:0:
402,192,47021,1,0,0:0:0:0:
36,192,47110,1,8,0:0:0:0:
182,192,47110,1,0,0:0:0:0:
329,192,47289,1,0,0:0:0:0:
109,192,47289,1,0,0:0:0:0:
475,192,47289,1,0,0:0:0:0:
36,192,47289,1,0,0:0:0:0:
402,192,47378,1,0,0:0:0:0:
256,192,47378,1,0,0:0:0:0:
475,192,47467,1,0,0:0:0:0:
182,192,47467,1,0,0:0:0:0:
329,192,47467,1,0,0:0:0:0:
36,192,47467,1,0,0:0:0:0:
256,192,47646,1,0,0:0:0:0:
36,192,47646,1,0,0:0:0:0:
402,192,47735,1,0,0:0:0:0:
36,192,47825,1,8,0:0:0:0:
182,192,47825,1,0,0:0:0:0:
36,192,48003,1,0,0:0:0:0:
109,192,48003,1,10,0:0:0:0:
475,192,48003,1,0,0:0:0:0:
256,192,48003,1,10,0:0:0:0:
402,192,48003,1,0,0:0:0:0:
182,192,48360,1,0,0:0:0:0:
36,192,48360,1,0,0:0:0:0:
329,192,48360,1,0,0:0:0:0:
256,192,48450,1,0,0:0:0:0:
109,192,48450,1,0,0:0:0:0:
402,192,48450,1,0,0:0:0:0:
329,192,48539,1,0,0:0:0:0:
475,192,48539,1,0,0:0:0:0:
182,192,48539,1,0,0:0:0:0:
36,192,48539,1,0,0:0:0:0:
402,192,48717,1,0,0:0:0:0:
36,192,48717,1,0,0:0:0:0:
329,192,48717,1,0,0:0:0:0:
475,192,48717,1,0,0:0:0:0:
329,192,48896,1,0,0:0:0:0:
402,192,48896,1,0,0:0:0:0:
256,192,48896,1,0,0:0:0:0:
36,192,48896,1,0,0:0:0:0:
329,192,49075,1,0,0:0:0:0:
182,192,49075,1,0,0:0:0:0:
256,192,49075,1,0,0:0:0:0:
36,192,49075,1,0,0:0:0:0:
182,192,49253,1,0,0:0:0:0:
36,192,49253,1,0,0:0:0:0:
109,192,49253,1,0,0:0:0:0:
256,192,49253,1,0,0:0:0:0:
36,192,49432,1,0,0:0:0:0:
182,192,49432,1,0,0:0:0:0:
256,192,49432,1,0,0:0:0:0:
329,192,49432,1,0,0:0:0:0:
329,192,49610,128,0,50682:0:0:0:0:
36,192,49610,1,4,0:0:0:0:
402,192,49610,128,0,50146:0:0:0:0:
256,192,49610,1,4,0:0:0:0:
109,192,50146,1,0,0:0:0:0:
475,192,50146,128,0,50325:0:0:0:0:
182,192,50235,1,0,0:0:0:0:
109,192,50325,1,0,0:0:0:0:
256,192,50325,128,0,50503:0:0:0:0:
36,192,50503,1,0,0:0:0:0:
109,192,50503,128,0,50860:0:0:0:0:
329,192,50860,128,4,51039:0:0:0:0:
36,192,50860,1,0,0:0:0:0:
182,192,50860,128,0,51575:0:0:0:0:
329,192,51217,128,4,52467:0:0:0:0:
36,192,51217,1,0,0:0:0:0:
475,192,51575,1,0,0:0:0:0:
402,192,51664,1,0,0:0:0:0:
109,192,51664,1,0,0:0:0:0:
475,192,51753,1,0,0:0:0:0:
36,192,51753,128,0,52110:0:0:0:0:
256,192,52110,1,0,0:0:0:0:
402,192,52110,128,0,52467:0:0:0:0:
182,192,52467,128,4,53539:0:0:0:0:
475,192,52467,1,0,0:0:0:0:
36,192,52467,128,0,53182:0:0:0:0:
402,192,53003,1,0,0:0:0:0:
329,192,53092,1,0,0:0:0:0:
402,192,53182,1,0,0:0:0:0:
109,192,53182,128,0,53360:0:0:0:0:
475,192,53360,1,0,0:0:0:0:
402,192,53360,128,0,53717:0:0:0:0:
475,192,53717,1,0,0:0:0:0:
182,192,53717,128,4,53896:0:0:0:0:
329,192,53717,128,0,55325:0:0:0:0:
182,192,54075,128,4,55325:0:0:0:0:
475,192,54075,1,0,0:0:0:0:
109,192,54432,1,0,0:0:0:0:
36,192,54521,1,0,0:0:0:0:
109,192,54610,1,2,0:0:0:0:
402,192,54789,1,0,0:0:0:0:
36,192,55146,1,0,0:0:0:0:
475,192,55235,1,0,0:0:0:0:
109,192,55325,128,0,56753:0:0:0:0:
402,192,55325,128,0,56753:0:0:0:0:
256,192,55325,1,4,0:0:0:0:
182,192,55860,1,0,0:0:0:0:
256,192,55950,1,0,0:0:0:0:
329,192,56039,1,0,0:0:0:0:
182,192,56217,1,0,0:0:0:0:
329,192,56217,1,0,0:0:0:0:
36,192,56396,1,0,0:0:0:0:
475,192,56575,1,0,0:0:0:0:
256,192,56753,128,0,58182:0:0:0:0:
36,192,56753,1,4,0:0:0:0:
182,192,56753,128,0,58182:0:0:0:0:
475,192,56932,1,0,0:0:0:0:
475,192,57289,1,0,0:0:0:0:
402,192,57378,1,0,0:0:0:0:
329,192,57467,1,2,0:0:0:0:
36,192,57646,1,0,0:0:0:0:
109,192,57825,1,0,0:0:0:0:
36,192,58003,1,0,0:0:0:0:
109,192,58092,1,0,0:0:0:0:
329,192,58182,128,0,58896:0:0:0:0:
36,192,58182,1,4,0:0:0:0:
402,192,58182,128,0,58896:0:0:0:0:
475,192,58717,1,0,0:0:0:0:
36,192,58896,128,0,59432:0:0:0:0:
256,192,58896,1,4,0:0:0:0:
109,192,58896,128,0,59432:0:0:0:0:
329,192,59075,1,0,0:0:0:0:
402,192,59253,1,0,0:0:0:0:
475,192,59432,128,0,61039:0:0:0:0:
182,192,59432,1,4,0:0:0:0:
256,192,59789,1,0,0:0:0:0:
256,192,59967,1,0,0:0:0:0:
36,192,60146,1,0,0:0:0:0:
256,192,60146,1,0,0:0:0:0:
182,192,60235,1,0,0:0:0:0:
36,192,60325,1,0,0:0:0:0:
109,192,60325,1,0,0:0:0:0:
329,192,60325,1,0,0:0:0:0:
182,192,60414,1,0,0:0:0:0:
402,192,60414,1,0,0:0:0:0:
36,192,60503,1,0,0:0:0:0:
256,192,60503,1,0,0:0:0:0:
329,192,60592,1,0,0:0:0:0:
182,192,60592,1,0,0:0:0:0:
402,192,60682,1,0,0:0:0:0:
36,192,60682,1,8,0:0:0:0:
109,192,60682,1,0,0:0:0:0:
182,192,60771,1,0,0:0:0:0:
329,192,60771,1,0,0:0:0:0:
256,192,60860,1,0,0:0:0:0:
36,192,60860,1,0,0:0:0:0:
329,192,60950,1,0,0:0:0:0:
182,192,60950,1,0,0:0:0:0:
36,192,61039,1,0,0:0:0:0:
109,192,61039,1,0,0:0:0:0:
402,192,61039,1,0,0:0:0:0:
182,192,61128,1,0,0:0:0:0:
329,192,61128,1,0,0:0:0:0:
256,192,61217,1,0,0:0:0:0:
475,192,61217,1,0,0:0:0:0:
329,192,61307,1,0,0:0:0:0:
109,192,61307,1,0,0:0:0:0:
402,192,61396,1,0,0:0:0:0:
36,192,61396,1,0,0:0:0:0:
182,192,61396,1,8,0:0:0:0:
329,192,61485,1,0,0:0:0:0:
475,192,61485,1,0,0:0:0:0:
256,192,61575,1,0,0:0:0:0:
402,192,61575,1,0,0:0:0:0:
182,192,61664,1,0,0:0:0:0:
329,192,61664,1,0,0:0:0:0:
36,192,61753,1,0,0:0:0:0:
109,192,61753,1,0,0:0:0:0:
256,192,61753,1,0,0:0:0:0:
182,192,61842,1,0,0:0:0:0:
475,192,61842,1,0,0:0:0:0:
256,192,61932,1,0,0:0:0:0:
109,192,61932,1,0,0:0:0:0:
402,192,61932,1,0,0:0:0:0:
329,192,62021,1,0,0:0:0:0:
182,192,62021,1,0,0:0:0:0:
402,192,62110,1,0,0:0:0:0:
36,192,62110,1,0,0:0:0:0:
109,192,62110,1,8,0:0:0:0:
329,192,62200,1,0,0:0:0:0:
182,192,62200,1,0,0:0:0:0:
256,192,62289,1,0,0:0:0:0:
475,192,62289,1,0,0:0:0:0:
182,192,62378,1,0,0:0:0:0:
402,192,62378,1,0,0:0:0:0:
36,192,62467,1,0,0:0:0:0:
109,192,62467,1,0,0:0:0:0:
329,192,62467,1,0,0:0:0:0:
182,192,62557,1,0,0:0:0:0:
402,192,62557,1,0,0:0:0:0:
256,192,62646,1,0,0:0:0:0:
475,192,62646,1,0,0:0:0:0:
329,192,62735,1,0,0:0:0:0:
109,192,62735,1,0,0:0:0:0:
402,192,62825,1,0,0:0:0:0:
36,192,62825,1,0,0:0:0:0:
182,192,62825,1,8,0:0:0:0:
329,192,62914,1,0,0:0:0:0:
475,192,62914,1,0,0:0:0:0:
256,192,63003,1,0,0:0:0:0:
402,192,63003,1,0,0:0:0:0:
182,192,63092,1,0,0:0:0:0:
329,192,63092,1,0,0:0:0:0:
36,192,63182,1,0,0:0:0:0:
109,192,63182,1,0,0:0:0:0:
402,192,63182,1,0,0:0:0:0:
182,192,63271,1,0,0:0:0:0:
329,192,63271,1,0,0:0:0:0:
256,192,63360,1,0,0:0:0:0:
109,192,63360,1,0,0:0:0:0:
329,192,63450,1,0,0:0:0:0:
182,192,63450,1,0,0:0:0:0:
402,192,63539,1,0,0:0:0:0:
36,192,63539,1,0,0:0:0:0:
256,192,63539,1,8,0:0:0:0:
329,192,63628,1,0,0:0:0:0:
182,192,63628,1,0,0:0:0:0:
256,192,63717,1,0,0:0:0:0:
109,192,63717,1,0,0:0:0:0:
182,192,63807,1,0,0:0:0:0:
475,192,63807,1,0,0:0:0:0:
109,192,63896,1,0,0:0:0:0:
36,192,63896,1,0,0:0:0:0:
402,192,63896,1,0,0:0:0:0:
475,192,63985,1,0,0:0:0:0:
256,192,63985,1,0,0:0:0:0:
109,192,64075,1,0,0:0:0:0:
402,192,64075,1,0,0:0:0:0:
329,192,64164,1,0,0:0:0:0:
182,192,64164,1,0,0:0:0:0:
402,192,64253,1,8,0:0:0:0:
256,192,64253,1,0,0:0:0:0:
36,192,64253,1,0,0:0:0:0:
109,192,64253,1,0,0:0:0:0:
329,192,64342,1,0,0:0:0:0:
182,192,64342,1,0,0:0:0:0:
256,192,64432,1,0,0:0:0:0:
402,192,64432,1,0,0:0:0:0:
475,192,64521,1,0,0:0:0:0:
329,192,64521,1,0,0:0:0:0:
109,192,64610,1,0,0:0:0:0:
36,192,64610,1,0,0:0:0:0:
402,192,64610,1,0,0:0:0:0:
475,192,64700,1,0,0:0:0:0:
256,192,64700,1,0,0:0:0:0:
109,192,64789,1,0,0:0:0:0:
402,192,64789,1,0,0:0:0:0:
329,192,64878,1,0,0:0:0:0:
182,192,64878,1,0,0:0:0:0:
402,192,64967,1,8,0:0:0:0:
256,192,64967,1,0,0:0:0:0:
36,192,64967,1,0,0:0:0:0:
109,192,64967,1,0,0:0:0:0:
329,192,65057,1,0,0:0:0:0:
182,192,65057,1,0,0:0:0:0:
109,192,65146,1,0,0:0:0:0:
402,192,65146,1,0,0:0:0:0:
475,192,65235,1,0,0:0:0:0:
182,192,65235,1,0,0:0:0:0:
109,192,65325,1,0,0:0:0:0:
36,192,65325,1,0,0:0:0:0:
256,192,65325,1,0,0:0:0:0:
475,192,65414,1,0,0:0:0:0:
329,192,65414,1,0,0:0:0:0:
256,192,65503,1,0,0:0:0:0:
402,192,65503,1,0,0:0:0:0:
329,192,65592,1,0,0:0:0:0:
182,192,65592,1,0,0:0:0:0:
402,192,65682,1,8,0:0:0:0:
256,192,65682,1,0,0:0:0:0:
36,192,65682,1,0,0:0:0:0:
109,192,65682,1,0,0:0:0:0:
329,192,65771,1,0,0:0:0:0:
182,192,65771,1,0,0:0:0:0:
256,192,65860,1,0,0:0:0:0:
402,192,65860,1,0,0:0:0:0:
475,192,65950,1,0,0:0:0:0:
182,192,65950,1,0,0:0:0:0:
109,192,66039,1,0,0:0:0:0:
36,192,66039,1,0,0:0:0:0:
256,192,66039,1,0,0:0:0:0:
402,192,66128,1,0,0:0:0:0:
182,192,66128,1,0,0:0:0:0:
256,192,66217,1,0,0:0:0:0:
109,192,66217,1,0,0:0:0:0:
329,192,66307,1,0,0:0:0:0:
182,192,66307,1,0,0:0:0:0:
402,192,66396,1,8,0:0:0:0:
256,192,66396,1,0,0:0:0:0:
36,192,66396,1,0,0:0:0:0:
109,192,66396,1,0,0:0:0:0:
329,192,66485,1,0,0:0:0:0:
182,192,66485,1,0,0:0:0:0:
256,192,66575,1,0,0:0:0:0:
109,192,66575,1,0,0:0:0:0:
475,192,66664,1,0,0:0:0:0:
329,192,66664,1,0,0:0:0:0:
182,192,66753,1,0,0:0:0:0:
36,192,66753,1,0,0:0:0:0:
402,192,66753,1,0,0:0:0:0:
109,192,66842,1,0,0:0:0:0:
36,192,66932,1,0,0:0:0:0:
475,192,66932,1,0,0:0:0:0:
109,192,67021,1,0,0:0:0:0:
402,192,67021,1,0,0:0:0:0:
329,192,67110,1,0,0:0:0:0:
36,192,67110,1,0,0:0:0:0:
182,192,67110,1,8,0:0:0:0:
109,192,67200,1,0,0:0:0:0:
256,192,67200,1,0,0:0:0:0:
36,192,67289,1,0,0:0:0:0:
475,192,67289,1,0,0:0:0:0:
109,192,67378,1,0,0:0:0:0:
402,192,67378,1,0,0:0:0:0:
182,192,67467,1,0,0:0:0:0:
36,192,67467,1,0,0:0:0:0:
329,192,67467,1,0,0:0:0:0:
109,192,67557,1,0,0:0:0:0:
36,192,67646,1,0,0:0:0:0:
256,192,67646,1,2,0:0:0:0:
402,192,67646,1,2,0:0:0:0:
109,192,67735,1,0,0:0:0:0:
329,192,67825,1,8,0:0:0:0:
36,192,67825,1,0,0:0:0:0:
256,192,67825,1,2,0:0:0:0:
402,192,67825,1,10,0:0:0:0:
109,192,67914,1,0,0:0:0:0:
36,192,68003,1,0,0:0:0:0:
256,192,68003,1,2,0:0:0:0:
402,192,68003,1,2,0:0:0:0:
109,192,68092,1,0,0:0:0:0:
182,192,68182,1,0,0:0:0:0:
475,192,68182,1,0,0:0:0:0:
329,192,68182,1,0,0:0:0:0:
402,192,68271,1,0,0:0:0:0:
475,192,68360,1,0,0:0:0:0:
36,192,68360,1,0,0:0:0:0:
182,192,68360,1,0,0:0:0:0:
402,192,68450,1,0,0:0:0:0:
256,192,68450,1,0,0:0:0:0:
182,192,68539,1,0,0:0:0:0:
475,192,68539,1,0,0:0:0:0:
329,192,68539,1,8,0:0:0:0:
36,192,68539,1,0,0:0:0:0:
402,192,68628,1,0,0:0:0:0:
109,192,68628,1,0,0:0:0:0:
475,192,68717,1,0,0:0:0:0:
36,192,68717,1,0,0:0:0:0:
256,192,68717,1,0,0:0:0:0:
182,192,68717,1,0,0:0:0:0:
402,192,68807,1,0,0:0:0:0:
109,192,68807,1,0,0:0:0:0:
182,192,68896,1,0,0:0:0:0:
475,192,68896,1,0,0:0:0:0:
36,192,68896,1,0,0:0:0:0:
402,192,68985,1,0,0:0:0:0:
475,192,69075,1,0,0:0:0:0:
256,192,69075,1,0,0:0:0:0:
109,192,69075,1,0,0:0:0:0:
36,192,69075,1,0,0:0:0:0:
402,192,69164,1,0,0:0:0:0:
182,192,69164,1,0,0:0:0:0:
329,192,69253,1,8,0:0:0:0:
475,192,69253,1,0,0:0:0:0:
36,192,69253,1,0,0:0:0:0:
109,192,69253,1,0,0:0:0:0:
256,192,69253,1,0,0:0:0:0:
402,192,69342,1,0,0:0:0:0:
182,192,69342,1,0,0:0:0:0:
475,192,69432,1,0,0:0:0:0:
36,192,69432,1,0,0:0:0:0:
402,192,69521,1,0,0:0:0:0:
109,192,69521,1,0,0:0:0:0:
329,192,69610,1,0,0:0:0:0:
36,192,69610,1,0,0:0:0:0:
182,192,69610,1,0,0:0:0:0:
256,192,69700,1,0,0:0:0:0:
329,192,69789,1,0,0:0:0:0:
36,192,69789,1,0,0:0:0:0:
402,192,69878,1,0,0:0:0:0:
329,192,69967,1,0,0:0:0:0:
36,192,69967,1,0,0:0:0:0:
256,192,70057,1,0,0:0:0:0:
36,192,70146,1,0,0:0:0:0:
182,192,70146,1,0,0:0:0:0:
329,192,70146,1,0,0:0:0:0:
402,192,70235,1,0,0:0:0:0:
256,192,70235,1,0,0:0:0:0:
329,192,70325,1,0,0:0:0:0:
475,192,70325,1,0,0:0:0:0:
36,192,70325,1,0,0:0:0:0:
256,192,70414,1,0,0:0:0:0:
402,192,70414,1,0,0:0:0:0:
182,192,70503,1,0,0:0:0:0:
329,192,70503,1,0,0:0:0:0:
36,192,70503,1,0,0:0:0:0:
256,192,70592,1,0,0:0:0:0:
109,192,70592,1,0,0:0:0:0:
475,192,70682,1,0,0:0:0:0:
329,192,70682,1,0,0:0:0:0:
36,192,70682,1,0,0:0:0:0:
402,192,70771,1,0,0:0:0:0:
256,192,70771,1,0,0:0:0:0:
329,192,70860,1,0,0:0:0:0:
36,192,70860,1,0,0:0:0:0:
182,192,70860,1,0,0:0:0:0:
109,192,70950,1,0,0:0:0:0:
256,192,70950,1,0,0:0:0:0:
182,192,71039,128,0,72110:0:0:0:0:
329,192,71039,128,0,72110:0:0:0:0:
36,192,71039,1,0,0:0:0:0:
36,192,72110,1,0,0:0:0:0:
256,192,72110,1,14,0:0:0:0:
475,192,72110,1,0,0:0:0:0:
109,192,72110,1,0,0:0:0:0:
402,192,72110,1,0,0:0:0:0:
36,192,72467,1,4,0:0:0:0:
182,192,72467,1,4,0:0:0:0:
329,192,72467,1,0,0:0:0:0:
475,192,72467,1,0,0:0:0:0:
402,192,72467,1,0,0:0:0:0:
109,192,72557,1,0,0:0:0:0:
256,192,72557,1,0,0:0:0:0:
182,192,72646,1,0,0:0:0:0:
329,192,72646,1,0,0:0:0:0:
256,192,72735,1,0,0:0:0:0:
402,192,72735,1,0,0:0:0:0:
182,192,72825,1,8,0:0:0:0:
36,192,72825,1,0,0:0:0:0:
329,192,72825,1,0,0:0:0:0:
109,192,72914,1,0,0:0:0:0:
256,192,72914,1,0,0:0:0:0:
182,192,73003,1,0,0:0:0:0:
329,192,73003,1,0,0:0:0:0:
256,192,73092,1,0,0:0:0:0:
402,192,73092,1,0,0:0:0:0:
36,192,73182,1,0,0:0:0:0:
475,192,73182,1,0,0:0:0:0:
329,192,73182,1,0,0:0:0:0:
402,192,73271,1,0,0:0:0:0:
256,192,73271,1,0,0:0:0:0:
329,192,73360,1,0,0:0:0:0:
182,192,73360,1,0,0:0:0:0:
256,192,73450,1,0,0:0:0:0:
109,192,73450,1,0,0:0:0:0:
36,192,73539,1,0,0:0:0:0:
475,192,73539,1,8,0:0:0:0:
329,192,73539,1,0,0:0:0:0:
402,192,73628,1,0,0:0:0:0:
256,192,73628,1,0,0:0:0:0:
329,192,73717,1,0,0:0:0:0:
182,192,73717,1,0,0:0:0:0:
256,192,73807,1,0,0:0:0:0:
109,192,73807,1,0,0:0:0:0:
182,192,73896,1,0,0:0:0:0:
36,192,73896,1,0,0:0:0:0:
109,192,73985,1,0,0:0:0:0:
329,192,73985,1,0,0:0:0:0:
256,192,74075,1,0,0:0:0:0:
402,192,74075,1,0,0:0:0:0:
182,192,74075,1,0,0:0:0:0:
109,192,74164,1,0,0:0:0:0:
475,192,74164,1,0,0:0:0:0:
36,192,74253,1,0,0:0:0:0:
182,192,74253,1,8,0:0:0:0:
256,192,74342,1,0,0:0:0:0:
402,192,74342,1,0,0:0:0:0:
109,192,74432,1,0,0:0:0:0:
329,192,74432,1,0,0:0:0:0:
475,192,74432,1,0,0:0:0:0:
402,192,74521,1,0,0:0:0:0:
256,192,74521,1,0,0:0:0:0:
475,192,74610,1,0,0:0:0:0:
36,192,74610,1,0,0:0:0:0:
402,192,74700,1,0,0:0:0:0:
182,192,74700,1,0,0:0:0:0:
109,192,74789,1,0,0:0:0:0:
256,192,74789,1,0,0:0:0:0:
329,192,74789,1,0,0:0:0:0:
402,192,74878,1,0,0:0:0:0:
182,192,74878,1,0,0:0:0:0:
36,192,74967,1,0,0:0:0:0:
329,192,74967,1,8,0:0:0:0:
256,192,75057,1,0,0:0:0:0:
109,192,75057,1,0,0:0:0:0:
402,192,75146,1,0,0:0:0:0:
182,192,75146,1,0,0:0:0:0:
329,192,75146,1,0,0:0:0:0:
256,192,75235,1,0,0:0:0:0:
109,192,75235,1,0,0:0:0:0:
329,192,75325,1,0,0:0:0:0:
36,192,75325,1,0,0:0:0:0:
109,192,75414,1,0,0:0:0:0:
402,192,75414,1,0,0:0:0:0:
182,192,75503,1,0,0:0:0:0:
475,192,75503,1,0,0:0:0:0:
329,192,75503,1,0,0:0:0:0:
256,192,75592,1,0,0:0:0:0:
109,192,75592,1,0,0:0:0:0:
36,192,75682,1,0,0:0:0:0:
329,192,75682,1,8,0:0:0:0:
182,192,75682,1,0,0:0:0:0:
109,192,75771,1,0,0:0:0:0:
402,192,75771,1,0,0:0:0:0:
182,192,75860,1,0,0:0:0:0:
475,192,75860,1,0,0:0:0:0:
329,192,75860,1,0,0:0:0:0:
256,192,75950,1,0,0:0:0:0:
109,192,75950,1,0,0:0:0:0:
36,192,76039,1,0,0:0:0:0:
475,192,76039,1,0,0:0:0:0:
182,192,76039,1,0,0:0:0:0:
109,192,76128,1,0,0:0:0:0:
402,192,76128,1,0,0:0:0:0:
329,192,76217,1,0,0:0:0:0:
182,192,76217,1,0,0:0:0:0:
256,192,76307,1,0,0:0:0:0:
402,192,76307,1,0,0:0:0:0:
109,192,76307,1,0,0:0:0:0:
475,192,76396,1,8,0:0:0:0:
36,192,76396,1,0,0:0:0:0:
329,192,76396,1,0,0:0:0:0:
109,192,76485,1,0,0:0:0:0:
402,192,76485,1,0,0:0:0:0:
256,192,76485,1,0,0:0:0:0:
182,192,76575,1,0,0:0:0:0:
475,192,76575,1,0,0:0:0:0:
329,192,76664,1,0,0:0:0:0:
402,192,76664,1,0,0:0:0:0:
109,192,76664,1,0,0:0:0:0:
36,192,76753,1,0,0:0:0:0:
475,192,76753,1,0,0:0:0:0:
182,192,76753,1,0,0:0:0:0:
109,192,76842,1,0,0:0:0:0:
329,192,76842,1,0,0:0:0:0:
256,192,76932,1,0,0:0:0:0:
402,192,76932,1,0,0:0:0:0:
182,192,76932,1,0,0:0:0:0:
329,192,77021,1,0,0:0:0:0:
109,192,77021,1,0,0:0:0:0:
36,192,77110,1,0,0:0:0:0:
475,192,77110,1,8,0:0:0:0:
402,192,77110,1,0,0:0:0:0:
256,192,77110,1,0,0:0:0:0:
109,192,77200,1,0,0:0:0:0:
329,192,77200,1,0,0:0:0:0:
256,192,77289,1,0,0:0:0:0:
402,192,77289,1,0,0:0:0:0:
182,192,77289,1,0,0:0:0:0:
329,192,77378,1,0,0:0:0:0:
109,192,77378,1,0,0:0:0:0:
36,192,77467,1,0,0:0:0:0:
475,192,77467,1,0,0:0:0:0:
256,192,77467,1,0,0:0:0:0:
402,192,77557,1,0,0:0:0:0:
109,192,77557,1,0,0:0:0:0:
329,192,77646,1,0,0:0:0:0:
182,192,77646,1,0,0:0:0:0:
109,192,77735,1,0,0:0:0:0:
402,192,77735,1,0,0:0:0:0:
256,192,77735,1,0,0:0:0:0:
36,192,77825,1,0,0:0:0:0:
475,192,77825,1,8,0:0:0:0:
329,192,77825,1,0,0:0:0:0:
182,192,77825,1,0,0:0:0:0:
402,192,77914,1,0,0:0:0:0:
109,192,77914,1,0,0:0:0:0:
256,192,77914,1,0,0:0:0:0:
182,192,78003,1,0,0:0:0:0:
329,192,78003,1,0,0:0:0:0:
475,192,78003,1,0,0:0:0:0:
109,192,78092,1,0,0:0:0:0:
402,192,78092,1,0,0:0:0:0:
256,192,78092,1,0,0:0:0:0:
182,192,78182,1,4,0:0:0:0:
329,192,78182,1,0,0:0:0:0:
36,192,78182,128,0,79610:0:0:0:0:
475,192,78182,128,0,79610:0:0:0:0:
256,192,78271,1,0,0:0:0:0:
182,192,78360,1,0,0:0:0:0:
109,192,78450,1,0,0:0:0:0:
182,192,78539,1,8,0:0:0:0:
329,192,78539,1,8,0:0:0:0:
256,192,78628,1,0,0:0:0:0:
109,192,78717,1,0,0:0:0:0:
329,192,78717,1,0,0:0:0:0:
402,192,78807,1,0,0:0:0:0:
182,192,78896,1,0,0:0:0:0:
329,192,78896,1,0,0:0:0:0:
256,192,78985,1,0,0:0:0:0:
182,192,79075,1,0,0:0:0:0:
329,192,79075,1,0,0:0:0:0:
256,192,79164,1,0,0:0:0:0:
109,192,79253,1,8,0:0:0:0:
402,192,79253,1,8,0:0:0:0:
256,192,79342,1,0,0:0:0:0:
182,192,79432,1,0,0:0:0:0:
329,192,79432,1,0,0:0:0:0:
256,192,79610,1,4,0:0:0:0:
109,192,79610,128,0,80146:0:0:0:0:
402,192,79610,128,0,80146:0:0:0:0:
182,192,79967,1,8,0:0:0:0:
329,192,79967,1,8,0:0:0:0:
475,192,80146,128,0,81039:0:0:0:0:
36,192,80146,128,0,81039:0:0:0:0:
256,192,80146,1,4,0:0:0:0:
256,192,80325,1,0,0:0:0:0:
182,192,80325,1,0,0:0:0:0:
402,192,80325,1,0,0:0:0:0:
402,192,80503,1,0,0:0:0:0:
329,192,80503,1,0,0:0:0:0:
109,192,80503,1,0,0:0:0:0:
182,192,80682,1,8,0:0:0:0:
256,192,80682,1,8,0:0:0:0:
402,192,80682,1,0,0:0:0:0:
109,192,80860,1,0,0:0:0:0:
402,192,80860,1,0,0:0:0:0:
182,192,80950,1,0,0:0:0:0:
329,192,80950,1,0,0:0:0:0:
256,192,81039,128,4,81575:0:0:0:0:
109,192,81039,1,0,0:0:0:0:
402,192,81039,1,0,0:0:0:0:
182,192,81128,1,0,0:0:0:0:
329,192,81128,1,0,0:0:0:0:
36,192,81217,1,0,0:0:0:0:
475,192,81217,1,0,0:0:0:0:
109,192,81217,1,0,0:0:0:0:
402,192,81217,1,0,0:0:0:0:
182,192,81396,1,8,0:0:0:0:
329,192,81396,1,8,0:0:0:0:
36,192,81396,1,0,0:0:0:0:
475,192,81396,1,0,0:0:0:0:
36,192,81575,128,0,82110:0:0:0:0:
475,192,81575,128,0,82110:0:0:0:0:
182,192,81575,1,0,0:0:0:0:
329,192,81575,1,0,0:0:0:0:
109,192,81664,1,0,0:0:0:0:
402,192,81664,1,0,0:0:0:0:
182,192,81753,1,0,0:0:0:0:
329,192,81753,1,0,0:0:0:0:
402,192,81842,1,0,0:0:0:0:
256,192,81932,1,0,0:0:0:0:
109,192,81932,1,0,0:0:0:0:
402,192,82021,1,0,0:0:0:0:
182,192,82110,1,8,0:0:0:0:
329,192,82110,1,8,0:0:0:0:
256,192,82110,1,0,0:0:0:0:
256,192,82289,1,12,0:0:0:0:
36,192,82289,1,0,0:0:0:0:
475,192,82289,1,0,0:0:0:0:
109,192,82289,128,0,82825:0:0:0:0:
402,192,82289,128,0,82825:0:0:0:0:
256,192,82646,1,0,0:0:0:0:
182,192,82646,1,0,0:0:0:0:
329,192,82646,1,0,0:0:0:0:
256,192,82825,1,8,0:0:0:0:
36,192,82825,1,0,0:0:0:0:
475,192,82825,1,0,0:0:0:0:
329,192,83003,1,0,0:0:0:0:
182,192,83003,1,0,0:0:0:0:
256,192,83182,1,0,0:0:0:0:
182,192,83182,1,0,0:0:0:0:
36,192,83182,1,0,0:0:0:0:
256,192,83360,1,0,0:0:0:0:
109,192,83360,1,0,0:0:0:0:
402,192,83360,1,0,0:0:0:0:
329,192,83539,1,8,0:0:0:0:
475,192,83539,1,0,0:0:0:0:
256,192,83628,1,0,0:0:0:0:
402,192,83628,1,0,0:0:0:0:
182,192,83717,1,0,0:0:0:0:
329,192,83717,1,0,0:0:0:0:
256,192,83807,1,0,0:0:0:0:
109,192,83807,1,0,0:0:0:0:
36,192,83896,1,0,0:0:0:0:
182,192,83896,1,4,0:0:0:0:
329,192,83896,1,0,0:0:0:0:
475,192,83896,1,0,0:0:0:0:
109,192,83985,1,0,0:0:0:0:
256,192,83985,1,0,0:0:0:0:
329,192,84075,1,0,0:0:0:0:
475,192,84075,1,0,0:0:0:0:
182,192,84075,1,0,0:0:0:0:
256,192,84164,1,0,0:0:0:0:
109,192,84164,1,0,0:0:0:0:
475,192,84253,1,0,0:0:0:0:
182,192,84253,1,8,0:0:0:0:
36,192,84253,1,8,0:0:0:0:
329,192,84253,1,0,0:0:0:0:
402,192,84342,1,0,0:0:0:0:
109,192,84342,1,0,0:0:0:0:
256,192,84432,1,0,0:0:0:0:
329,192,84432,1,0,0:0:0:0:
182,192,84432,1,0,0:0:0:0:
475,192,84432,1,0,0:0:0:0:
402,192,84521,1,0,0:0:0:0:
109,192,84521,1,0,0:0:0:0:
36,192,84610,1,0,0:0:0:0:
329,192,84610,1,0,0:0:0:0:
475,192,84610,1,0,0:0:0:0:
182,192,84610,1,0,0:0:0:0:
402,192,84700,1,0,0:0:0:0:
256,192,84700,1,0,0:0:0:0:
109,192,84789,1,0,0:0:0:0:
182,192,84789,1,0,0:0:0:0:
329,192,84789,1,0,0:0:0:0:
475,192,84789,1,0,0:0:0:0:
256,192,84878,1,0,0:0:0:0:
402,192,84878,1,0,0:0:0:0:
36,192,84967,1,8,0:0:0:0:
475,192,84967,1,0,0:0:0:0:
182,192,84967,1,8,0:0:0:0:
329,192,84967,1,0,0:0:0:0:
109,192,85057,1,0,0:0:0:0:
402,192,85057,1,0,0:0:0:0:
256,192,85146,1,0,0:0:0:0:
182,192,85146,1,0,0:0:0:0:
329,192,85235,1,0,0:0:0:0:
475,192,85235,1,0,0:0:0:0:
109,192,85235,1,0,0:0:0:0:
36,192,85325,1,0,0:0:0:0:
402,192,85325,1,0,0:0:0:0:
256,192,85325,1,0,0:0:0:0:
182,192,85414,1,0,0:0:0:0:
329,192,85414,1,0,0:0:0:0:
109,192,85503,1,0,0:0:0:0:
402,192,85503,1,0,0:0:0:0:
475,192,85503,1,0,0:0:0:0:
256,192,85503,1,0,0:0:0:0:
182,192,85592,1,0,0:0:0:0:
329,192,85592,1,0,0:0:0:0:
36,192,85682,1,0,0:0:0:0:
256,192,85682,1,8,0:0:0:0:
402,192,85682,1,8,0:0:0:0:
329,192,85771,1,0,0:0:0:0:
475,192,85771,1,0,0:0:0:0:
109,192,85771,1,0,0:0:0:0:
402,192,85860,1,0,0:0:0:0:
182,192,85860,1,0,0:0:0:0:
329,192,85950,1,0,0:0:0:0:
475,192,85950,1,0,0:0:0:0:
109,192,85950,1,0,0:0:0:0:
36,192,86039,1,0,0:0:0:0:
256,192,86039,1,0,0:0:0:0:
402,192,86039,1,0,0:0:0:0:
182,192,86128,1,0,0:0:0:0:
475,192,86128,1,0,0:0:0:0:
256,192,86217,1,0,0:0:0:0:
329,192,86217,1,0,0:0:0:0:
402,192,86217,1,0,0:0:0:0:
109,192,86217,1,0,0:0:0:0:
182,192,86307,1,0,0:0:0:0:
475,192,86307,1,0,0:0:0:0:
36,192,86396,1,8,0:0:0:0:
256,192,86396,1,8,0:0:0:0:
402,192,86396,1,0,0:0:0:0:
182,192,86485,1,0,0:0:0:0:
329,192,86485,1,0,0:0:0:0:
109,192,86485,1,0,0:0:0:0:
256,192,86575,1,0,0:0:0:0:
402,192,86575,1,0,0:0:0:0:
475,192,86575,1,0,0:0:0:0:
329,192,86664,1,0,0:0:0:0:
182,192,86664,1,0,0:0:0:0:
36,192,86753,1,0,0:0:0:0:
109,192,86753,1,0,0:0:0:0:
475,192,86753,1,0,0:0:0:0:
256,192,86753,1,0,0:0:0:0:
402,192,86753,1,0,0:0:0:0:
182,192,86842,1,0,0:0:0:0:
329,192,86842,1,0,0:0:0:0:
475,192,86932,1,0,0:0:0:0:
256,192,86932,1,0,0:0:0:0:
109,192,86932,1,0,0:0:0:0:
402,192,86932,1,0,0:0:0:0:
329,192,87021,1,0,0:0:0:0:
182,192,87021,1,0,0:0:0:0:
36,192,87110,1,0,0:0:0:0:
402,192,87110,1,8,0:0:0:0:
475,192,87110,1,8,0:0:0:0:
256,192,87110,1,0,0:0:0:0:
329,192,87200,1,0,0:0:0:0:
182,192,87200,1,0,0:0:0:0:
109,192,87289,1,0,0:0:0:0:
256,192,87289,1,0,0:0:0:0:
475,192,87289,1,0,0:0:0:0:
402,192,87378,1,0,0:0:0:0:
182,192,87378,1,0,0:0:0:0:
329,192,87378,1,0,0:0:0:0:
475,192,87467,1,0,0:0:0:0:
109,192,87467,1,0,0:0:0:0:
36,192,87467,1,0,0:0:0:0:
182,192,87557,1,0,0:0:0:0:
256,192,87557,1,0,0:0:0:0:
402,192,87557,1,0,0:0:0:0:
329,192,87646,1,0,0:0:0:0:
475,192,87646,1,0,0:0:0:0:
256,192,87735,1,0,0:0:0:0:
109,192,87735,1,0,0:0:0:0:
182,192,87735,1,0,0:0:0:0:
36,192,87825,1,0,0:0:0:0:
402,192,87825,1,8,0:0:0:0:
475,192,87825,1,8,0:0:0:0:
329,192,87914,1,0,0:0:0:0:
182,192,87914,1,0,0:0:0:0:
256,192,88003,1,0,0:0:0:0:
109,192,88003,1,0,0:0:0:0:
402,192,88003,1,0,0:0:0:0:
182,192,88092,1,0,0:0:0:0:
329,192,88092,1,0,0:0:0:0:
36,192,88182,1,0,0:0:0:0:
109,192,88182,1,0,0:0:0:0:
402,192,88182,1,0,0:0:0:0:
475,192,88182,1,0,0:0:0:0:
256,192,88182,1,0,0:0:0:0:
329,192,88360,1,8,0:0:0:0:
36,192,88360,1,0,0:0:0:0:
109,192,88360,1,0,0:0:0:0:
256,192,88360,1,0,0:0:0:0:
182,192,88450,1,8,0:0:0:0:
475,192,88450,1,0,0:0:0:0:
402,192,88450,1,0,0:0:0:0:
329,192,88539,1,8,0:0:0:0:
36,192,88539,1,0,0:0:0:0:
109,192,88539,1,0,0:0:0:0:
256,192,88539,1,0,0:0:0:0:
36,192,88717,1,4,0:0:0:0:
109,192,88717,1,4,0:0:0:0:
182,192,88717,1,8,0:0:0:0:
256,192,88717,1,8,0:0:0:0:
329,192,88717,1,8,0:0:0:0:
475,192,89075,1,4,0:0:0:0:
402,192,89075,1,4,0:0:0:0:
329,192,89075,1,8,0:0:0:0:
256,192,89075,1,8,0:0:0:0:
182,192,89075,1,8,0:0:0:0:
109,192,89432,1,0,0:0:0:0:
256,192,89432,1,4,0:0:0:0:
402,192,89432,1,0,0:0:0:0:
182,192,89432,128,4,90325:0:0:0:0:
329,192,89432,128,4,90325:0:0:0:0:
36,192,89610,1,0,0:0:0:0:
109,192,89789,1,2,0:0:0:0:
256,192,89789,1,8,0:0:0:0:
402,192,89789,1,0,0:0:0:0:
109,192,89967,1,2,0:0:0:0:
256,192,89967,1,8,0:0:0:0:
402,192,89967,1,0,0:0:0:0:
36,192,89967,1,0,0:0:0:0:
109,192,90146,1,2,0:0:0:0:
402,192,90146,1,0,0:0:0:0:
256,192,90146,128,0,90682:0:0:0:0:
36,192,90325,1,0,0:0:0:0:
475,192,90503,1,0,0:0:0:0:
182,192,90503,1,0,0:0:0:0:
475,192,90682,1,0,0:0:0:0:
36,192,90682,1,0,0:0:0:0:
182,192,90682,1,0,0:0:0:0:
109,192,90860,128,0,91753:0:0:0:0:
402,192,90860,128,0,91753:0:0:0:0:
36,192,91039,1,0,0:0:0:0:
475,192,91039,1,0,0:0:0:0:
182,192,91217,1,2,0:0:0:0:
256,192,91217,1,8,0:0:0:0:
329,192,91217,1,0,0:0:0:0:
256,192,91396,1,8,0:0:0:0:
36,192,91396,1,2,0:0:0:0:
475,192,91396,1,0,0:0:0:0:
182,192,91575,1,2,0:0:0:0:
329,192,91575,1,0,0:0:0:0:
256,192,91575,128,0,92110:0:0:0:0:
36,192,91753,1,0,0:0:0:0:
402,192,91932,1,0,0:0:0:0:
475,192,91932,1,0,0:0:0:0:
109,192,92110,1,0,0:0:0:0:
475,192,92110,1,0,0:0:0:0:
36,192,92110,1,0,0:0:0:0:
329,192,92289,1,0,0:0:0:0:
182,192,92289,1,0,0:0:0:0:
256,192,92378,1,0,0:0:0:0:
109,192,92378,1,0,0:0:0:0:
36,192,92467,1,0,0:0:0:0:
329,192,92467,1,0,0:0:0:0:
402,192,92467,1,0,0:0:0:0:
475,192,92467,1,0,0:0:0:0:
36,192,92646,1,0,0:0:0:0:
329,192,92646,1,0,0:0:0:0:
475,192,92646,1,0,0:0:0:0:
36,192,92825,1,0,0:0:0:0:
109,192,92825,1,0,0:0:0:0:
182,192,92825,1,0,0:0:0:0:
256,192,92825,1,0,0:0:0:0:
36,192,93003,1,0,0:0:0:0:
109,192,93003,1,0,0:0:0:0:
256,192,93003,1,0,0:0:0:0:
36,192,93182,1,0,0:0:0:0:
329,192,93182,1,0,0:0:0:0:
402,192,93182,1,0,0:0:0:0:
475,192,93182,1,0,0:0:0:0:
36,192,93360,1,0,0:0:0:0:
329,192,93360,1,0,0:0:0:0:
475,192,93360,1,0,0:0:0:0:
36,192,93539,1,0,0:0:0:0:
182,192,93539,1,0,0:0:0:0:
329,192,93539,1,0,0:0:0:0:
475,192,93539,1,0,0:0:0:0:
402,192,93628,1,0,0:0:0:0:
256,192,93628,1,0,0:0:0:0:
109,192,93628,1,0,0:0:0:0:
36,192,93717,1,0,0:0:0:0:
182,192,93717,1,0,0:0:0:0:
329,192,93717,1,0,0:0:0:0:
475,192,93717,1,0,0:0:0:0:
402,192,93807,1,0,0:0:0:0:
256,192,93807,1,0,0:0:0:0:
109,192,93807,1,0,0:0:0:0:
36,192,93896,128,4,94967:0:0:0:0:
182,192,93896,128,4,94967:0:0:0:0:
329,192,93896,128,4,94967:0:0:0:0:
475,192,93896,128,4,94967:0:0:0:0:
256,192,94967,1,0,0:0:0:0:
402,192,94967,1,10,1:0:0:0:
109,192,94967,1,10,1:0:0:0:
182,192,95325,1,8,0:0:0:0:
256,192,95325,1,4,0:0:0:0:
329,192,95325,1,0,0:0:0:0:
475,192,95503,1,0,0:0:0:0:
256,192,95682,1,0,0:0:0:0:
109,192,95682,1,0,0:0:0:0:
402,192,95682,1,0,0:0:0:0:
36,192,95860,1,0,0:0:0:0:
182,192,95860,1,2,0:0:0:0:
329,192,95860,1,0,0:0:0:0:
475,192,96039,1,0,0:0:0:0:
109,192,96217,1,0,0:0:0:0:
256,192,96217,1,2,0:0:0:0:
402,192,96217,1,0,0:0:0:0:
36,192,96396,1,0,0:0:0:0:
182,192,96396,1,0,0:0:0:0:
329,192,96396,1,0,0:0:0:0:
182,192,96575,1,0,0:0:0:0:
329,192,96575,1,2,0:0:0:0:
475,192,96575,1,0,0:0:0:0:
36,192,96753,1,0,0:0:0:0:
182,192,96932,1,0,0:0:0:0:
329,192,96932,1,2,0:0:0:0:
475,192,96932,1,0,0:0:0:0:
402,192,97110,1,0,0:0:0:0:
256,192,97110,1,0,0:0:0:0:
109,192,97110,1,0,0:0:0:0:
329,192,97289,1,0,0:0:0:0:
182,192,97289,1,2,0:0:0:0:
36,192,97289,1,0,0:0:0:0:
109,192,97467,1,0,0:0:0:0:
256,192,97467,1,0,0:0:0:0:
402,192,97467,1,0,0:0:0:0:
182,192,97646,1,0,0:0:0:0:
329,192,97646,1,0,0:0:0:0:
475,192,97646,1,0,0:0:0:0:
109,192,97825,1,0,0:0:0:0:
256,192,97825,1,0,0:0:0:0:
402,192,97825,1,0,0:0:0:0:
36,192,98003,1,0,0:0:0:0:
182,192,98003,1,0,0:0:0:0:
109,192,98092,1,0,0:0:0:0:
256,192,98092,1,0,0:0:0:0:
182,192,98182,1,2,0:0:0:0:
329,192,98182,1,0,0:0:0:0:
256,192,98360,1,0,0:0:0:0:
109,192,98360,1,0,0:0:0:0:
182,192,98539,1,2,0:0:0:0:
329,192,98539,1,0,0:0:0:0:
36,192,98539,1,0,0:0:0:0:
475,192,98539,1,0,0:0:0:0:
256,192,98717,1,0,0:0:0:0:
402,192,98717,1,0,0:0:0:0:
109,192,98896,1,0,0:0:0:0:
402,192,98896,1,0,0:0:0:0:
182,192,99075,1,2,0:0:0:0:
329,192,99075,1,0,0:0:0:0:
36,192,99075,1,0,0:0:0:0:
475,192,99075,1,0,0:0:0:0:
256,192,99253,1,0,0:0:0:0:
402,192,99253,1,0,0:0:0:0:
182,192,99432,1,2,0:0:0:0:
329,192,99432,1,0,0:0:0:0:
475,192,99432,1,0,0:0:0:0:
36,192,99432,1,0,0:0:0:0:
402,192,99610,1,0,0:0:0:0:
109,192,99610,1,0,0:0:0:0:
36,192,99789,1,2,0:0:0:0:
475,192,99789,1,0,0:0:0:0:
256,192,99789,1,0,0:0:0:0:
402,192,99967,1,0,0:0:0:0:
109,192,99967,1,0,0:0:0:0:
256,192,99967,1,0,0:0:0:0:
256,192,100146,1,2,0:0:0:0:
182,192,100146,128,0,100682:0:0:0:0:
329,192,100146,128,0,100682:0:0:0:0:
36,192,100325,1,0,0:0:0:0:
109,192,100325,1,0,0:0:0:0:
402,192,100503,1,0,0:0:0:0:
475,192,100503,1,0,0:0:0:0:
36,192,100682,1,2,0:0:0:0:
475,192,100682,1,0,0:0:0:0:
402,192,100771,1,0,0:0:0:0:
109,192,100771,1,0,0:0:0:0:
182,192,100860,1,0,0:0:0:0:
329,192,100860,1,0,0:0:0:0:
402,192,100950,1,0,0:0:0:0:
109,192,100950,1,0,0:0:0:0:
475,192,101039,1,4,0:0:0:0:
256,192,101039,1,2,0:0:0:0:
36,192,101039,1,4,0:0:0:0:
109,192,101217,1,0,0:0:0:0:
402,192,101217,1,0,0:0:0:0:
182,192,101396,1,0,0:0:0:0:
329,192,101396,1,0,0:0:0:0:
36,192,101575,1,0,0:0:0:0:
475,192,101575,1,0,0:0:0:0:
109,192,101575,1,2,0:0:0:0:
402,192,101575,1,0,0:0:0:0:
182,192,101753,1,0,0:0:0:0:
329,192,101753,1,0,0:0:0:0:
36,192,101932,1,0,0:0:0:0:
256,192,101932,1,2,0:0:0:0:
475,192,101932,1,0,0:0:0:0:
182,192,102110,1,0,0:0:0:0:
329,192,102110,1,0,0:0:0:0:
36,192,102289,1,0,0:0:0:0:
402,192,102289,1,2,0:0:0:0:
475,192,102289,1,0,0:0:0:0:
109,192,102289,1,0,0:0:0:0:
182,192,102467,1,0,0:0:0:0:
329,192,102467,1,0,0:0:0:0:
402,192,102646,1,2,0:0:0:0:
475,192,102646,1,0,0:0:0:0:
36,192,102646,1,0,0:0:0:0:
109,192,102646,1,0,0:0:0:0:
36,192,102825,1,0,0:0:0:0:
475,192,102825,1,0,0:0:0:0:
182,192,102825,1,0,0:0:0:0:
329,192,102825,1,0,0:0:0:0:
36,192,103003,1,0,0:0:0:0:
475,192,103003,1,0,0:0:0:0:
109,192,103003,1,2,0:0:0:0:
402,192,103003,1,0,0:0:0:0:
36,192,103182,1,0,0:0:0:0:
182,192,103182,1,0,0:0:0:0:
329,192,103182,1,0,0:0:0:0:
109,192,103360,1,0,0:0:0:0:
256,192,103360,1,0,0:0:0:0:
402,192,103360,1,0,0:0:0:0:
182,192,103539,1,0,0:0:0:0:
329,192,103539,1,0,0:0:0:0:
475,192,103539,1,0,0:0:0:0:
36,192,103717,1,0,0:0:0:0:
182,192,103717,1,2,0:0:0:0:
109,192,103807,1,0,0:0:0:0:
256,192,103807,1,0,0:0:0:0:
182,192,103896,1,0,0:0:0:0:
329,192,103896,1,0,0:0:0:0:
475,192,104075,1,0,0:0:0:0:
329,192,104075,1,2,0:0:0:0:
402,192,104164,1,0,0:0:0:0:
256,192,104164,1,0,0:0:0:0:
329,192,104253,1,0,0:0:0:0:
182,192,104253,1,0,0:0:0:0:
36,192,104432,1,0,0:0:0:0:
182,192,104432,1,2,0:0:0:0:
109,192,104521,1,0,0:0:0:0:
256,192,104521,1,0,0:0:0:0:
182,192,104610,1,0,0:0:0:0:
329,192,104610,1,0,0:0:0:0:
402,192,104700,1,0,0:0:0:0:
109,192,104700,1,0,0:0:0:0:
182,192,104789,1,0,0:0:0:0:
329,192,104789,1,0,0:0:0:0:
109,192,104878,1,0,0:0:0:0:
402,192,104878,1,0,0:0:0:0:
182,192,104967,1,0,0:0:0:0:
329,192,104967,1,0,0:0:0:0:
402,192,105057,1,0,0:0:0:0:
109,192,105057,1,0,0:0:0:0:
36,192,105146,1,2,0:0:0:0:
329,192,105146,1,8,0:0:0:0:
475,192,105146,1,2,0:0:0:0:
182,192,105146,1,8,0:0:0:0:
182,192,105503,1,8,0:0:0:0:
36,192,105503,1,2,0:0:0:0:
329,192,105503,1,2,0:0:0:0:
475,192,105503,1,8,0:0:0:0:
256,192,105682,1,0,0:0:0:0:
109,192,105682,1,0,0:0:0:0:
402,192,105682,1,0,0:0:0:0:
36,192,105860,1,2,0:0:0:0:
109,192,105860,1,8,0:0:0:0:
402,192,105860,1,8,0:0:0:0:
329,192,105860,1,2,0:0:0:0:
475,192,106039,1,8,0:0:0:0:
402,192,106039,1,2,0:0:0:0:
109,192,106039,1,8,0:0:0:0:
182,192,106039,1,2,0:0:0:0:
109,192,106396,1,4,0:0:0:0:
182,192,106396,1,0,0:0:0:0:
256,192,106396,1,4,0:0:0:0:
329,192,106396,1,0,0:0:0:0:
402,192,106396,1,4,0:0:0:0:
109,192,106753,1,4,0:0:0:0:
36,192,106753,128,4,108896:0:0:0:0:
402,192,107289,1,0,0:0:0:0:
256,192,107825,1,0,0:0:0:0:
182,192,108182,1,0,0:0:0:0:
475,192,108896,128,0,109075:0:0:0:0:
329,192,108896,128,0,109075:0:0:0:0:
402,192,109075,128,0,109253:0:0:0:0:
256,192,109075,128,0,109253:0:0:0:0:
329,192,109253,128,0,109432:0:0:0:0:
182,192,109253,128,0,109432:0:0:0:0:
256,192,109432,128,0,109610:0:0:0:0:
109,192,109432,128,0,109610:0:0:0:0:
36,192,109610,1,0,0:0:0:0:
36,192,109967,1,0,0:0:0:0:
182,192,110146,1,0,0:0:0:0:
36,192,110325,1,0,0:0:0:0:
36,192,110682,1,0,0:0:0:0:
256,192,110682,1,0,0:0:0:0:
402,192,110682,1,0,0:0:0:0:
36,192,111039,1,0,0:0:0:0:
329,192,111039,1,0,0:0:0:0:
402,192,111039,1,0,0:0:0:0:
475,192,111039,1,0,0:0:0:0:
36,192,111217,1,0,0:0:0:0:
36,192,111396,1,0,0:0:0:0:
36,192,111575,1,0,0:0:0:0:
36,192,111753,1,8,0:0:0:0:
475,192,111753,1,0,0:0:0:0:
109,192,111753,1,0,0:0:0:0:
402,192,111753,1,0,0:0:0:0:
256,192,111842,1,0,0:0:0:0:
36,192,111932,1,8,0:0:0:0:
475,192,111932,1,0,0:0:0:0:
109,192,111932,1,0,0:0:0:0:
402,192,111932,1,0,0:0:0:0:
256,192,112021,1,0,0:0:0:0:
36,192,112110,1,8,0:0:0:0:
475,192,112110,1,0,0:0:0:0:
402,192,112110,1,0,0:0:0:0:
109,192,112110,1,0,0:0:0:0:
256,192,112200,1,0,0:0:0:0:
36,192,112289,1,8,0:0:0:0:
475,192,112289,1,0,0:0:0:0:
109,192,112289,1,0,0:0:0:0:
402,192,112289,1,0,0:0:0:0:
256,192,112378,1,0,0:0:0:0:
36,192,112467,128,0,119610:0:0:0:0:
182,192,112467,128,4,119610:0:0:0:0:
329,192,112467,128,4,119610:0:0:0:0:
475,192,112467,128,0,119610:0:0:0:0:
