osu file format v14

[General]
AudioFilename: Kiss no Hitotsu de.mp3
AudioLeadIn: 1500
PreviewTime: 180526
Countdown: 0
SampleSet: Soft
StackLeniency: 0.7
Mode: 0
LetterboxInBreaks: 0
WidescreenStoryboard: 0

[Editor]
DistanceSpacing: 0.8
BeatDivisor: 4
GridSize: 8
TimelineZoom: 3.099998

[Metadata]
Title:Kiss no Hitotsu de
TitleUnicode:キスのひとつで
Artist:Sasaki Sayaka
ArtistUnicode:佐咲紗花
Creator:-Nanaka-
Version:Collab Insane
Source:ちいさな彼女の小夜曲
Tags:feng eroge ending Chiisana Kanojo no Serenade sinku -kanami- sF3min Snow Lover
BeatmapID:382777
BeatmapSetID:153874

[Difficulty]
HPDrainRate:7
CircleSize:4
OverallDifficulty:7
ApproachRate:9
SliderMultiplier:1.7
SliderTickRate:1

[Events]
//Background and Video events
0,0,"BG3.jpg",0,0
//Break Periods
2,131498,132955
2,145212,149755
//Storyboard Layer 0 (Background)
//Storyboard Layer 1 (Fail)
//Storyboard Layer 2 (Pass)
//Storyboard Layer 3 (Foreground)
//Storyboard Sound Samples

[TimingPoints]
185,342.857142857143,4,2,1,40,1,0
185,-133.333333333333,4,2,1,40,0,0
10299,-133.333333333333,4,2,2,40,0,0
11156,-133.333333333333,4,2,1,50,0,0
21442,-100,4,2,1,60,0,0
27613,-200,4,2,1,60,0,0
30185,-100,4,2,1,60,0,0
33099,-100,4,2,1,75,0,1
55042,-100,4,2,1,75,0,1
56585,-200,4,2,1,75,0,0
56756,342.857142857143,4,2,1,35,1,0
57698,-100,4,2,1,75,0,0
58127,-200,4,2,1,45,0,0
60784,-100,4,2,2,20,0,0
60870,-100,4,2,2,30,0,0
61041,-133.333333333333,4,2,1,40,0,0
66356,-133.333333333333,4,2,1,45,0,0
66698,-133.333333333333,4,2,1,50,0,0
67041,-133.333333333333,4,2,1,55,0,0
67384,-133.333333333333,4,2,1,60,0,0
67727,-100,4,2,1,65,0,0
95156,-83.3333333333333,4,2,1,65,0,0
97213,-133.333333333333,4,2,1,65,0,0
97898,-100,4,2,1,65,0,0
99784,-133.333333333333,4,2,1,65,0,0
103041,-200,4,2,1,65,0,0
103384,-90.9090909090909,4,2,1,65,0,0
106127,-100,4,2,1,75,0,1
128070,-100,4,2,1,75,0,1
129098,-100,4,2,1,75,0,1
129613,-200,4,2,1,75,0,0
129784,342.857142857143,4,2,1,35,1,0
130726,-100,4,2,1,75,0,0
131026,-100,4,2,2,35,0,0
131155,-100,4,2,2,55,0,0
133898,-200,4,2,1,50,0,0
150012,-100,4,2,1,60,0,0
172298,-100,4,2,1,65,0,0
172641,-76.9230769230769,4,2,1,65,0,0
172984,-100,4,2,1,65,0,0
180526,-200,4,2,1,55,0,0
181212,-200,4,2,2,60,0,0
184126,-200,4,2,1,60,0,0
184641,-200,4,2,2,60,0,0
186012,-133.333333333333,4,2,1,65,0,0
188755,-111.111111111111,4,2,1,70,0,0
190126,-83.3333333333333,4,2,1,75,0,1
191412,-100,4,2,1,75,0,0
191498,-200,4,2,1,75,0,1
192012,-76.9230769230769,4,2,1,75,0,1
192098,-76.9230769230769,4,2,1,75,0,0
192184,-76.9230769230769,4,2,1,75,0,1
192869,-100,4,2,1,75,0,1
193984,-100,4,2,1,75,0,0
194069,-76.9230769230769,4,2,1,75,0,1
194755,-83.3333333333333,4,2,1,75,0,1
204184,342.857142857143,4,2,1,75,1,1
205555,-100,4,2,1,75,0,1
207869,-100,4,2,1,75,0,0
207955,-100,4,2,1,75,0,1
208812,-100,4,2,1,75,0,0
208898,-100,4,2,1,75,0,1
211041,-100,4,2,2,75,0,1
213784,-100,4,2,1,70,0,0
214126,-100,4,2,2,70,0,0
214469,-100,4,2,1,70,0,0
232984,-100,4,2,2,70,0,0
237098,-100,4,2,1,70,0,0
238469,-100,4,2,2,70,0,0
241041,-100,4,2,1,70,0,0
244169,-100,4,2,2,50,0,0
244298,-100,4,2,1,70,0,0
244384,-100,4,2,1,50,0,0
246355,-100,4,2,1,40,0,0
247726,-100,4,2,1,30,0,0
248241,-100,4,2,1,20,0,0
248755,-100,4,2,1,5,0,0

[Colours]
Combo1 : 255,105,180
Combo2 : 30,144,255
Combo3 : 127,255,212
Combo4 : 238,232,170

[HitObjects]
256,192,185,5,2,0:0:0:0:
108,128,870,2,0,P|104:164|96:208,1,63.7500024318696,2|0,0:0|0:0,0:0:0:0:
168,272,1213,1,0,0:0:0:0:
100,344,1385,1,0,0:0:0:0:
216,348,1556,2,0,P|256:344|288:332,1,63.7500024318696,2|0,0:0|0:0,0:0:0:0:
332,256,1899,1,0,0:0:0:0:
420,300,2070,2,0,L|440:236,1,63.7500024318696,0|2,0:0|0:0,0:0:0:0:
338,170,2413,1,0,0:0:0:0:
408,100,2585,1,0,0:0:0:0:
456,200,2756,1,0,0:0:0:0:
338,170,2927,6,0,P|302:188|215:165,1,127.500004863739,2|0,0:0|0:0,0:0:0:0:
176,64,3442,2,0,L|108:32,2,63.7500024318696,0|2|0,0:0|0:0|0:0,0:0:0:0:
272,104,3956,1,0,0:0:0:0:
360,52,4127,2,0,P|416:96|432:160,2,127.500004863739,0|0|0,0:0|0:0|0:0,0:0:0:0:
344,140,4985,1,2,0:0:0:0:
432,228,5156,2,0,L|380:280,1,63.7500024318696
288,256,5499,1,0,0:0:0:0:
232,340,5670,6,0,L|156:300,2,63.7500024318696,2|0|0,0:0|0:0|0:0,0:0:0:0:
212,240,6185,1,0,0:0:0:0:
112,252,6356,1,2,0:0:0:0:
40,180,6527,1,0,0:0:0:0:
144,48,6699,1,0,0:0:0:0:
144,48,6870,2,0,P|160:96|160:176,1,127.500004863739,0|0,0:0|0:0,0:0:0:0:
160,172,7385,1,0,0:0:0:0:
272,48,7556,2,0,L|332:92,1,63.7500024318696,0|2,0:0|0:0,0:0:0:0:
296,184,7899,2,0,L|356:228,1,63.7500024318696
312,320,8242,1,0,0:0:0:0:
296,184,8413,5,2,0:0:0:0:
240,248,8585,2,0,L|180:204,2,63.7500024318696
136,64,9099,1,2,0:0:0:0:
96,184,9270,1,0,0:0:0:0:
176,136,9442,1,0,0:0:0:0:
48,112,9613,2,0,P|16:144|32:240,1,127.500004863739,0|0,0:0|0:0,0:0:0:0:
312,136,10299,5,2,0:0:0:0:
320,144,10642,1,2,0:0:0:0:
328,152,10985,1,2,0:0:0:0:
384,216,11156,6,0,P|424:280|400:320,1,127.500004863739,2|0,0:0|0:0,0:0:0:0:
148,180,11842,1,2,0:0:0:0:
64,124,12013,2,0,L|112:52,1,63.7500024318696
196,108,12356,1,0,0:0:0:0:
144,196,12527,2,0,L|156:272,1,63.7500024318696,2|0,0:0|0:0,0:0:0:0:
232,344,12870,2,0,L|248:272,1,63.7500024318696
236,200,13213,2,0,P|304:196|348:232,1,127.500004863739,2|0,0:0|0:0,0:0:0:0:
392,312,13727,1,0,0:0:0:0:
448,240,13899,6,0,L|436:168,1,63.7500024318696,2|0,0:0|0:0,0:0:0:0:
368,84,14242,1,0,0:0:0:0:
280,32,14413,1,0,0:0:0:0:
240,128,14585,1,2,0:0:0:0:
316,60,14756,1,0,0:0:0:0:
224,20,14927,1,0,0:0:0:0:
260,120,15099,2,0,L|280:270,1,127.500004863739,2|0,0:0|0:0,0:0:0:0:
172,344,15785,2,0,P|112:316|108:240,1,127.500004863739,2|0,0:0|0:0,0:0:0:0:
156,132,16299,1,0,0:0:0:0:
60,168,16470,1,0,0:0:0:0:
176,232,16642,6,0,L|300:280,1,127.500004863739,2|0,0:0|0:0,0:0:0:0:
376,92,17327,1,2,0:0:0:0:
436,176,17499,2,0,L|384:216,1,63.7500024318696
284,216,17842,1,0,0:0:0:0:
308,116,18013,2,0,P|248:92|192:120,1,127.500004863739,2|0,0:0|0:0,0:0:0:0:
108,172,18527,2,0,L|140:240,1,63.7500024318696,0|2,0:0|0:0,0:0:0:0:
88,320,18870,1,0,0:0:0:0:
172,264,19042,1,0,0:0:0:0:
236,344,19213,2,0,L|304:304,1,63.7500024318696,0|2,0:0|0:0,0:0:0:0:
384,268,19556,5,0,0:0:0:0:
384,268,19727,1,0,0:0:0:0:
432,176,19899,1,0,0:0:0:0:
364,104,20070,1,2,0:0:0:0:
348,204,20242,1,0,0:0:0:0:
412,124,20413,1,0,0:0:0:0:
316,152,20585,1,0,0:0:0:0:
412,124,20756,1,2,0:0:0:0:
288,72,20927,2,0,P|240:56|160:80,1,127.500004863739,8|0,0:0|0:0,0:0:0:0:
54,202,21442,6,0,P|110:124|84:56,1,170,0|0,0:0|0:0,0:0:0:0:
88,60,22127,6,0,P|164:60|232:132,1,170,6|8,0:0|0:0,0:0:0:0:
120,200,22642,1,0,0:0:0:0:
200,296,22813,1,2,0:0:0:0:
256,188,22985,1,0,0:0:0:0:
256,188,23070,1,0,0:0:0:0:
256,188,23156,1,8,0:0:0:0:
340,264,23327,6,0,P|380:208|476:200,1,170,0|0,0:0|0:0,0:0:0:0:
396,120,23842,1,8,0:0:0:0:
434,288,24013,1,0,0:0:0:0:
434,288,24099,1,0,0:0:0:0:
434,288,24185,1,2,0:0:0:0:
340,368,24356,1,0,0:0:0:0:
340,264,24527,2,0,L|340:179,1,85,8|0,0:0|0:0,0:0:0:0:
340,179,24870,6,0,P|248:152|172:192,1,170,2|8,0:0|0:0,0:0:0:0:
168,292,25385,1,0,0:0:0:0:
260,244,25556,1,2,0:0:0:0:
260,152,25727,2,0,L|260:68,1,85,0|8,0:0|0:0,0:0:0:0:
408,124,26070,1,0,0:0:0:0:
388,248,26242,6,0,P|356:324|280:368,2,170,2|8|2,0:0|0:0|0:0,0:0:0:0:
260,244,27099,1,0,0:0:0:0:
168,152,27270,1,8,0:0:0:0:
180,120,27356,1,0,0:0:0:0:
200,92,27442,1,0,0:0:0:0:
224,72,27527,1,0,0:0:0:0:
256,54,27613,6,0,L|348:53,1,85,2|0,0:0|0:0,0:0:0:0:
416,192,28127,2,0,P|404:236|376:272,1,85,2|0,0:0|0:0,0:0:0:0:
324,200,28642,1,0,0:0:0:0:
288,276,28813,2,0,L|204:276,1,85,2|0,0:0|0:0,0:0:0:0:
128,240,29327,1,2,0:0:0:0:
180,172,29499,1,0,0:0:0:0:
112,120,29670,1,2,0:0:0:0:
176,64,29842,1,0,0:0:0:0:
244,116,30013,2,0,L|296:100,1,42.5,0|0,0:0|0:0,0:0:0:0:
464,32,30356,6,0,P|484:84|472:148,1,85,6|0,0:0|0:0,0:0:0:0:
444,228,30699,1,8,0:0:0:0:
444,228,30870,1,0,0:0:0:0:
368,324,31042,1,8,0:0:0:0:
368,324,31213,1,0,0:0:0:0:
272,240,31385,1,8,0:0:0:0:
192,336,31556,1,0,0:0:0:0:
272,240,31727,5,2,0:0:0:0:
112,336,31899,1,0,0:0:0:0:
152,192,32070,1,2,0:0:0:0:
48,248,32242,1,0,0:0:0:0:
164,112,32413,6,0,L|216:100,1,42.5,2|0,0:0|0:0,0:0:0:0:
304,176,32585,2,0,L|244:148,1,42.5
316,72,32756,5,8,0:0:0:0:
340,48,32842,1,0,0:0:0:0:
376,44,32927,1,0,0:0:0:0:
408,52,33013,1,0,0:0:0:0:
436,80,33099,6,0,P|460:140|464:176,1,85,6|0,0:0|0:0,0:0:0:0:
440,304,33442,1,8,0:0:0:0:
340,216,33613,1,0,0:0:0:0:
252,316,33785,2,0,B|208:352|208:352|144:348,1,85,2|0,0:0|0:0,0:0:0:0:
144,240,34127,1,8,0:0:0:0:
56,304,34299,1,0,0:0:0:0:
56,196,34470,6,0,P|64:148|104:104,1,85,2|0,0:0|0:0,0:0:0:0:
203,64,34813,1,8,0:0:0:0:
300,156,34985,1,0,0:0:0:0:
212,248,35156,1,2,0:0:0:0:
252,124,35327,1,0,0:0:0:0:
156,216,35499,1,8,0:0:0:0:
288,244,35670,1,0,0:0:0:0:
396,112,35842,2,0,L|408:236|408:236,1,85,2|0,0:0|0:0,0:0:0:0:
416,360,36185,1,8,0:0:0:0:
492,264,36356,1,0,0:0:0:0:
340,304,36527,6,0,B|296:328|256:312|256:312|208:336|152:304,1,170,2|8,0:0|0:0,0:0:0:0:
72,228,37042,1,0,0:0:0:0:
160,100,37213,2,0,L|172:208,1,85,2|0,0:0|0:0,0:0:0:0:
316,76,37556,1,8,0:0:0:0:
316,76,37727,2,0,P|408:96|448:192,1,170,2|0,0:0|0:0,0:0:0:0:
352,168,38242,1,8,0:0:0:0:
324,280,38413,1,0,0:0:0:0:
228,224,38585,6,0,B|208:336|208:336,1,85,4|0,0:0|0:0,0:0:0:0:
112,280,38927,1,8,0:0:0:0:
244,144,39099,1,0,0:0:0:0:
324,280,39270,2,0,L|432:264,1,85
424,160,39613,2,0,P|396:120|352:88,1,85,8|0,0:0|0:0,0:0:0:0:
220,28,39956,6,0,L|124:76,1,85
117,79,40213,1,0,0:0:0:0:
93,97,40299,2,0,P|53:145|40:180,1,85,8|0,0:0|0:0,0:0:0:0:
112,280,40642,1,0,0:0:0:0:
216,168,40813,1,0,0:0:0:0:
288,312,40985,2,0,L|176:324,1,85,8|0,0:0|0:0,0:0:0:0:
76,232,41327,6,0,P|82:135|152:64,1,170,0|8,0:0|0:0,0:0:0:0:
256,32,41842,1,0,0:0:0:0:
360,72,42013,2,0,P|408:96|440:152,1,85,2|0,0:0|0:0,0:0:0:0:
440,248,42356,2,0,P|408:288|364:312,1,85,8|0,0:0|0:0,0:0:0:0:
256,212,42699,5,4,0:0:0:0:
196,352,42870,1,0,0:0:0:0:
196,352,42956,1,0,0:0:0:0:
196,352,43042,1,8,0:0:0:0:
96,236,43213,1,0,0:0:0:0:
96,236,43299,1,0,0:0:0:0:
96,236,43385,1,2,0:0:0:0:
196,352,43556,5,0,0:0:0:0:
228,348,43642,1,0,0:0:0:0:
256,328,43727,1,8,0:0:0:0:
276,300,43813,1,0,0:0:0:0:
284,268,43899,1,8,0:0:0:0:
272,236,43985,1,0,0:0:0:0:
256,212,44070,6,0,P|336:179|428:232,1,170,6|8,0:0|0:0,0:0:0:0:
336,276,44585,1,0,0:0:0:0:
176,328,44756,2,0,B|128:332|68:296,1,85,2|0,0:0|0:0,0:0:0:0:
20,164,45099,1,8,0:0:0:0:
113,70,45270,1,0,0:0:0:0:
144,232,45442,6,0,B|192:136|192:136|260:96,1,170,4|8,0:0|0:0,0:0:0:0:
384,52,45956,2,0,B|440:140|440:140|392:220,1,170,2|0,0:0|0:0,0:0:0:0:
328,280,46470,1,8,0:0:0:0:
352,136,46642,1,0,0:0:0:0:
236,212,46813,5,2,0:0:0:0:
160,124,46985,1,0,0:0:0:0:
224,308,47156,1,8,0:0:0:0:
124,212,47327,1,0,0:0:0:0:
252,108,47499,2,0,P|308:108|356:140,1,85,2|0,0:0|0:0,0:0:0:0:
376,244,47842,2,0,P|330:265|280:268,1,85,8|0,0:0|0:0,0:0:0:0:
112,256,48185,6,0,B|60:236|20:184|44:112,1,170,2|8,0:0|0:0,0:0:0:0:
156,16,48699,1,0,0:0:0:0:
152,148,48870,1,2,0:0:0:0:
232,120,49042,1,0,0:0:0:0:
104,80,49213,1,8,0:0:0:0:
236,44,49385,1,0,0:0:0:0:
236,44,49470,1,0,0:0:0:0:
236,44,49556,6,0,P|280:36|332:52,1,85,6|0,0:0|0:0,0:0:0:0:
456,176,49899,1,8,0:0:0:0:
401,105,50070,1,0,0:0:0:0:
401,105,50156,1,0,0:0:0:0:
401,105,50242,2,0,P|368:64|312:48,1,85
176,88,50585,1,8,0:0:0:0:
176,88,50927,6,0,L|152:196,1,85,2|0,0:0|0:0,0:0:0:0:
196,324,51270,1,8,0:0:0:0:
328,304,51442,2,0,L|432:312,1,85
376,204,51785,1,0,0:0:0:0:
376,204,51870,1,0,0:0:0:0:
376,204,51956,6,0,L|400:108,1,85,12|0,0:0|0:0,0:0:0:0:
316,84,52299,2,0,P|224:56|148:124,1,170,2|8,0:0|0:0,0:0:0:0:
144,236,52813,1,0,0:0:0:0:
244,148,52985,1,2,0:0:0:0:
244,148,53156,1,0,0:0:0:0:
344,244,53327,1,12,0:0:0:0:
360,224,53413,1,0,0:0:0:0:
376,204,53499,1,0,0:0:0:0:
392,184,53585,1,0,0:0:0:0:
408,164,53670,6,0,P|448:216|460:264,1,85,2|12,0:0|0:0,0:0:0:0:
456,348,54013,1,8,0:0:0:0:
336,364,54185,1,0,0:0:0:0:
336,364,54270,1,0,0:0:0:0:
336,364,54356,1,0,0:0:0:0:
336,364,54442,1,0,0:0:0:0:
336,364,54527,6,0,L|320:308,1,42.5
248,288,54699,2,0,L|232:332,1,42.5,0|0,0:0|0:0,0:0:0:0:
156,364,54870,1,0,0:0:0:0:
323,221,55042,6,0,P|246:189|172:224,1,170,6|0,0:0|0:0,0:0:0:0:
172,194,55556,2,0,P|247:160|324:192,1,170,6|0,0:0|0:0,0:0:0:0:
323,157,56070,2,0,P|246:125|172:160,1,170,6|0,0:0|0:0,0:0:0:0:
124,108,56585,6,0,P|268:56|396:132,1,297.5,4|0,0:0|0:0,0:0:0:0:
448,192,58127,6,0,P|416:268|336:288,1,170,2|2,0:0|0:0,0:0:0:0:
284,268,58984,1,0,0:0:0:0:
264,216,59156,1,0,0:0:0:0:
224,180,59327,1,0,0:0:0:0:
172,168,59498,1,2,0:0:0:0:
288,48,60784,6,0,L|304:16,2,21.25,2|2|2,0:0|0:0|0:0,0:0:0:0:
256,192,62241,12,2,64984,0:0:0:0:
292,303,65670,6,0,L|256:216,1,63.7500024318696,2|0,0:0|0:0,0:0:0:0:
220,81,66013,2,0,L|244:139,1,63.7500024318696,2|0,0:0|0:0,0:0:0:0:
372,192,66356,5,2,0:0:0:0:
162,124,66698,1,8,0:0:0:0:
292,303,67041,1,2,0:0:0:0:
292,81,67384,1,8,0:0:0:0:
162,260,67727,1,6,0:0:0:0:
16,64,68413,6,0,L|116:28,1,85,2|0,0:0|0:0,0:0:0:0:
176,96,68756,2,0,L|281:83,1,85,8|0,0:0|0:0,0:0:0:0:
336,152,69098,2,0,L|440:176,1,85,2|0,0:0|0:0,0:0:0:0:
404,272,69441,2,0,L|500:328,1,85,8|0,0:0|0:0,0:0:0:0:
304,328,69784,5,2,0:0:0:0:
112,220,70127,1,8,0:0:0:0:
256,52,70470,6,0,P|308:56|360:92,1,85,6|0,0:0|0:0,0:0:0:0:
381,171,70813,1,8,0:0:0:0:
376,188,70984,1,0,0:0:0:0:
368,204,71156,1,2,0:0:0:0:
360,220,71327,1,0,0:0:0:0:
352,236,71498,1,8,0:0:0:0:
344,252,71670,1,0,0:0:0:0:
216,204,71841,6,0,L|136:248,1,85,2|0,0:0|0:0,0:0:0:0:
144,136,72184,2,0,L|224:92,1,85,8|0,0:0|0:0,0:0:0:0:
344,76,72527,5,2,0:0:0:0:
364,84,72613,1,2,0:0:0:0:
380,100,72698,1,2,0:0:0:0:
392,120,72784,1,2,0:0:0:0:
424,136,72870,5,8,0:0:0:0:
440,164,72956,1,0,0:0:0:0:
448,196,73041,1,0,0:0:0:0:
448,228,73127,1,0,0:0:0:0:
440,260,73213,6,0,P|412:308|300:316,1,170,6|8,0:0|0:0,0:0:0:0:
216,204,73727,1,0,0:0:0:0:
144,136,73898,1,0,0:0:0:0:
100,228,74070,1,0,0:0:0:0:
172,300,74241,2,0,L|192:392,1,85,8|0,0:0|0:0,0:0:0:0:
216,204,74584,6,0,L|316:204,1,85
100,228,74927,1,8,0:0:0:0:
156,340,75098,2,0,P|248:364|312:324,1,170,0|0,0:0|0:0,0:0:0:0:
340,240,75613,1,8,0:0:0:0:
304,148,75784,1,0,0:0:0:0:
420,184,75956,5,0,0:0:0:0:
268,216,76127,1,0,0:0:0:0:
376,116,76298,1,8,0:0:0:0:
416,256,76470,1,0,0:0:0:0:
376,116,76641,2,0,L|348:224|348:224,1,85,0|0,0:0|0:0,0:0:0:0:
308,312,76984,1,8,0:0:0:0:
212,280,77156,6,0,L|124:280,1,85,0|0,0:0|0:0,0:0:0:0:
72,208,77498,1,0,0:0:0:0:
124,128,77670,2,0,L|176:16,1,85,8|0,0:0|0:0,0:0:0:0:
256,56,78013,1,0,0:0:0:0:
336,140,78184,1,0,0:0:0:0:
452,112,78356,1,8,0:0:0:0:
392,224,78527,1,0,0:0:0:0:
336,140,78698,6,0,L|336:40,1,85,4|0,0:0|0:0,0:0:0:0:
452,112,79041,1,8,0:0:0:0:
468,232,79213,1,0,0:0:0:0:
384,316,79384,2,0,P|332:340|288:340,1,85,0|0,0:0|0:0,0:0:0:0:
200,292,79727,1,8,0:0:0:0:
140,200,79898,1,0,0:0:0:0:
120,96,80070,6,0,P|188:72|216:76,1,85,4|0,0:0|0:0,0:0:0:0:
260,148,80413,1,8,0:0:0:0:
320,260,80584,1,0,0:0:0:0:
404,164,80756,1,0,0:0:0:0:
284,208,80927,1,0,0:0:0:0:
360,108,81098,1,8,0:0:0:0:
224,88,81270,1,0,0:0:0:0:
224,88,81356,1,0,0:0:0:0:
224,88,81441,6,0,P|144:128|156:224,1,170,4|8,0:0|0:0,0:0:0:0:
224,360,81956,1,0,0:0:0:0:
224,360,82041,1,0,0:0:0:0:
224,360,82127,2,0,L|248:268,1,85,0|0,0:0|0:0,0:0:0:0:
312,176,82470,1,8,0:0:0:0:
340,280,82641,1,0,0:0:0:0:
240,136,82813,6,0,P|136:120|88:200,1,170,4|8,0:0|0:0,0:0:0:0:
180,208,83327,2,0,L|208:312,1,85
328,340,83670,1,0,0:0:0:0:
332,320,83756,1,0,0:0:0:0:
336,300,83841,1,8,0:0:0:0:
340,280,83927,1,0,0:0:0:0:
344,260,84013,1,0,0:0:0:0:
348,240,84098,1,0,0:0:0:0:
352,220,84184,6,0,P|360:180|376:104,1,85,6|0,0:0|0:0,0:0:0:0:
228,48,84527,2,0,L|256:148,1,85,8|0,0:0|0:0,0:0:0:0:
240,140,84784,1,0,0:0:0:0:
236,152,84870,2,0,L|264:252,1,85,2|0,0:0|0:0,0:0:0:0:
136,204,85213,1,8,0:0:0:0:
76,316,85384,6,0,B|64:260|64:260|36:228|48:176|48:176|40:128,1,170,2|0,0:0|0:0,0:0:0:0:
120,64,85898,1,8,0:0:0:0:
232,164,86070,2,0,P|264:172|336:156,1,85,0|2,0:0|0:0,0:0:0:0:
388,280,86413,2,0,P|324:272|280:296,1,85,0|8,0:0|0:0,0:0:0:0:
164,272,86756,6,0,B|180:192|136:164|136:164|176:112,1,170
92,228,87270,1,8,0:0:0:0:
120,344,87441,2,0,P|164:356|208:344,1,85,0|2,0:0|0:0,0:0:0:0:
276,268,87784,1,0,0:0:0:0:
232,160,87956,1,8,0:0:0:0:
276,268,88127,6,0,B|368:240|368:240|348:192|384:80,1,255,6|8,0:0|0:0,0:0:0:0:
256,32,88813,1,0,0:0:0:0:
144,136,88984,1,2,0:0:0:0:
288,184,89156,1,0,0:0:0:0:
144,136,89327,1,8,0:0:0:0:
184,280,89498,1,0,0:0:0:0:
184,280,89584,1,0,0:0:0:0:
184,280,89670,6,0,L|184:368|184:368,1,85,6|0,0:0|0:0,0:0:0:0:
208,200,90013,1,8,0:0:0:0:
292,320,90184,1,0,0:0:0:0:
292,320,90270,1,0,0:0:0:0:
292,320,90356,2,0,P|344:320|380:300,1,85,2|0,0:0|0:0,0:0:0:0:
444,220,90698,1,8,0:0:0:0:
336,80,90870,6,0,B|312:152|312:152|320:248,1,170,2|0,0:0|0:0,0:0:0:0:
192,96,91384,1,8,0:0:0:0:
109,187,91556,1,0,0:0:0:0:
230,162,91727,1,2,0:0:0:0:
117,111,91898,1,0,0:0:0:0:
179,219,92070,2,0,P|200:272|224:288,1,85,8|0,0:0|0:0,0:0:0:0:
328,244,92413,5,2,0:0:0:0:
436,176,92584,1,0,0:0:0:0:
420,164,92670,1,0,0:0:0:0:
400,152,92756,1,8,0:0:0:0:
304,108,92927,1,0,0:0:0:0:
304,108,93098,2,0,P|228:72|128:104,1,170,2|8,0:0|0:0,0:0:0:0:
216,168,93613,1,0,0:0:0:0:
92,220,93784,5,6,0:0:0:0:
104,236,93870,1,0,0:0:0:0:
120,252,93956,1,0,0:0:0:0:
136,264,94041,1,0,0:0:0:0:
156,276,94127,2,0,L|216:308,1,42.5,8|0,0:0|0:0,0:0:0:0:
300,200,94298,2,0,L|240:228,1,42.5
312,332,94470,6,0,P|424:296|448:232,1,170,4|8,0:0|0:0,0:0:0:0:
444,128,94984,1,0,0:0:0:0:
340,52,95156,6,0,L|252:128,1,101.999996887207,6|4,0:0|0:0,0:0:0:0:
68,336,96184,1,8,0:0:0:0:
68,336,96356,6,0,L|156:260,1,101.999996887207,4|0,0:0|0:0,0:0:0:0:
253,160,96698,1,4,0:0:0:0:
392,320,97213,5,2,0:0:0:0:
460,212,97384,1,0,0:0:0:0:
304,272,97556,2,0,L|240:240,1,63.7500024318696
248,104,97898,6,0,P|208:120|172:152,1,85,2|0,0:0|0:0,0:0:0:0:
136,240,98241,1,8,0:0:0:0:
36,240,98413,2,0,P|16:200|8:132,2,85,2|0|0,0:0|0:0|0:0,0:0:0:0:
112,321,98927,1,8,0:0:0:0:
232,284,99098,2,0,L|164:216,1,85,4|2,0:0|0:0,0:0:0:0:
81,133,99441,1,4,0:0:0:0:
324,52,99784,5,8,0:0:0:0:
388,76,99956,1,2,0:0:0:0:
400,144,100127,1,0,0:0:0:0:
356,196,100298,1,8,0:0:0:0:
292,176,100470,1,0,0:0:0:0:
276,108,100641,6,0,P|216:76|104:192,1,255.000009727478,2|2,0:0|0:0,0:0:0:0:
193,279,101670,1,8,0:0:0:0:
296,320,102013,6,0,L|260:392,2,63.7500024318696,2|0|8,0:0|0:0|0:0,0:0:0:0:
468,260,102527,2,0,P|411:235|354:259,1,127.500004863739,2|0,0:0|0:0,0:0:0:0:
256,104,103041,6,0,P|284:80|280:40,1,63.75,8|0,0:0|0:0,0:0:0:0:
264,24,103384,6,0,P|192:28|176:136,1,187.000005706787,6|8,0:0|0:0,0:0:0:0:
268,225,103898,1,0,0:0:0:0:
260,240,104070,1,2,0:0:0:0:
252,256,104241,1,0,0:0:0:0:
244,272,104413,1,8,0:0:0:0:
144,304,104584,1,0,0:0:0:0:
44,264,104756,6,0,P|96:184|192:180,1,187.000005706787,6|8,0:0|0:0,0:0:0:0:
288,196,105270,1,0,0:0:0:0:
364,244,105441,6,0,L|388:300,1,46.7500014266968,2|0,0:0|0:0,0:0:0:0:
288,196,105613,2,0,L|268:153,1,46.7500014266968,2|0,0:0|0:0,0:0:0:0:
288,276,105784,2,0,L|246:296,1,46.7500014266968,2|0,0:0|0:0,0:0:0:0:
364,168,105956,2,0,L|420:140,1,46.7500014266968,2|0,0:0|0:0,0:0:0:0:
264,88,106127,6,0,P|184:64|88:104,1,170,6|8,0:0|0:0,0:0:0:0:
48,204,106641,1,0,0:0:0:0:
148,264,106813,1,2,0:0:0:0:
184,148,106984,1,0,0:0:0:0:
252,264,107156,2,0,L|288:176,1,85,8|0,0:0|0:0,0:0:0:0:
416,96,107498,6,0,L|384:184,1,85,2|0,0:0|0:0,0:0:0:0:
252,264,107841,1,8,0:0:0:0:
252,96,108013,2,0,P|180:51|84:104,1,170,2|0,0:0|0:0,0:0:0:0:
40,168,108527,1,8,0:0:0:0:
96,264,108698,1,0,0:0:0:0:
172,136,108870,2,0,L|184:244,1,85,2|0,0:0|0:0,0:0:0:0:
192,356,109213,1,8,0:0:0:0:
336,296,109384,1,0,0:0:0:0:
336,296,109470,1,0,0:0:0:0:
336,296,109556,6,0,L|436:316|436:316,1,85,2|0,0:0|0:0,0:0:0:0:
232,204,109898,1,8,0:0:0:0:
372,208,110070,1,0,0:0:0:0:
272,336,110241,6,0,B|252:300|232:288|232:288|168:280|152:224|152:224|144:192,1,170,2|8,0:0|0:0,0:0:0:0:
144,28,110756,1,0,0:0:0:0:
188,128,110927,1,2,0:0:0:0:
32,120,111098,1,0,0:0:0:0:
156,160,111270,1,8,0:0:0:0:
76,56,111441,1,0,0:0:0:0:
88,216,111613,6,0,L|104:332,1,85,4|0,0:0|0:0,0:0:0:0:
208,332,111956,1,8,0:0:0:0:
280,240,112127,1,0,0:0:0:0:
280,240,112213,1,0,0:0:0:0:
280,240,112298,2,0,P|328:248|388:232,1,85
432,152,112641,2,0,B|420:96|344:76,1,85,8|0,0:0|0:0,0:0:0:0:
344,84,112898,1,0,0:0:0:0:
308,92,112984,6,0,P|265:119|244:164,1,85,2|0,0:0|0:0,0:0:0:0:
164,256,113327,1,8,0:0:0:0:
124,148,113498,1,0,0:0:0:0:
84,272,113670,2,0,P|111:314|156:336,1,85,2|0,0:0|0:0,0:0:0:0:
280,240,114013,1,8,0:0:0:0:
237,121,114184,1,0,0:0:0:0:
356,172,114356,6,0,P|380:264|304:336,1,170,2|8,0:0|0:0,0:0:0:0:
280,240,114870,1,0,0:0:0:0:
450,285,115041,1,2,0:0:0:0:
480,164,115213,1,0,0:0:0:0:
404,56,115384,2,0,L|320:108,1,85,12|0,0:0|0:0,0:0:0:0:
235,124,115727,6,0,L|208:88,1,42.5
198,183,115898,2,0,L|160:160,1,42.5
186,254,116070,2,0,L|140:248,1,42.5,8|0,0:0|0:0,0:0:0:0:
200,325,116241,2,0,L|160:340,1,42.5
280,240,116413,5,0,0:0:0:0:
288,216,116498,1,0,0:0:0:0:
292,192,116584,1,0,0:0:0:0:
288,168,116670,1,0,0:0:0:0:
280,144,116756,1,8,0:0:0:0:
268,124,116841,1,0,0:0:0:0:
252,104,116927,1,0,0:0:0:0:
236,88,117013,1,0,0:0:0:0:
221,76,117098,6,0,P|157:76|112:196,1,170,4|8,0:0|0:0,0:0:0:0:
160,264,117613,1,0,0:0:0:0:
272,316,117784,2,0,P|328:312|376:280,1,85,2|0,0:0|0:0,0:0:0:0:
464,208,118127,1,8,0:0:0:0:
384,112,118298,1,0,0:0:0:0:
284,212,118470,6,0,B|156:180|156:180|92:212,1,170,2|8,0:0|0:0,0:0:0:0:
32,296,118984,1,0,0:0:0:0:
116,360,119156,1,2,0:0:0:0:
188,280,119327,2,0,L|188:168,1,85,0|8,0:0|0:0,0:0:0:0:
308,220,119670,1,0,0:0:0:0:
260,80,119841,6,0,P|181:68|92:144,1,170,2|8,0:0|0:0,0:0:0:0:
200,172,120356,1,0,0:0:0:0:
121,295,120527,2,0,P|76:308|8:288,2,85,2|0|8,0:0|0:0|0:0,0:0:0:0:
68,200,121041,1,0,0:0:0:0:
184,240,121213,6,0,P|264:256|352:184,1,170,2|8,0:0|0:0,0:0:0:0:
240,124,121727,2,0,P|148:116|72:184,1,170,2|0,0:0|0:0,0:0:0:0:
87,158,122156,1,0,0:0:0:0:
87,158,122241,1,8,0:0:0:0:
184,240,122413,1,0,0:0:0:0:
184,240,122498,1,0,0:0:0:0:
184,240,122584,6,0,L|296:240|296:240,1,85,6|0,0:0|0:0,0:0:0:0:
356,176,122927,1,8,0:0:0:0:
392,332,123098,1,0,0:0:0:0:
428,248,123270,6,0,P|438:204|452:144,1,85,2|0,0:0|0:0,0:0:0:0:
320,28,123613,1,8,0:0:0:0:
320,28,123956,2,0,B|276:64|276:64|212:40|160:116,1,170,2|8,0:0|0:0,0:0:0:0:
64,40,124470,1,0,0:0:0:0:
16,192,124641,1,2,0:0:0:0:
84,128,124813,1,0,0:0:0:0:
104,256,124984,2,0,P|152:296|200:304,1,85,12|0,0:0|0:0,0:0:0:0:
200,184,125327,6,0,P|272:152|368:196,1,170,2|8,0:0|0:0,0:0:0:0:
468,260,125841,1,0,0:0:0:0:
360,336,126013,1,6,0:0:0:0:
236,284,126184,1,0,0:0:0:0:
336,200,126356,1,8,0:0:0:0:
216,140,126527,5,0,0:0:0:0:
216,140,126613,1,0,0:0:0:0:
216,140,126698,2,0,P|232:64|312:84,1,170,6|8,0:0|0:0,0:0:0:0:
336,200,127213,1,8,0:0:0:0:
336,200,127298,1,0,0:0:0:0:
336,200,127384,1,8,0:0:0:0:
336,200,127470,1,0,0:0:0:0:
336,200,127556,6,0,L|316:256,1,42.5,8|0,0:0|0:0,0:0:0:0:
392,268,127727,2,0,L|372:324,1,42.5,8|0,0:0|0:0,0:0:0:0:
296,372,127898,1,8,0:0:0:0:
240,256,128070,6,0,P|208:179|243:105,1,170,6|0,0:0|0:0,0:0:0:0:
213,105,128584,2,0,P|179:180|211:257,1,170,6|0,0:0|0:0,0:0:0:0:
176,256,129098,2,0,P|144:179|179:105,1,170,6|0,0:0|0:0,0:0:0:0:
127,57,129613,6,0,P|75:201|151:329,1,297.5,4|0,0:0|0:0,0:0:0:0:
244,204,131026,6,0,L|264:172,3,21.25,2|2|2|0,0:0|0:0|0:0|0:0,0:0:0:0:
256,192,133555,5,0,0:0:0:0:
168,208,133898,2,0,P|176:140|264:104,1,170,2|2,0:0|0:0,0:0:0:0:
392,160,134926,1,0,0:0:0:0:
424,240,135098,2,0,L|404:288,1,42.5,0|2,0:0|0:0,0:0:0:0:
272,320,135612,1,0,0:0:0:0:
156,244,135955,2,0,L|168:192,1,42.5,2|0,0:0|0:0,0:0:0:0:
80,208,136298,2,0,L|96:152,1,42.5
120,72,136641,1,2,0:0:0:0:
388,240,137326,5,2,0:0:0:0:
388,240,137669,2,0,L|432:152,1,85,0|2,0:0|0:0,0:0:0:0:
384,60,138355,1,0,0:0:0:0:
296,128,138698,1,2,0:0:0:0:
224,44,139041,1,0,0:0:0:0:
140,120,139384,6,0,P|124:228|168:268,1,170,2|2,0:0|0:0,0:0:0:0:
252,328,140412,1,0,0:0:0:0:
252,328,140584,2,0,L|304:296,1,42.5,0|2,0:0|0:0,0:0:0:0:
388,256,141098,1,0,0:0:0:0:
384,144,141441,6,0,L|348:104,1,42.5,2|0,0:0|0:0,0:0:0:0:
300,116,141784,2,0,L|264:76,1,42.5,0|0,0:0|0:0,0:0:0:0:
216,92,142126,2,0,P|176:52|108:72,1,127.5,2|0,0:0|0:0,0:0:0:0:
116,124,142812,2,0,P|140:176|112:240,1,127.5,2|0,0:0|0:0,0:0:0:0:
128,292,143498,2,0,P|185:314|241:287,1,127.5,2|0,0:0|0:0,0:0:0:0:
288,256,144184,5,2,0:0:0:0:
376,192,144526,1,0,0:0:0:0:
296,116,144869,1,2,0:0:0:0:
224,32,150355,5,6,0:0:0:0:
128,84,150526,1,0,0:0:0:0:
176,184,150698,1,8,0:0:0:0:
236,92,150869,5,4,0:0:0:0:
140,144,151041,1,2,0:0:0:0:
188,244,151212,1,0,0:0:0:0:
296,220,151384,2,0,L|344:128,1,85,12|0,0:0|0:0,0:0:0:0:
380,244,151726,5,2,0:0:0:0:
396,132,151898,2,0,L|440:40,1,85,4|8,0:0|0:0,0:0:0:0:
476,164,152241,1,0,0:0:0:0:
448,284,152412,1,6,0:0:0:0:
328,336,152584,1,0,0:0:0:0:
308,336,152669,1,0,0:0:0:0:
288,332,152755,1,0,0:0:0:0:
268,328,152841,1,0,0:0:0:0:
248,324,152926,1,0,0:0:0:0:
228,320,153013,1,0,0:0:0:0:
208,312,153098,6,0,P|160:264|156:160,1,170,4|10,0:0|0:0,0:0:0:0:
224,52,153612,1,0,0:0:0:0:
256,168,153784,1,0,0:0:0:0:
344,108,153955,1,0,0:0:0:0:
348,253,154126,2,0,P|332:308|316:365,1,85,8|0,0:0|0:0,0:0:0:0:
140,272,154469,5,4,0:0:0:0:
140,272,154555,1,0,0:0:0:0:
140,272,154641,1,0,0:0:0:0:
140,272,154726,1,0,0:0:0:0:
140,272,154812,2,0,P|192:268|244:252,1,85,8|0,0:0|0:0,0:0:0:0:
260,244,155069,1,0,0:0:0:0:
260,244,155155,2,0,L|316:172,1,85
244,44,155498,1,8,0:0:0:0:
220,32,155584,1,0,0:0:0:0:
196,28,155669,1,0,0:0:0:0:
172,28,155755,1,0,0:0:0:0:
148,36,155841,6,0,P|100:80|120:184,1,170,6|8,0:0|0:0,0:0:0:0:
203,267,156355,1,0,0:0:0:0:
320,316,156526,1,2,0:0:0:0:
404,220,156698,1,0,0:0:0:0:
276,236,156869,1,8,0:0:0:0:
400,268,157041,1,0,0:0:0:0:
444,148,157212,6,0,P|412:88|324:28,1,170,6|8,0:0|0:0,0:0:0:0:
376,176,157726,2,0,P|344:120|236:96,1,170,6|0,0:0|0:0,0:0:0:0:
132,36,158241,1,8,0:0:0:0:
56,140,158412,1,0,0:0:0:0:
72,156,158498,1,0,0:0:0:0:
88,172,158584,1,2,0:0:0:0:
88,300,158755,6,0,L|172:268,1,85,0|8,0:0|0:0,0:0:0:0:
284,220,159098,1,0,0:0:0:0:
284,48,159269,1,2,0:0:0:0:
284,48,159612,1,8,0:0:0:0:
192,284,159955,6,0,P|108:224|104:160,1,170,2|8,0:0|0:0,0:0:0:0:
320,100,160641,2,0,P|404:160|408:224,1,170,2|8,0:0|0:0,0:0:0:0:
312,192,161326,6,0,L|464:108,1,170,6|8,0:0|0:0,0:0:0:0:
224,232,161841,1,0,0:0:0:0:
240,128,162012,2,0,B|216:92|216:92|160:116,1,85,2|0,0:0|0:0,0:0:0:0:
68,176,162355,2,0,B|92:212|92:212|130:195,1,85,8|0,0:0|0:0,0:0:0:0:
256,192,162698,5,2,0:0:0:0:
256,192,162869,1,0,0:0:0:0:
296,288,163041,2,0,B|320:324|320:324|376:300,1,85,8|0,0:0|0:0,0:0:0:0:
468,240,163384,2,0,B|444:204|444:204|406:221,1,85,2|0,0:0|0:0,0:0:0:0:
176,224,163726,6,0,P|188:140|268:104,1,170,8|2,0:0|0:0,0:0:0:0:
320,32,164241,1,0,0:0:0:0:
256,192,164412,1,8,0:0:0:0:
408,88,164584,5,2,0:0:0:0:
416,96,164755,1,6,0:0:0:0:
392,256,164926,2,0,L|359:177,1,85,0|8,0:0|0:0,0:0:0:0:
456,348,165269,1,2,0:0:0:0:
448,344,165441,1,6,0:0:0:0:
228,36,165955,5,10,0:0:0:0:
224,44,166126,2,0,B|212:96|212:96|180:128|136:128|160:300,1,255,4|0,0:0|0:0,0:0:0:0:
328,100,166812,5,2,0:0:0:0:
256,192,166984,1,0,0:0:0:0:
316,276,167155,2,0,L|416:276,1,85,0|0,0:0|0:0,0:0:0:0:
228,344,167498,1,8,0:0:0:0:
164,200,167669,1,0,0:0:0:0:
80,312,167841,1,0,0:0:0:0:
188,276,168012,2,0,P|240:216|196:128,2,170,0|0|0,0:0|0:0|0:0,0:0:0:0:
84,228,168869,5,8,0:0:0:0:
72,108,169041,1,0,0:0:0:0:
164,200,169212,1,0,0:0:0:0:
160,80,169384,1,0,0:0:0:0:
244,176,169555,6,0,L|348:124,1,85,2|0,0:0|0:0,0:0:0:0:
416,100,169898,1,0,0:0:0:0:
416,100,170069,1,0,0:0:0:0:
440,224,170241,5,8,0:0:0:0:
288,296,170412,1,0,0:0:0:0:
400,352,170584,1,0,0:0:0:0:
328,184,170755,2,0,P|252:160|156:192,1,170,2|0,0:0|0:0,0:0:0:0:
112,268,171269,2,0,P|64:172|96:112,1,170,0|8,0:0|0:0,0:0:0:0:
176,40,171784,1,0,0:0:0:0:
296,120,171955,5,8,0:0:0:0:
300,140,172041,1,0,0:0:0:0:
304,160,172126,1,0,0:0:0:0:
308,180,172212,1,0,0:0:0:0:
312,200,172298,2,0,L|336:316|336:316,1,85,6|0,0:0|0:0,0:0:0:0:
176,192,172641,6,0,B|224:168|224:168|184:112,1,110.499994941712,12|0,0:0|0:0,0:0:0:0:
88,92,172984,6,0,L|36:120,2,56.6666666666667,2|0|0,0:0|0:0|0:0,0:0:0:0:
104,176,173326,2,0,L|160:212,2,56.6666666666667,8|0|0,0:0|0:0|0:0,0:0:0:0:
172,224,173669,1,2,0:0:0:0:
188,236,173755,1,0,0:0:0:0:
204,252,173841,1,0,0:0:0:0:
216,272,173926,1,0,0:0:0:0:
224,292,174012,1,8,0:0:0:0:
236,308,174098,1,0,0:0:0:0:
252,324,174184,1,0,0:0:0:0:
268,340,174269,1,0,0:0:0:0:
288,352,174355,6,0,P|316:364|360:368,2,56.6666666666667,2|0|0,0:0|0:0|0:0,0:0:0:0:
388,292,174698,2,0,P|408:280|444:276,2,56.6666666666667,8|0|0,0:0|0:0|0:0,0:0:0:0:
304,268,175041,6,0,P|304:196|376:140,1,170,6|8,0:0|0:0,0:0:0:0:
264,240,175555,2,0,P|280:168|384:116,1,170,6|0,0:0|0:0,0:0:0:0:
220,32,176069,5,8,0:0:0:0:
120,80,176241,1,0,0:0:0:0:
156,184,176412,1,2,0:0:0:0:
156,184,176584,2,0,L|88:248,1,85,4|0,0:0|0:0,0:0:0:0:
32,316,176926,1,8,0:0:0:0:
132,336,177098,2,0,L|228:376,1,85,6|0,0:0|0:0,0:0:0:0:
332,308,177441,5,8,0:0:0:0:
360,288,177526,1,0,0:0:0:0:
380,260,177612,1,0,0:0:0:0:
392,228,177698,1,0,0:0:0:0:
396,196,177784,2,0,L|364:112,1,85,6|0,0:0|0:0,0:0:0:0:
300,224,178126,1,8,0:0:0:0:
292,116,178298,2,0,L|244:84,1,42.5
176,56,178469,6,0,P|140:88|128:136,1,85
192,216,178812,1,8,0:0:0:0:
192,216,178984,1,0,0:0:0:0:
268,298,179155,1,6,0:0:0:0:
256,192,179326,12,2,180526,0:0:0:0:
144,72,181898,5,2,0:0:0:0:
88,288,182584,5,2,0:0:0:0:
300,200,183269,5,2,0:0:0:0:
300,200,184126,6,0,P|316:228|324:264,2,63.75,2|2|2,0:0|0:0|0:0,0:0:0:0:
300,200,184984,1,0,0:0:0:0:
168,104,185326,5,2,0:0:0:0:
172,112,185498,1,0,0:0:0:0:
176,120,185669,1,0,0:0:0:0:
180,128,185841,1,0,0:0:0:0:
184,136,186012,2,0,L|236:268,1,127.500004863739,2|8,0:0|0:0,0:0:0:0:
264,332,186526,1,0,0:0:0:0:
388,304,186698,5,2,0:0:0:0:
376,288,186869,1,0,0:0:0:0:
440,168,187041,5,8,0:0:0:0:
420,168,187212,1,0,0:0:0:0:
400,168,187384,2,0,L|260:168,1,127.500004863739,2|8,0:0|0:0,0:0:0:0:
296,88,187898,2,0,P|252:56|168:64,1,127.500004863739,2|0,0:0|0:0,0:0:0:0:
136,132,188412,6,0,P|96:128|112:164,1,95.6250036478044,8|0,0:0|0:0,0:0:0:0:
152,196,188755,2,0,P|216:256|288:268,1,152.999995330811,2|8,0:0|0:0,0:0:0:0:
376,280,189269,1,0,0:0:0:0:
452,216,189441,1,2,0:0:0:0:
460,116,189612,1,0,0:0:0:0:
380,44,189784,1,8,0:0:0:0:
276,76,189955,1,0,0:0:0:0:
360,164,190126,6,0,P|308:220|168:224,1,203.999993774414,6|12,0:0|0:0,0:0:0:0:
99,145,190641,1,0,0:0:0:0:
188,64,190812,2,0,L|232:116,1,50.9999984436036,2|0,0:0|0:0,0:0:0:0:
384,92,190984,2,0,L|324:68,1,50.9999984436036,2|0,0:0|0:0,0:0:0:0:
268,164,191155,1,8,0:0:0:0:
272,184,191241,1,0,0:0:0:0:
280,204,191326,1,8,0:0:0:0:
292,220,191412,1,0,0:0:0:0:
308,236,191498,6,0,P|344:268|384:284,1,85,6|0,0:0|0:0,0:0:0:0:
348,76,192012,6,0,L|388:36,2,36.8333316472372,0|0|0,0:0|0:0|0:0,0:0:0:0:
316,64,192184,6,0,B|264:72|264:72|240:32|240:32|140:72|120:104,1,220.999989883423,6|8,0:0|0:0,0:0:0:0:
194,259,192698,1,0,0:0:0:0:
344,324,192869,6,0,P|368:312|439:189,1,170,6|8,0:0|0:0,0:0:0:0:
436,80,193384,1,4,0:0:0:0:
292,168,193726,1,4,0:0:0:0:
148,244,194069,6,0,P|112:148|188:48,1,220.999989883423,6|0,0:0|0:0,0:0:0:0:
296,108,194584,1,8,0:0:0:0:
388,216,194755,1,0,0:0:0:0:
388,216,194841,1,0,0:0:0:0:
388,216,194926,6,0,P|364:268|304:284,1,101.999996887207,2|0,0:0|0:0,0:0:0:0:
256,184,195269,1,8,0:0:0:0:
148,244,195441,1,0,0:0:0:0:
72,136,195612,6,0,P|132:56|236:76,1,203.999993774414,2|8,0:0|0:0,0:0:0:0:
328,160,196126,1,0,0:0:0:0:
288,272,196298,1,2,0:0:0:0:
388,216,196469,1,0,0:0:0:0:
256,356,196641,1,8,0:0:0:0:
232,184,196812,2,0,L|300:180,1,50.9999984436036
324,96,196984,6,0,P|248:24|148:68,1,203.999993774414,6|8,0:0|0:0,0:0:0:0:
120,192,197498,1,0,0:0:0:0:
232,104,197669,1,2,0:0:0:0:
324,188,197841,1,0,0:0:0:0:
232,280,198012,2,0,L|112:280,1,101.999996887207,8|0,0:0|0:0,0:0:0:0:
364,260,198355,6,0,P|404:184|332:104,1,203.999993774414,2|8,0:0|0:0,0:0:0:0:
308,92,198784,1,0,0:0:0:0:
276,88,198869,2,0,P|212:96|156:148,1,101.999996887207,0|2,0:0|0:0,0:0:0:0:
87,209,199212,1,0,0:0:0:0:
192,360,199384,1,8,0:0:0:0:
64,304,199555,1,0,0:0:0:0:
16,168,199726,6,0,P|52:133|102:130,1,101.999996887207,6|0,0:0|0:0,0:0:0:0:
164,40,200069,1,8,0:0:0:0:
232,156,200241,1,0,0:0:0:0:
364,132,200412,2,0,L|364:16,1,101.999996887207,6|0,0:0|0:0,0:0:0:0:
304,196,200755,1,8,0:0:0:0:
428,268,200926,1,0,0:0:0:0:
336,332,201098,6,0,P|276:280|152:296,1,203.999993774414,6|8,0:0|0:0,0:0:0:0:
68,192,201612,1,0,0:0:0:0:
88,168,201698,1,0,0:0:0:0:
112,148,201784,1,2,0:0:0:0:
140,136,201869,1,0,0:0:0:0:
172,128,201955,1,0,0:0:0:0:
204,128,202041,1,0,0:0:0:0:
232,136,202126,2,0,L|288:176,1,50.9999984436036,8|0,0:0|0:0,0:0:0:0:
400,108,202298,2,0,L|340:108,1,50.9999984436036
357,346,202469,6,0,P|438:307|388:232,1,203.999993774414,6|8,0:0|0:0,0:0:0:0:
244,280,202984,2,0,B|176:228|176:228|152:92,1,203.999993774414,6|0,0:0|0:0,0:0:0:0:
264,36,203498,2,0,B|372:52|372:52|456:112,1,203.999993774414,12|2,0:0|0:0,0:0:0:0:
398,205,204012,1,4,0:0:0:0:
80,156,205212,5,8,0:0:0:0:
188,284,205555,2,0,P|240:224|336:216,1,170,2|8,0:0|0:0,0:0:0:0:
420,288,206069,1,0,0:0:0:0:
452,172,206241,2,0,L|408:84,1,85,2|0,0:0|0:0,0:0:0:0:
296,108,206584,2,0,L|340:196,1,85,8|0,0:0|0:0,0:0:0:0:
276,288,206926,5,2,0:0:0:0:
164,332,207098,1,0,0:0:0:0:
220,228,207269,1,8,0:0:0:0:
284,328,207441,1,0,0:0:0:0:
172,284,207612,2,0,L|84:228,1,85,2|0,0:0|0:0,0:0:0:0:
96,120,207955,2,0,L|192:80,1,85,8|0,0:0|0:0,0:0:0:0:
280,160,208298,6,0,P|404:132|496:224,1,255,6|0,0:0|0:0,0:0:0:0:
456,320,208984,1,6,0:0:0:0:
372,228,209155,2,0,L|320:320,1,85,0|8,0:0|0:0,0:0:0:0:
224,340,209498,1,0,0:0:0:0:
224,340,209584,1,0,0:0:0:0:
224,340,209669,1,2,0:0:0:0:
80,276,209841,1,0,0:0:0:0:
172,184,210012,1,8,0:0:0:0:
32,188,210184,5,0,0:0:0:0:
124,96,210355,1,2,0:0:0:0:
152,84,210441,1,0,0:0:0:0:
184,84,210526,1,0,0:0:0:0:
216,96,210612,1,0,0:0:0:0:
240,112,210698,2,0,L|280:156,1,42.5,8|0,0:0|0:0,0:0:0:0:
420,144,210869,2,0,L|368:128,1,42.5
320,64,211041,1,4,0:0:0:0:
256,192,211126,12,2,213784,0:0:0:0:
256,192,214126,5,0,0:0:0:0:
256,192,214469,2,0,L|184:140,1,85,2|0,0:0|0:0,0:0:0:0:
300,84,214812,2,0,L|228:32,1,85,12|0,0:0|0:0,0:0:0:0:
120,96,215155,6,0,P|84:176|112:256,1,170,2|8,0:0|0:0,0:0:0:0:
220,308,215669,2,0,P|336:308|388:272,1,170,2|0,0:0|0:0,0:0:0:0:
272,208,216184,1,8,0:0:0:0:
380,144,216355,1,0,0:0:0:0:
400,132,216441,1,0,0:0:0:0:
420,120,216526,1,2,0:0:0:0:
316,44,216698,5,0,0:0:0:0:
188,60,216869,2,0,L|136:136,1,85,8|0,0:0|0:0,0:0:0:0:
268,152,217212,1,2,0:0:0:0:
324,264,217384,1,0,0:0:0:0:
196,272,217555,2,0,L|248:348,1,85,12|0,0:0|0:0,0:0:0:0:
116,340,217898,6,0,L|68:264|68:264,1,85,2|0,0:0|0:0,0:0:0:0:
168,200,218241,1,8,0:0:0:0:
40,192,218412,1,0,0:0:0:0:
68,84,218584,2,0,L|160:140,1,85,2|0,0:0|0:0,0:0:0:0:
252,128,218926,2,0,L|324:83,1,85,8|0,0:0|0:0,0:0:0:0:
456,36,219269,5,2,0:0:0:0:
456,292,219612,1,8,0:0:0:0:
200,312,219955,2,0,P|232:272|276:256,1,85,2|0,0:0|0:0,0:0:0:0:
380,216,220298,1,8,0:0:0:0:
364,200,220384,1,0,0:0:0:0:
348,188,220469,1,0,0:0:0:0:
328,180,220555,1,0,0:0:0:0:
308,176,220641,6,0,P|256:172|196:208,1,85,2|0,0:0|0:0,0:0:0:0:
208,192,220898,1,0,0:0:0:0:
188,204,220984,2,0,P|120:216|100:200,1,85,8|0,0:0|0:0,0:0:0:0:
44,100,221326,1,6,0:0:0:0:
168,136,221498,1,0,0:0:0:0:
228,24,221669,2,0,P|256:80|300:88,1,85,12|0,0:0|0:0,0:0:0:0:
388,28,222012,6,0,P|432:104|424:208,1,170,2|8,0:0|0:0,0:0:0:0:
360,48,222526,2,0,P|404:124|396:228,1,170,0|0,0:0|0:0,0:0:0:0:
284,332,223041,1,8,0:0:0:0:
180,260,223212,1,0,0:0:0:0:
164,132,223384,6,0,P|256:60|344:140,1,255,6|0,0:0|0:0,0:0:0:0:
348,252,224069,2,0,P|256:324|168:244,1,255,2|0,0:0|0:0,0:0:0:0:
80,164,224755,5,6,0:0:0:0:
208,68,224926,1,0,0:0:0:0:
260,240,225098,1,8,0:0:0:0:
336,132,225269,1,0,0:0:0:0:
336,132,225355,1,0,0:0:0:0:
336,132,225441,2,0,L|408:204,1,85,2|0,0:0|0:0,0:0:0:0:
420,68,225784,1,8,0:0:0:0:
292,64,225955,1,0,0:0:0:0:
292,64,226041,1,0,0:0:0:0:
292,64,226126,6,0,P|204:40|172:56,1,127.5,6|0,0:0|0:0,0:0:0:0:
148,72,226469,2,0,P|156:136|104:188,1,127.5,8|0,0:0|0:0,0:0:0:0:
100,204,226812,2,0,P|152:236|184:312,1,127.5,6|0,0:0|0:0,0:0:0:0:
216,292,227155,2,0,P|256:232|320:204,1,127.5,8|0,0:0|0:0,0:0:0:0:
336,192,227498,6,0,L|300:116,1,85,6|0,0:0|0:0,0:0:0:0:
430,208,227841,1,8,0:0:0:0:
253,229,228012,1,0,0:0:0:0:
384,108,228184,1,2,0:0:0:0:
349,283,228355,1,0,0:0:0:0:
274,121,228526,2,0,L|224:40,1,85,8|0,0:0|0:0,0:0:0:0:
160,128,228869,5,2,0:0:0:0:
160,128,229041,2,0,P|100:168|80:264,1,170,2|0,0:0|0:0,0:0:0:0:
78,259,229469,1,0,0:0:0:0:
78,259,229555,1,2,0:0:0:0:
172,324,229726,1,0,0:0:0:0:
280,276,229898,2,0,L|244:232,2,42.5,8|0|0,0:0|0:0|0:0,0:0:0:0:
380,344,230241,6,0,P|476:244|472:212,1,170,4|8,0:0|0:0,0:0:0:0:
437,120,230755,1,0,0:0:0:0:
312,320,230926,6,0,P|408:220|404:188,1,170,4|8,0:0|0:0,0:0:0:0:
369,96,231441,1,0,0:0:0:0:
252,296,231612,6,0,P|348:196|344:164,1,170,4|8,0:0|0:0,0:0:0:0:
309,72,232126,1,0,0:0:0:0:
184,272,232298,6,0,P|280:172|276:140,1,170,8|8,0:0|0:0,0:0:0:0:
241,48,232812,1,0,0:0:0:0:
140,96,232984,5,6,0:0:0:0:
400,316,233669,1,2,0:0:0:0:
196,44,234355,1,2,0:0:0:0:
340,352,235041,5,2,0:0:0:0:
339,66,235726,1,2,0:0:0:0:
147,348,236412,1,2,0:0:0:0:
388,116,237098,6,0,B|360:160|392:208|392:208|288:172|216:188,1,255,6|0,0:0|0:0,0:0:0:0:
148,288,237784,2,0,P|112:220|208:60,1,255,6|0,0:0|0:0,0:0:0:0:
256,192,238469,5,2,0:0:0:0:
256,192,239841,5,2,0:0:0:0:
256,192,241041,6,0,L|296:148,1,42.5,4|0,0:0|0:0,0:0:0:0:
376,188,241212,6,0,P|368:124|272:64,1,170,6|8,0:0|0:0,0:0:0:0:
135,56,241726,1,0,0:0:0:0:
68,164,241898,1,2,0:0:0:0:
192,132,242069,1,0,0:0:0:0:
124,260,242241,1,8,0:0:0:0:
256,216,242412,1,0,0:0:0:0:
356,296,242584,6,0,L|444:240,1,85,2|0,0:0|0:0,0:0:0:0:
336,162,242926,2,0,L|264:116,1,85,2|0,0:0|0:0,0:0:0:0:
140,188,243269,1,2,0:0:0:0:
240,328,243441,1,2,0:0:0:0:
264,116,243612,1,2,0:0:0:0:
124,36,243784,1,2,0:0:0:0:
256,192,244169,6,0,L|257:256,1,63.75,2|4,0:0|0:0,0:0:0:0:
256,192,244384,12,0,249441,0:0:0:0:
