osu file format v14

[General]
AudioFilename: FEELxALIVE.mp3
AudioLeadIn: 0
PreviewTime: 46492
Countdown: 0
SampleSet: Soft
StackLeniency: 0.7
Mode: 0
LetterboxInBreaks: 0
WidescreenStoryboard: 0

[Editor]
DistanceSpacing: 1.2
BeatDivisor: 4
GridSize: 4
TimelineZoom: 2.899999

[Metadata]
Title:FEELxALIVE (TV size)
TitleUnicode:FEEL×ALIVE (TV size)
Artist:Sasaki Sayaka
ArtistUnicode:佐咲紗花
Creator:kunka
Version:Easy
Source:ばくおん!!
Tags:bakuon!! opening -nanaka- puttyou kunkakunkakunkakunka
BeatmapID:963810
BeatmapSetID:445590

[Difficulty]
HPDrainRate:2
CircleSize:3
OverallDifficulty:3
ApproachRate:3
SliderMultiplier:0.8
SliderTickRate:1

[Events]
//Background and Video events
0,0,"BG.jpg",0,0
Video,0,"FEELxALIVE.avi"
//Break Periods
//Storyboard Layer 0 (Background)
//Storyboard Layer 1 (Fail)
//Storyboard Layer 2 (Pass)
//Storyboard Layer 3 (Foreground)
//Storyboard Sound Samples

[TimingPoints]
1262,230.769230769231,4,2,1,50,1,0
1262,-166.666666666667,4,2,1,50,0,0
4954,-166.666666666667,4,2,1,60,0,0
5877,-166.666666666667,4,2,1,65,0,0
6800,-166.666666666667,4,2,1,70,0,0
8646,-166.666666666667,4,2,1,65,0,0
16031,-166.666666666667,4,2,1,55,0,0
30800,-166.666666666667,4,2,1,50,0,0
37262,-166.666666666667,4,2,1,55,0,0
47415,-166.666666666667,4,2,1,65,0,1
62069,-166.666666666667,4,2,1,65,0,0
62185,-166.666666666667,4,2,1,65,0,1
76031,-166.666666666667,4,2,1,60,0,0
76492,-166.666666666667,4,2,1,55,0,0
76954,-166.666666666667,4,2,1,65,0,0
84338,-166.666666666667,4,2,1,70,0,0

[Colours]
Combo1 : 255,128,255
Combo2 : 128,255,128
Combo3 : 128,255,255
Combo4 : 255,128,128
Combo5 : 255,255,128

[HitObjects]
351,326,1492,6,0,L|252:337,1,95.9999970703126,8|8,0:0|0:0,0:0:0:0:
245,221,2415,2,0,L|344:210,1,95.9999970703126,8|8,0:0|0:0,0:0:0:0:
450,245,3338,2,0,P|453:199|437:151,1,95.9999970703126,8|8,0:0|0:0,0:0:0:0:
334,100,4262,2,0,L|238:110,1,95.9999970703126,8|8,0:0|0:0,0:0:0:0:
130,71,5185,6,0,P|85:58|37:70,1,95.9999970703126,8|8,0:0|0:0,0:0:0:0:
82,176,6108,1,8,0:0:0:0:
148,335,6800,2,0,L|219:327,2,71.9999978027344,4|4|8,0:0|0:0|0:0,0:0:0:0:
96,309,7723,1,12,0:0:0:0:
52,82,8646,6,0,L|100:76,1,47.9999985351563,6|8,0:0|0:0,0:0:0:0:
206,32,9338,2,0,P|219:78|206:123,1,95.9999970703126,8|8,0:0|0:0,0:0:0:0:
113,192,10262,2,0,L|64:197,2,47.9999985351563,8|2|8,0:0|0:0|0:0,0:0:0:0:
219,237,11185,1,8,0:0:0:0:
324,282,11646,2,0,L|372:287,1,47.9999985351563,8|12,0:0|0:0,0:0:0:0:
455,207,12338,6,0,L|460:158,1,47.9999985351563,6|8,0:0|0:0,0:0:0:0:
414,53,13031,2,0,P|368:40|323:53,1,95.9999970703126,8|8,0:0|0:0,0:0:0:0:
279,159,13954,2,0,L|284:207,2,47.9999985351563,12|2|12,0:0|0:0|0:0,0:0:0:0:
209,67,14877,2,0,L|160:61,1,47.9999985351563,12|14,0:0|0:0,0:0:0:0:
55,17,15569,1,10,0:0:0:0:
69,131,16031,6,0,L|63:179,1,47.9999985351563,6|8,0:0|0:0,0:0:0:0:
78,293,16723,1,8,0:0:0:0:
174,356,17185,2,0,P|221:371|264:356,1,95.9999970703126,8|8,0:0|0:0,0:0:0:0:
314,330,17877,2,0,L|362:335,1,47.9999985351563,2|8,0:0|0:0,0:0:0:0:
454,266,18569,1,8,0:0:0:0:
502,161,19031,2,0,P|454:148|408:161,1,95.9999970703126,8|8,0:0|0:0,0:0:0:0:
364,194,19723,6,0,L|315:188,1,47.9999985351563,2|8,0:0|0:0,0:0:0:0:
206,225,20415,1,8,0:0:0:0:
101,273,20877,2,0,P|88:225|101:179,1,95.9999970703126,8|8,0:0|0:0,0:0:0:0:
115,126,21569,2,0,L|64:71,2,71.9999978027344,2|2|8,0:0|0:0|0:0,0:0:0:0:
218,74,22723,2,0,P|265:59|308:74,1,95.9999970703126,8|8,0:0|0:0,0:0:0:0:
353,107,23415,6,0,L|359:156,1,47.9999985351563,6|8,0:0|0:0,0:0:0:0:
433,243,24108,1,8,0:0:0:0:
392,351,24569,2,0,P|347:366|302:351,1,95.9999970703126,8|8,0:0|0:0,0:0:0:0:
249,327,25262,2,0,L|200:321,1,47.9999985351563,2|8,0:0|0:0,0:0:0:0:
86,308,25954,1,8,0:0:0:0:
38,203,26416,2,0,P|86:190|132:203,1,95.9999970703126,8|8,0:0|0:0,0:0:0:0:
178,233,27108,6,0,L|227:239,1,47.9999985351563,2|8,0:0|0:0,0:0:0:0:
341,246,27800,1,8,0:0:0:0:
431,174,28262,2,0,P|446:127|431:84,1,95.9999970703126,8|8,0:0|0:0,0:0:0:0:
323,44,29185,2,0,L|225:55,1,95.9999970703126,8|8,0:0|0:0,0:0:0:0:
186,94,29877,2,0,L|115:85,2,71.9999978027344,6|6|8,0:0|0:0|0:0,0:0:0:0:
193,151,30800,6,0,L|198:198,1,47.9999985351563,6|8,0:0|0:0,0:0:0:0:
153,305,31492,2,0,P|200:320|243:305,1,95.9999970703126,8|8,0:0|0:0,0:0:0:0:
336,237,32415,2,0,P|351:190|336:147,1,95.9999970703126,8|8,0:0|0:0,0:0:0:0:
291,41,33338,2,0,P|338:28|383:40,2,95.9999970703126,8|8|8,0:0|0:0|0:0,0:0:0:0:
241,70,34492,6,0,L|190:63,1,47.9999985351563,2|8,0:0|0:0,0:0:0:0:
166,175,35185,2,0,L|264:164,1,95.9999970703126,8|8,0:0|0:0,0:0:0:0:
325,260,36108,1,8,0:0:0:0:
264,356,36569,2,0,L|166:345,1,95.9999970703126,8|8,0:0|0:0,0:0:0:0:
127,305,37262,2,0,L|54:313,2,71.9999978027344,6|6|12,0:0|0:0|0:0,0:0:0:0:
142,249,38185,6,0,L|149:198,1,47.9999985351563,6|8,0:0|0:0,0:0:0:0:
122,89,38877,1,8,0:0:0:0:
226,41,39338,2,0,P|270:27|315:42,1,95.9999970703126,8|8,0:0|0:0,0:0:0:0:
372,54,40031,2,0,L|423:61,1,47.9999985351563,2|8,0:0|0:0,0:0:0:0:
493,150,40723,1,8,0:0:0:0:
482,264,41185,2,0,P|460:305|418:326,1,95.9999970703126,12|8,0:0|0:0,0:0:0:0:
359,324,41877,6,0,L|311:317,1,47.9999985351563,2|8,0:0|0:0,0:0:0:0:
229,236,42569,1,8,1:2:0:0:
193,126,43031,2,0,L|200:75,2,47.9999985351563,8|8|2,0:0|0:0|0:0,0:0:0:0:
145,159,43723,2,0,L|72:147,2,71.9999978027344,12|4|12,0:0|0:0|0:0,0:0:0:0:
160,214,44646,2,0,B|200:230|232:214|232:214|264:230|304:214,1,143.999995605469,12|10,0:0|0:0,0:0:0:0:
314,159,45569,6,0,L|386:148,2,71.9999978027344,12|12|12,0:0|0:0|0:0,0:0:0:0:
266,126,46492,1,2,0:0:0:0:
49,51,47415,6,0,L|2:74,1,47.9999985351563,6|8,0:0|0:0,0:0:0:0:
3,187,48108,1,8,0:0:0:0:
23,300,48569,2,0,P|45:341|87:362,1,95.9999970703126,8|8,0:0|0:0,0:0:0:0:
143,379,49262,2,0,L|190:372,1,47.9999985351563,2|8,0:0|0:0,0:0:0:0:
296,326,49954,1,8,0:0:0:0:
410,338,50415,2,0,P|425:291|410:248,1,95.9999970703126,8|8,0:0|0:0,0:0:0:0:
357,224,51108,6,0,L|309:230,1,47.9999985351563,2|8,0:0|0:0,0:0:0:0:
209,172,51800,1,8,0:0:0:0:
253,65,52262,2,0,P|206:54|160:67,1,95.9999970703126,8|8,0:0|0:0,0:0:0:0:
121,108,52954,2,0,L|114:155,1,47.9999985351563,2|8,0:0|0:0,0:0:0:0:
180,249,53646,2,0,L|173:296,2,47.9999985351563,2|8|12,0:0|0:0|0:0,0:0:0:0:
276,186,54569,1,10,0:0:0:0:
326,157,54800,6,0,L|373:150,1,47.9999985351563,6|8,0:0|0:0,0:0:0:0:
482,186,55492,1,8,0:0:0:0:
443,294,55954,2,0,P|421:335|379:356,1,95.9999970703126,8|8,0:0|0:0,0:0:0:0:
321,361,56646,2,0,L|274:354,1,47.9999985351563,2|8,0:0|0:0,0:0:0:0:
168,306,57338,1,8,0:0:0:0:
63,354,57800,2,0,P|51:308|63:260,1,95.9999970703126,8|12,0:0|0:0,0:0:0:0:
84,208,58492,6,0,P|74:172|57:140,2,71.9999978027344,6|6|8,0:0|0:0|0:0,0:0:0:0:
139,226,59415,2,0,P|185:238|233:226,1,95.9999970703126,6|0,0:0|0:0,0:0:0:0:
279,194,60108,1,8,0:0:0:0:
322,156,60338,2,0,P|387:131|454:156,2,143.999995605469,6|12|2,0:0|0:0|0:0,0:0:0:0:
216,202,62185,6,0,L|167:202,1,47.9999985351563,6|8,0:0|0:0,0:0:0:0:
72,137,62877,1,8,0:0:0:0:
20,239,63338,2,0,P|5:283|20:328,1,95.9999970703126,8|8,0:0|0:0,0:0:0:0:
54,375,64031,2,0,L|102:375,1,47.9999985351563,2|8,0:0|0:0,0:0:0:0:
203,320,64723,1,8,0:0:0:0:
317,332,65185,2,0,P|361:346|406:332,1,95.9999970703126,12|8,0:0|0:0,0:0:0:0:
453,298,65877,6,0,L|487:264,1,47.9999985351563,2|8,0:0|0:0,0:0:0:0:
452,154,66569,1,8,0:0:0:0:
497,48,67030,2,0,P|450:37|403:50,1,95.9999970703126,8|8,0:0|0:0,0:0:0:0:
354,77,67723,2,0,L|307:77,1,47.9999985351563,2|8,0:0|0:0,0:0:0:0:
211,143,68415,1,8,0:0:0:0:
262,246,68877,2,0,P|276:290|261:335,1,95.9999970703126,12|2,0:0|0:0,0:0:0:0:
211,363,69569,6,0,L|164:363,1,47.9999985351563,6|8,0:0|0:0,0:0:0:0:
73,289,70261,1,8,0:0:0:0:
25,185,70723,2,0,P|10:140|25:95,1,95.9999970703126,8|8,0:0|0:0,0:0:0:0:
76,68,71415,2,0,L|123:68,1,47.9999985351563,6|8,0:0|0:0,0:0:0:0:
225,124,72108,1,12,0:0:0:0:
336,94,72569,1,12,0:0:0:0:
453,221,73262,6,0,P|461:185|453:152,2,71.9999978027344,6|6|8,0:0|0:0|0:0,0:0:0:0:
406,254,74185,2,0,L|308:266,1,95.9999970703126,6|0,0:0|0:0,0:0:0:0:
217,333,75108,1,2,0:0:0:0:
112,285,75569,1,2,0:0:0:0:
67,178,76031,2,0,P|111:166|158:178,1,95.9999970703126,4|4,0:3|3:0,0:0:0:0:
272,192,76954,6,0,L|319:186,1,47.9999985351563,6|8,0:0|0:0,0:0:0:0:
434,175,77646,1,8,0:0:0:0:
479,69,78108,2,0,P|433:58|387:69,1,95.9999970703126,8|8,0:0|0:0,0:0:0:0:
335,95,78800,2,0,L|287:100,1,47.9999985351563,2|8,0:0|0:0,0:0:0:0:
182,146,79492,1,8,0:0:0:0:
76,99,79954,2,0,P|65:146|76:193,1,95.9999970703126,8|8,0:0|0:0,0:0:0:0:
98,245,80646,6,0,L|98:295,1,47.9999985351563,2|8,0:0|0:0,0:0:0:0:
199,347,81338,1,8,0:0:0:0:
302,295,81800,2,0,P|315:250|302:204,1,95.9999970703126,8|8,0:0|0:0,0:0:0:0:
258,165,82492,2,0,L|208:165,1,47.9999985351563,2|8,0:0|0:0,0:0:0:0:
131,80,83185,2,0,L|81:80,2,47.9999985351563,8|2|2,0:0|0:0|0:0,0:0:0:0:
180,49,83877,1,12,0:0:0:0:
294,63,84338,6,0,L|366:42,2,71.9999978027344,8|12|8,0:0|0:0|0:0,0:0:0:0:
229,120,85377,2,0,L|216:190,1,71.9999978027344,12|8,0:0|0:0,0:0:0:0:
256,192,86185,12,4,87627,0:3:0:0:
