osu file format v14

[General]
AudioFilename: optc.mp3
AudioLeadIn: 0
PreviewTime: 76648
Countdown: 0
SampleSet: Soft
StackLeniency: 0.7
Mode: 0
LetterboxInBreaks: 0
WidescreenStoryboard: 1

[Editor]
Bookmarks: 583,13697,26812,30091,40582,51074,61566,66812,72058,77304,87795,98287,103533,106812
DistanceSpacing: 1.2
BeatDivisor: 4
GridSize: 16
TimelineZoom: 2.6

[Metadata]
Title:Exceed the Destiny (short ver.)
TitleUnicode:Exceed the Destiny (short ver.)
Artist:Sasaki Sayaka
ArtistUnicode:佐咲紗花
Creator:Shad0w1and
Version:Insane
Source:超昂神騎エクシール
Tags:Choukou Shinki Ixseal Beat Valkyrie Kyriel アリスソフト AliceSoft Alice Soft
BeatmapID:1379220
BeatmapSetID:650655

[Difficulty]
HPDrainRate:6
CircleSize:4
OverallDifficulty:8
ApproachRate:9
SliderMultiplier:1.3
SliderTickRate:1

[Events]
//Background and Video events
0,0,"BG2.jpg",0,0
Video,0,"optc.flv"
//Break Periods
//Storyboard Layer 0 (Background)
//Storyboard Layer 1 (Fail)
//Storyboard Layer 2 (Pass)
//Storyboard Layer 3 (Foreground)
//Storyboard Sound Samples

[TimingPoints]
583,327.868852459016,4,2,1,80,1,0
12714,-100,4,2,1,55,0,0
13697,-83.3333333333333,4,2,1,90,0,1
24189,-100,4,2,1,80,0,0
30091,327.868852459016,4,2,1,60,1,0
39927,-100,4,2,1,45,0,0
40582,-83.3333333333333,4,2,1,70,0,0
50500,-83.3333333333333,4,2,1,55,0,0
51074,-83.3333333333333,4,2,1,70,0,0
65500,-83.3333333333333,4,2,1,55,0,0
66812,-83.3333333333333,4,2,1,80,0,0
72058,-83.3333333333333,4,2,1,90,0,0
75828,-100,4,2,1,80,0,0
77304,-66.6666666666667,4,2,1,100,0,1
87550,-66.6666666666667,4,2,1,80,0,1
87795,-66.6666666666667,4,2,1,100,0,1
98287,-83.3333333333333,4,2,1,90,0,1
102222,-83.3333333333333,4,2,1,70,0,1
102877,-83.3333333333333,4,2,1,80,0,1
103533,-133.333333333333,4,2,1,80,0,0

[Colours]
Combo1 : 255,226,140
Combo2 : 98,255,176
Combo3 : 81,159,255
Combo4 : 243,56,84

[HitObjects]
208,124,91,6,0,P|208:160|224:200,2,65,2|2|2,0:0|0:0|0:0,0:0:0:0:
271,49,583,6,0,P|326:42|426:15,1,130,6|0,0:0|0:0,0:0:0:0:
446,157,1074,2,0,P|375:147|303:144,1,130,2|0,0:0|0:0,0:0:0:0:
316,144,1730,6,0,P|342:230|248:221,1,195,2|0,0:0|0:0,0:0:0:0:
271,49,2386,2,0,P|299:30|341:-1,1,65,2|0,0:0|0:0,0:0:0:0:
208,124,2714,2,0,P|146:105|68:98,1,130,2|0,0:0|0:0,0:0:0:0:
187,298,3205,6,0,P|247:296|260:237,1,130,2|0,0:0|0:0,0:0:0:0:
112,210,3697,2,0,P|116:286|118:360,1,130,2|0,0:0|0:0,0:0:0:0:
260,237,4189,2,0,P|286:238|341:240,1,65,2|2,0:0|0:0,0:0:0:0:
309,79,4517,6,0,P|237:80|206:135,1,130,2|0,0:0|0:0,0:0:0:0:
399,151,5173,2,0,P|407:96|416:11,1,130,2|0,0:0|0:0,0:0:0:0:
207,123,5828,6,0,P|228:146|269:168,1,65,2|0,0:0|0:0,0:0:0:0:
399,151,6156,2,0,P|355:148|319:163,1,65,0|0,0:0|0:0,0:0:0:0:
246,252,6484,2,0,P|276:245|315:220,1,65,0|0,0:0|0:0,0:0:0:0:
317,37,6812,2,0,P|292:73|287:112,1,65,0|0,0:0|0:0,0:0:0:0:
383,228,7140,6,0,P|419:223|467:222,1,65,2|0,0:0|0:0,0:0:0:0:
246,252,7468,2,0,P|256:289|275:316,2,65,0|0|0,0:0|0:0|0:0,0:0:0:0:
383,228,7960,6,0,L|398:192,3,32.5,0|0|0|0,0:0|0:0|0:0|0:0,0:0:0:0:
388,111,8287,5,0,0:0:0:0:
388,111,8369,1,0,0:0:0:0:
388,111,8451,1,14,0:0:0:0:
338,101,9599,5,14,0:0:0:0:
287,93,11074,6,0,L|237:103,3,32.5,14|0|2|0,0:0|0:0|0:0|0:0,0:0:0:0:
188,47,11402,2,0,L|154:43,3,32.5,2|0|2|0,0:0|0:0|0:0|0:0,0:0:0:0:
83,94,11730,6,0,L|90:153,1,32.5,2|0,0:0|0:0,0:0:0:0:
146,219,11894,2,0,L|154:167,1,32.5,2|0,0:0|0:0,0:0:0:0:
232,123,12058,2,0,L|232:159,1,32.5,2|0,0:0|0:0,0:0:0:0:
288,226,12222,6,0,B|324:247|324:247|432:225,1,130,14|0,0:0|0:0,0:0:0:0:
269,86,12714,5,8,0:1:0:0:
247,122,12796,1,8,0:1:0:0:
241,158,12878,1,8,0:1:0:0:
254,198,12960,1,8,0:1:0:0:
288,226,13042,6,0,L|334:229,1,32.5,8|8,0:1|0:1,0:0:0:0:
219,280,13205,2,0,L|169:278,1,32.5,8|8,0:1|0:1,0:0:0:0:
298,310,13369,2,0,L|346:314,1,32.5,8|8,0:1|0:1,0:0:0:0:
229,363,13533,2,0,L|197:362,1,32.5,8|8,0:1|0:1,0:0:0:0:
404,340,13697,6,0,L|407:225,1,77.999997619629,14|0,0:0|0:0,0:0:0:0:
320,150,14025,2,0,L|320:228,1,77.999997619629,8|8,0:1|0:0,0:0:0:0:
396,94,14353,1,0,0:0:0:0:
226,201,14517,1,8,0:0:0:0:
406,262,14681,1,8,0:1:0:0:
226,88,14845,6,0,P|151:111|117:199,1,155.999995239258,10|8,0:0|0:0,0:0:0:0:
320,228,15337,1,8,0:1:0:0:
396,94,15501,2,0,P|432:92|480:87,1,77.999997619629,8|8,0:1|0:0,0:0:0:0:
479,243,15828,1,8,0:0:0:0:
320,228,15992,2,0,P|308:192|321:137,1,77.999997619629,8|0,0:1|0:0,0:0:0:0:
391,367,16320,6,0,P|349:361|295:361,1,77.999997619629,10|0,0:0|0:0,0:0:0:0:
146,302,16648,2,0,P|184:298|248:278,1,77.999997619629,8|8,0:1|0:0,0:0:0:0:
313,152,16976,1,0,0:0:0:0:
140,146,17140,1,8,0:0:0:0:
322,251,17304,1,8,0:1:0:0:
146,302,17468,6,0,L|140:146,1,155.999995239258,10|8,0:0|0:0,0:0:0:0:
313,152,17960,1,8,0:1:0:0:
223,301,18123,2,0,L|142:302,1,77.999997619629,8|8,0:1|0:0,0:0:0:0:
140,146,18451,1,8,0:0:0:0:
313,152,18615,2,0,P|318:203|296:259,1,77.999997619629,8|8,0:1|0:1,0:0:0:0:
334,330,18861,1,8,0:1:0:0:
362,342,18943,6,0,P|406:333|463:326,1,77.999997619629,14|0,0:0|0:0,0:0:0:0:
312,228,19271,2,0,P|268:221|198:213,1,77.999997619629,8|8,0:1|0:0,0:0:0:0:
249,338,19599,1,0,0:0:0:0:
423,238,19763,1,8,0:0:0:0:
234,216,19927,1,8,0:1:0:0:
451,370,20091,6,0,P|471:306|394:230,1,155.999995239258,10|8,0:0|0:0,0:0:0:0:
249,338,20582,1,8,0:1:0:0:
140,146,20746,2,0,L|53:137,1,77.999997619629,8|8,0:1|0:0,0:0:0:0:
146,302,21074,1,8,0:0:0:0:
234,216,21238,2,0,L|330:209,1,77.999997619629,8|0,0:1|0:0,0:0:0:0:
222,35,21566,6,0,P|156:71|139:145,1,155.999995239258,10|8,0:0|0:1,0:0:0:0:
311,210,22058,1,8,0:0:0:0:
333,4,22222,1,0,0:0:0:0:
229,129,22386,1,8,0:0:0:0:
414,145,22550,1,8,0:1:0:0:
222,35,22714,6,0,L|234:192,1,155.999995239258,10|8,0:0|0:0,0:0:0:0:
316,79,23205,1,8,0:1:0:0:
139,145,23369,2,0,P|101:126|80:94,1,77.999997619629,8|8,0:1|0:0,0:0:0:0:
311,210,23697,2,0,P|343:201|394:191,1,77.999997619629,8|8,0:0|0:1,0:0:0:0:
146,302,24025,5,8,0:1:0:0:
146,302,24107,1,8,0:1:0:0:
146,302,24189,1,14,0:0:0:0:
256,192,24271,12,2,26484,0:0:0:0:
256,192,26648,5,0,0:0:0:0:
256,192,26730,1,0,0:0:0:0:
256,192,26812,1,6,0:0:0:0:
144,192,27304,1,6,0:0:0:0:
368,192,27796,1,6,0:0:0:0:
32,192,28287,1,6,0:0:0:0:
256,192,28369,12,0,29927,0:0:0:0:
155,135,30091,6,0,P|183:154|216:167,2,65,6|2|2,0:3|0:0|0:0,0:0:0:0:
85,202,30582,1,2,0:0:0:0:
161,261,30746,2,0,P|218:249|314:237,1,130,2|0,0:0|0:0,0:0:0:0:
387,239,31238,6,0,P|380:300|369:367,2,130,2|0|0,0:0|0:0|0:0,0:0:0:0:
339,153,32058,2,0,P|395:143|483:135,1,130,2|0,0:0|0:0,0:0:0:0:
387,239,32550,1,2,0:0:0:0:
387,239,32713,6,0,P|395:273|409:307,2,65,2|2|2,0:0|0:0|0:0,0:0:0:0:
289,239,33205,2,0,P|230:254|245:337,1,130,2|2,0:0|0:0,0:0:0:0:
387,239,33861,6,0,P|366:121|357:44,1,195,2|0,0:0|0:0,0:0:0:0:
357,46,34517,1,2,0:0:0:0:
289,239,34845,2,0,P|255:246|207:231,2,65,2|2|2,0:0|0:0|0:0,0:0:0:0:
255,147,35336,5,14,0:0:0:0:
153,106,35500,2,0,P|156:150|167:198,1,65,2|2,0:0|0:0,0:0:0:0:
33,104,35828,2,0,P|93:83|153:105,1,130,2|2,0:0|0:0,0:0:0:0:
225,240,36484,6,0,P|279:226|362:213,1,130,2|0,0:0|0:0,0:0:0:0:
255,147,36976,1,2,0:0:0:0:
92,191,37140,2,0,P|100:257|112:329,1,130,2|0,0:0|0:0,0:0:0:0:
225,240,37631,1,2,0:0:0:0:
225,240,37795,6,0,P|278:249|373:258,1,130,2|0,0:0|0:0,0:0:0:0:
405,109,38451,1,2,0:0:0:0:
241,111,38779,2,0,P|231:175|224:239,1,130,2|2,0:0|0:0,0:0:0:0:
311,312,39271,6,0,L|299:371,3,32.5,2|0|2|0,0:0|0:0|0:0|0:0,0:0:0:0:
213,352,39599,2,0,L|201:411,3,32.5,2|0|2|0,0:0|0:0|0:0|0:0,0:0:0:0:
142,297,39927,5,10,0:1:0:0:
142,297,40009,1,8,0:1:0:0:
142,297,40090,1,8,0:1:0:0:
142,297,40172,1,8,0:1:0:0:
142,297,40254,2,0,L|83:299,1,32.5,8|8,0:1|0:1,0:0:0:0:
224,239,40418,2,0,L|275:240,1,32.5,8|8,0:1|0:1,0:0:0:0:
128,141,40582,6,0,P|133:220|143:308,1,155.999995239258,14|8,0:0|0:1,0:0:0:0:
315,196,41074,2,0,P|274:170|222:173,1,77.999997619629,0|8,0:0|0:0,0:0:0:0:
278,323,41402,2,0,P|311:317|358:307,1,77.999997619629,0|8,0:0|0:1,0:0:0:0:
440,227,41730,1,0,0:0:0:0:
440,227,41894,6,0,L|457:122,2,77.999997619629,10|0|8,0:0|0:0|0:1,0:0:0:0:
355,308,42386,1,0,0:0:0:0:
315,196,42550,2,0,L|330:106,2,77.999997619629,8|0|8,0:0|0:0|0:1,0:0:0:0:
227,273,43041,1,0,0:0:0:0:
199,159,43205,6,0,P|161:152|119:149,1,77.999997619629,10|0,0:0|0:0,0:0:0:0:
227,273,43533,1,8,0:1:0:0:
315,196,43697,2,0,L|329:112,1,77.999997619629,0|8,0:0|0:0,0:0:0:0:
211,82,44025,2,0,L|196:167,1,77.999997619629,0|8,0:0|0:1,0:0:0:0:
227,273,44353,1,0,0:0:0:0:
227,273,44517,6,0,P|258:301|310:314,2,77.999997619629,10|0|8,0:0|0:0|0:1,0:0:0:0:
315,196,45009,1,0,0:0:0:0:
407,266,45172,2,0,L|396:358,1,77.999997619629,8|0,0:0|0:0,0:0:0:0:
291,312,45500,1,8,0:1:0:0:
423,155,45664,1,0,0:0:0:0:
423,155,45746,1,0,0:0:0:0:
423,155,45828,6,0,L|527:145,1,77.999997619629,14|0,0:0|0:0,0:0:0:0:
407,266,46156,1,8,0:1:0:0:
315,196,46320,2,0,P|305:152|315:104,1,77.999997619629,0|8,0:0|0:0,0:0:0:0:
407,266,46648,2,0,L|398:349,1,77.999997619629,0|8,0:0|0:1,0:0:0:0:
291,312,46976,1,0,0:0:0:0:
291,312,47140,6,0,L|214:298,1,77.999997619629,10|0,0:0|0:0,0:0:0:0:
315,196,47468,1,8,0:1:0:0:
407,266,47631,1,0,0:0:0:0:
501,161,47795,2,0,L|424:148,1,77.999997619629,8|0,0:0|0:0,0:0:0:0:
315,196,48123,1,8,0:1:0:0:
407,266,48287,1,0,0:0:0:0:
407,266,48451,6,0,P|416:310|407:363,1,77.999997619629,10|0,0:0|0:0,0:0:0:0:
291,312,48779,1,8,0:1:0:0:
315,196,48943,2,0,L|392:189,1,77.999997619629,0|8,0:0|0:0,0:0:0:0:
291,312,49271,2,0,L|188:292,1,77.999997619629,0|8,0:0|0:1,0:0:0:0:
392,189,49599,1,0,0:0:0:0:
413,342,49763,6,0,L|468:346,3,38.9999988098145,10|0|2|0,0:0|0:0|0:0|0:0,0:0:0:0:
407,266,50090,2,0,L|447:263,3,38.9999988098145,10|0|2|0,0:0|0:0|0:0|0:0,0:0:0:0:
315,196,50418,5,8,0:1:0:0:
275,196,50500,1,8,0:1:0:0:
240,179,50582,1,8,0:1:0:0:
218,148,50664,1,8,0:1:0:0:
211,111,50746,1,8,0:1:0:0:
223,74,50828,1,8,0:1:0:0:
250,46,50910,1,8,0:1:0:0:
287,35,50992,1,8,0:1:0:0:
327,34,51074,6,0,L|433:25,1,77.999997619629,14|8,0:0|0:0,0:0:0:0:
295,116,51402,1,8,0:1:0:0:
283,229,51566,2,0,P|334:175|289:114,1,155.999995239258,8|8,0:0|0:0,0:0:0:0:
295,116,52222,6,0,L|388:108,1,77.999997619629,14|0,0:0|0:0,0:0:0:0:
283,229,52550,2,0,L|179:221,1,77.999997619629,8|8,0:0|0:1,0:0:0:0:
309,335,52877,2,0,L|413:327,1,77.999997619629,8|0,0:0|0:0,0:0:0:0:
283,229,53205,1,8,0:0:0:0:
198,309,53369,2,0,P|197:354|211:386,1,77.999997619629,8|0,0:1|0:0,0:0:0:0:
386,329,53697,6,0,P|400:298|400:250,1,77.999997619629,14|8,0:0|0:0,0:0:0:0:
283,229,54025,1,8,0:1:0:0:
295,116,54189,2,0,P|333:178|280:230,1,155.999995239258,8|8,0:0|0:0,0:0:0:0:
283,229,54681,1,8,0:1:0:0:
295,116,54845,6,0,P|372:109|467:107,1,155.999995239258,14|8,0:0|0:0,0:0:0:0:
283,229,55336,2,0,L|182:210,1,77.999997619629,8|8,0:1|0:0,0:0:0:0:
295,116,55664,5,8,0:0:0:0:
283,229,55828,1,8,0:0:0:0:
271,337,55992,1,8,0:1:0:0:
271,337,56320,6,0,L|162:341,1,77.999997619629,14|8,0:0|0:0,0:0:0:0:
283,229,56648,1,8,0:1:0:0:
295,116,56812,2,0,P|334:176|278:229,1,155.999995239258,8|8,0:0|0:0,0:0:0:0:
283,228,57468,6,0,L|374:236,1,77.999997619629,14|0,0:0|0:0,0:0:0:0:
295,116,57795,2,0,L|206:122,1,77.999997619629,8|8,0:0|0:1,0:0:0:0:
307,10,58123,2,0,L|394:17,1,77.999997619629,8|0,0:0|0:0,0:0:0:0:
295,116,58451,1,8,0:0:0:0:
186,160,58615,2,0,L|96:153,1,77.999997619629,8|0,0:1|0:0,0:0:0:0:
281,304,58943,6,0,P|289:266|283:228,1,77.999997619629,14|8,0:0|0:0,0:0:0:0:
186,160,59271,1,8,0:1:0:0:
281,304,59435,2,0,P|321:294|375:287,1,77.999997619629,8|0,0:0|0:0,0:0:0:0:
186,160,59763,2,0,P|147:154|110:142,1,77.999997619629,8|0,0:0|0:0,0:0:0:0:
182,267,60090,2,0,P|175:311|189:366,1,77.999997619629,14|0,0:0|0:0,0:0:0:0:
283,229,60418,5,8,0:0:0:0:
295,116,60582,1,8,0:1:0:0:
307,10,60746,1,8,0:0:0:0:
283,229,60910,5,8,0:0:0:0:
295,116,61074,1,8,0:0:0:0:
186,160,61238,2,0,P|169:201|170:249,1,77.999997619629,8|0,0:1|0:0,0:0:0:0:
295,116,61566,6,0,P|216:103|134:78,1,155.999995239258,14|8,0:0|0:1,0:0:0:0:
283,229,62058,1,8,0:0:0:0:
283,229,62386,5,8,0:0:0:0:
295,116,62550,1,8,0:1:0:0:
387,193,62713,2,0,P|347:256|283:229,1,155.999995239258,10|8,0:0|0:0,0:0:0:0:
295,116,63205,1,8,0:1:0:0:
406,79,63369,1,8,0:0:0:0:
283,229,63533,6,0,L|184:215,1,77.999997619629,8|8,0:0|0:0,0:0:0:0:
406,79,63861,2,0,L|487:85,1,77.999997619629,8|0,0:1|0:0,0:0:0:0:
363,343,64189,6,0,P|297:301|292:201,1,155.999995239258,10|8,0:0|0:1,0:0:0:0:
493,244,64681,2,0,P|476:293|461:350,1,77.999997619629,8|0,0:0|0:0,0:0:0:0:
384,239,65009,2,0,P|378:202|378:143,1,77.999997619629,8|8,0:0|0:1,0:0:0:0:
493,244,65336,1,10,0:0:0:0:
282,228,65500,5,8,0:1:0:0:
261,204,65582,1,8,0:1:0:0:
250,175,65664,1,8,0:1:0:0:
249,144,65746,1,8,0:1:0:0:
260,115,65828,6,0,L|208:115,1,38.9999988098145,8|8,0:1|0:1,0:0:0:0:
337,161,65992,2,0,L|378:161,1,38.9999988098145,8|8,0:1|0:1,0:0:0:0:
261,32,66156,6,8,L|220:32,3,38.9999988098145,8|8|8|8,0:1|0:1|0:1|0:1,0:0:0:0:
338,74,66484,2,8,L|383:73,3,38.9999988098145,8|8|8|8,0:1|0:1|0:1|0:1,0:0:0:0:
455,118,66812,6,0,P|461:192|408:248,1,155.999995239258,14|8,0:0|0:1,0:0:0:0:
250,175,67304,1,8,0:0:0:0:
376,161,67468,1,0,0:0:0:0:
319,276,67631,1,8,0:0:0:0:
300,58,67795,2,0,P|335:68|376:72,1,77.999997619629,8|0,0:1|0:0,0:0:0:0:
250,175,68123,5,14,0:0:0:0:
376,161,68287,1,8,0:0:0:0:
300,58,68451,2,0,P|254:52|197:37,1,77.999997619629,8|0,0:1|0:0,0:0:0:0:
250,175,68779,2,0,P|221:213|200:249,1,77.999997619629,8|0,0:0|0:0,0:0:0:0:
332,352,69107,2,0,P|326:314|313:255,1,77.999997619629,8|0,0:1|0:0,0:0:0:0:
167,351,69435,6,0,P|123:328|96:284,1,77.999997619629,14|0,0:0|0:0,0:0:0:0:
203,160,69763,2,0,L|205:253,1,77.999997619629,8|0,0:1|0:0,0:0:0:0:
318,275,70090,1,8,0:0:0:0:
319,165,70254,1,8,0:0:0:0:
104,228,70418,2,0,L|106:339,1,77.999997619629,8|0,0:1|0:0,0:0:0:0:
318,275,70746,6,0,P|353:267|428:257,1,77.999997619629,14|0,0:0|0:0,0:0:0:0:
203,160,71074,2,0,P|161:154|121:150,1,77.999997619629,8|0,0:1|0:0,0:0:0:0:
319,165,71402,2,0,P|341:144|348:76,1,77.999997619629,8|0,0:0|0:0,0:0:0:0:
202,269,71730,2,0,L|208:370,1,77.999997619629,8|0,0:1|0:0,0:0:0:0:
85,165,72058,5,14,0:0:0:0:
99,201,72222,1,8,0:0:0:0:
202,269,72386,5,8,0:1:0:0:
216,233,72550,1,8,0:0:0:0:
319,165,72713,5,8,0:1:0:0:
333,201,72877,1,8,0:0:0:0:
436,269,73041,5,8,0:1:0:0:
450,233,73205,1,8,0:0:0:0:
318,275,73369,5,14,0:0:0:0:
168,155,73533,1,8,0:0:0:0:
376,161,73697,1,8,0:1:0:0:
202,269,73861,1,8,0:0:0:0:
300,58,74025,5,8,0:1:0:0:
318,275,74189,1,8,0:0:0:0:
125,150,74353,1,8,0:1:0:0:
376,161,74517,6,0,L|439:162,2,38.9999988098145,8|8|14,0:1|0:1|0:0,0:0:0:0:
202,269,75172,5,14,0:0:0:0:
231,144,75500,5,8,0:1:0:0:
231,144,75582,1,8,0:1:0:0:
231,144,75664,1,14,0:0:0:0:
390,248,75828,6,0,P|493:201|378:83,1,325,14|0,0:0|0:0,0:0:0:0:
350,156,76812,6,0,P|381:164|414:161,2,65,2|2|2,0:0|0:0|0:0,0:0:0:0:
231,144,77304,6,0,P|203:233|300:239,1,195.00000743866,14|8,0:0|0:1,0:0:0:0:
231,144,77795,2,0,P|178:138|101:121,1,97.50000371933,8|0,0:0|0:0,0:0:0:0:
281,253,78123,2,0,P|319:247|417:237,1,97.50000371933,8|8,0:0|0:1,0:0:0:0:
337,18,78451,6,0,P|248:54|230:143,1,195.00000743866,10|8,0:0|0:0,0:0:0:0:
377,240,78943,1,8,0:1:0:0:
436,128,79107,2,0,L|338:128,1,97.50000371933,8|0,0:0|0:0,0:0:0:0:
183,259,79435,2,0,L|280:252,1,97.50000371933,8|8,0:0|0:1,0:0:0:0:
108,339,79763,1,0,0:0:0:0:
108,339,79845,1,0,0:0:0:0:
108,339,79927,6,0,P|72:260|145:156,1,195.00000743866,10|8,0:0|0:1,0:0:0:0:
280,252,80418,2,0,P|273:308|267:371,1,97.50000371933,8|0,0:0|0:0,0:0:0:0:
377,240,80746,1,8,0:0:0:0:
183,259,80910,1,8,0:1:0:0:
374,358,81074,1,8,0:0:0:0:
230,143,81238,6,0,L|123:128,1,97.50000371933,10|0,0:0|0:0,0:0:0:0:
183,259,81566,1,8,0:1:0:0:
377,240,81730,2,0,P|410:209|424:146,1,97.50000371933,8|0,0:0|0:0,0:0:0:0:
278,64,82058,2,0,P|242:96|229:146,1,97.50000371933,8|8,0:0|0:1,0:0:0:0:
377,337,82386,1,0,0:0:0:0:
377,337,82468,1,0,0:0:0:0:
377,337,82550,6,0,L|377:233,1,97.50000371933,14|0,0:0|0:0,0:0:0:0:
268,348,82877,1,8,0:1:0:0:
473,288,83041,1,8,0:0:0:0:
228,142,83205,6,0,L|228:261,1,97.50000371933,2|8,0:0|0:0,0:0:0:0:
326,149,83533,1,8,0:1:0:0:
131,131,83697,6,0,L|131:250,1,97.50000371933,10|0,0:0|0:0,0:0:0:0:
228,142,84025,1,8,0:0:0:0:
35,121,84189,6,0,L|35:240,1,97.50000371933,10|8,0:1|0:0,0:0:0:0:
188,198,84517,2,0,P|173:153|130:130,2,97.50000371933,10|8|10,0:0|0:0|0:1,0:0:0:0:
35,218,85009,1,0,0:0:0:0:
35,218,85090,1,0,0:0:0:0:
35,218,85172,6,0,B|12:87|12:87|73:37,1,195.00000743866,10|8,0:0|0:1,0:0:0:0:
261,143,85664,2,0,P|233:182|188:198,1,97.50000371933,8|0,0:0|0:0,0:0:0:0:
174,55,85992,2,0,P|227:59|282:59,1,97.50000371933,8|8,0:0|0:1,0:0:0:0:
292,328,86320,6,0,P|206:290|188:198,1,195.00000743866,14|0,0:0|0:0,0:0:0:0:
373,113,86812,2,0,P|427:124|475:129,1,97.50000371933,8|0,0:1|0:0,0:0:0:0:
392,236,87140,2,0,P|334:224|276:218,1,97.50000371933,8|0,0:0|0:0,0:0:0:0:
76,256,87468,5,8,0:1:0:0:
48,218,87549,1,8,0:1:0:0:
59,172,87631,1,8,0:1:0:0:
100,149,87713,1,8,0:1:0:0:
145,166,87795,6,0,P|178:279|185:361,1,195.00000743866,14|8,0:0|0:1,0:0:0:0:
391,226,88287,2,0,P|333:212|290:223,1,97.50000371933,8|0,0:0|0:0,0:0:0:0:
467,373,88615,2,0,P|483:327|501:263,1,97.50000371933,8|8,0:0|0:1,0:0:0:0:
352,71,88943,6,0,P|328:168|391:226,1,195.00000743866,10|8,0:0|0:0,0:0:0:0:
504,116,89435,1,8,0:1:0:0:
352,71,89599,2,0,P|291:78|238:78,1,97.50000371933,8|0,0:0|0:0,0:0:0:0:
391,226,89927,2,0,P|426:178|427:115,2,97.50000371933,8|8|0,0:0|0:1|0:0,0:0:0:0:
267,273,90418,6,0,L|254:73,1,195.00000743866,10|8,0:0|0:1,0:0:0:0:
86,166,90910,2,0,P|110:221|167:252,1,97.50000371933,8|0,0:0|0:0,0:0:0:0:
334,144,91238,1,8,0:0:0:0:
186,156,91402,1,8,0:1:0:0:
267,273,91566,1,8,0:0:0:0:
254,78,91730,6,0,L|132:42,1,97.50000371933,10|0,0:0|0:0,0:0:0:0:
138,242,92058,1,8,0:1:0:0:
334,144,92222,2,0,P|352:105|346:34,1,97.50000371933,8|0,0:0|0:0,0:0:0:0:
267,273,92550,2,0,P|249:312|255:383,1,97.50000371933,8|8,0:0|0:1,0:0:0:0:
457,353,92877,1,0,0:0:0:0:
457,353,92959,1,0,0:0:0:0:
457,353,93041,6,0,P|410:348|339:337,1,97.50000371933,14|0,0:0|0:0,0:0:0:0:
334,144,93369,1,8,0:1:0:0:
455,242,93533,1,8,0:0:0:0:
267,273,93697,6,0,P|224:238|196:188,1,97.50000371933,2|8,0:0|0:0,0:0:0:0:
334,144,94025,1,8,0:1:0:0:
202,203,94189,6,0,P|191:154|198:98,1,97.50000371933,10|0,0:0|0:0,0:0:0:0:
334,144,94517,1,8,0:0:0:0:
195,107,94681,6,0,P|215:62|262:19,1,97.50000371933,10|8,0:1|0:0,0:0:0:0:
334,144,95009,2,0,B|373:144|373:144|440:91,2,97.50000371933,10|8|10,0:0|0:0|0:1,0:0:0:0:
202,203,95500,1,0,0:0:0:0:
202,203,95582,1,0,0:0:0:0:
202,203,95664,6,0,P|170:278|231:365,1,195.00000743866,10|8,0:0|0:1,0:0:0:0:
363,264,96156,2,0,P|305:270|266:272,1,97.50000371933,8|0,0:0|0:0,0:0:0:0:
195,107,96484,2,0,P|252:118|288:160,1,97.50000371933,8|8,0:0|0:1,0:0:0:0:
95,171,96812,6,0,B|65:39|65:39|116:5,1,195.00000743866,14|0,0:0|0:0,0:0:0:0:
279,144,97304,2,0,L|259:239,1,97.50000371933,8|0,0:1|0:0,0:0:0:0:
195,107,97631,2,0,L|216:3,1,97.50000371933,8|0,0:0|0:0,0:0:0:0:
347,74,97959,1,8,0:1:0:0:
259,239,98123,1,8,0:1:0:0:
259,239,98205,1,8,0:1:0:0:
259,239,98287,6,0,P|176:218|85:208,1,155.999995239258,14|8,0:0|0:1,0:0:0:0:
259,239,98779,2,0,L|263:147,1,77.999997619629,8|0,0:0|0:0,0:0:0:0:
106,209,99107,5,8,0:0:0:0:
229,364,99271,1,8,0:1:0:0:
363,264,99435,2,0,L|372:74,1,155.999995239258,10|8,0:0|0:0,0:0:0:0:
269,5,99927,2,0,L|260:195,1,155.999995239258,8|8,0:1|0:0,0:0:0:0:
370,108,100418,1,8,0:0:0:0:
153,99,100582,2,0,L|148:197,1,77.999997619629,8|0,0:1|0:0,0:0:0:0:
368,248,100910,6,0,P|335:181|262:160,1,155.999995239258,14|8,0:0|0:1,0:0:0:0:
331,358,101402,2,0,P|397:343|488:331,1,155.999995239258,12|8,0:0|0:0,0:0:0:0:
411,142,101894,1,8,0:1:0:0:
266,267,102058,1,6,0:3:0:0:
257,124,102222,5,8,0:1:0:0:
265,94,102303,1,8,0:1:0:0:
285,69,102385,1,8,0:1:0:0:
313,55,102467,1,8,0:1:0:0:
344,53,102549,1,8,0:1:0:0:
372,63,102631,1,8,0:1:0:0:
395,84,102713,1,8,0:1:0:0:
409,111,102795,1,8,0:1:0:0:
411,142,102877,6,0,L|470:144,1,38.9999988098145,8|8,0:1|0:1,0:0:0:0:
335,192,103041,2,0,L|264:194,1,38.9999988098145,8|8,0:1|0:1,0:0:0:0:
416,230,103205,2,0,L|483:234,1,38.9999988098145,8|8,0:1|0:1,0:0:0:0:
341,281,103369,2,0,L|271:283,1,38.9999988098145,8|8,0:1|0:1,0:0:0:0:
426,316,103533,5,14,0:0:0:0:
257,124,104025,1,14,0:0:0:0:
512,187,104517,1,14,0:0:0:0:
116,321,105009,6,0,B|118:277|137:243|137:243|114:216|114:216|185:202|201:159|188:111|143:86|101:98|80:142,1,341.250013017655,14|0,0:0|0:0,0:0:0:0:
88,129,106812,5,14,0:0:0:0:
256,192,106894,12,0,112058,0:0:0:0:
