osu file format v14

[General]
AudioFilename: optc.mp3
AudioLeadIn: 0
PreviewTime: 76648
Countdown: 0
SampleSet: Soft
StackLeniency: 0.7
Mode: 0
LetterboxInBreaks: 0
WidescreenStoryboard: 1

[Editor]
Bookmarks: 583,13697,26812,30091,40582,51074,61566,66812,72058,77304,87795,98287,103533,106812
DistanceSpacing: 1.2
BeatDivisor: 4
GridSize: 32
TimelineZoom: 2.7

[Metadata]
Title:Exceed the Destiny (short ver.)
TitleUnicode:Exceed the Destiny (short ver.)
Artist:Sasaki Sayaka
ArtistUnicode:佐咲紗花
Creator:Shad0w1and
Version:Extreme
Source:超昂神騎エクシール
Tags:Choukou Shinki Ixseal Beat Valkyrie Kyriel アリスソフト AliceSoft Alice Soft
BeatmapID:1380798
BeatmapSetID:650655

[Difficulty]
HPDrainRate:6
CircleSize:4.8
OverallDifficulty:8.2
ApproachRate:9.2
SliderMultiplier:1.3
SliderTickRate:1

[Events]
//Background and Video events
0,0,"BG0.jpg",0,0
Video,0,"optc.flv"
//Break Periods
//Storyboard Layer 0 (Background)
//Storyboard Layer 1 (Fail)
//Storyboard Layer 2 (Pass)
//Storyboard Layer 3 (Foreground)
//Storyboard Sound Samples

[TimingPoints]
583,327.868852459016,4,2,1,80,1,0
12714,-100,4,2,1,55,0,0
13697,-83.3333333333333,4,2,1,90,0,1
24189,-100,4,2,1,80,0,0
30091,327.868852459016,4,2,1,60,1,0
39927,-100,4,2,1,45,0,0
40582,-83.3333333333333,4,2,1,70,0,0
50500,-83.3333333333333,4,2,1,55,0,0
51074,-83.3333333333333,4,2,1,70,0,0
65500,-83.3333333333333,4,2,1,55,0,0
66812,-83.3333333333333,4,2,1,80,0,0
72058,-83.3333333333333,4,2,1,90,0,0
72140,-83.3333333333333,4,2,1,60,0,0
73369,-83.3333333333333,4,2,1,90,0,0
73451,-83.3333333333333,4,2,1,60,0,0
74681,-83.3333333333333,4,2,1,90,0,0
75828,-100,4,2,1,80,0,0
77304,-66.6666666666667,4,2,1,100,0,1
86894,-66.6666666666667,4,2,1,70,0,1
87140,-66.6666666666667,4,2,1,100,0,1
87222,-66.6666666666667,4,2,1,70,0,1
87468,-66.6666666666667,4,2,1,100,0,1
87550,-66.6666666666667,4,2,1,80,0,1
87795,-66.6666666666667,4,2,1,100,0,1
98287,-83.3333333333333,4,2,1,90,0,1
102222,-83.3333333333333,4,2,1,70,0,1
102877,-83.3333333333333,4,2,1,80,0,1
103533,-133.333333333333,4,2,1,80,0,0

[Colours]
Combo1 : 255,226,140
Combo2 : 98,255,176
Combo3 : 81,159,255
Combo4 : 243,56,84

[HitObjects]
186,179,91,6,0,P|228:193|261:198,2,65,2|2|2,0:0|0:0|0:0,0:0:0:0:
113,245,583,6,0,P|107:299|164:355,1,130,6|0,0:0|0:0,0:0:0:0:
186,179,1074,2,0,P|130:174|41:152,1,130,2|0,0:0|0:0,0:0:0:0:
230,67,1730,6,0,P|228:131|186:179,1,130,2|0,0:0|0:0,0:0:0:0:
135,95,2222,1,0,0:0:0:0:
278,195,2386,2,0,P|274:232|271:282,1,65,2|0,0:0|0:0,0:0:0:0:
108,222,2714,2,0,P|123:155|139:70,1,130,2|0,0:0|0:0,0:0:0:0:
270,348,3205,6,0,P|210:326|185:266,1,130,2|0,0:0|0:0,0:0:0:0:
374,255,3697,2,0,L|349:409,1,130,2|0,0:0|0:0,0:0:0:0:
272,259,4189,1,2,0:0:0:0:
455,300,4353,1,2,0:0:0:0:
270,348,4517,6,0,B|235:318|235:318|250:205,1,130,2|0,0:0|0:0,0:0:0:0:
431,186,5173,2,0,B|466:216|466:216|451:329,1,130,2|0,0:0|0:0,0:0:0:0:
165,267,5828,6,0,L|173:179,1,65,2|0,0:0|0:0,0:0:0:0:
246,234,6156,2,0,L|253:146,1,65,0|0,0:0|0:0,0:0:0:0:
92,192,6484,2,0,L|84:104,1,65,0|0,0:0|0:0,0:0:0:0:
24,257,6812,2,0,L|17:169,1,65,0|0,0:0|0:0,0:0:0:0:
251,169,7140,6,0,L|315:174,1,65,2|0,0:0|0:0,0:0:0:0:
413,177,7468,2,0,P|439:156|456:104,2,65
249,45,7960,5,0,0:0:0:0:
216,42,8042,1,0,0:0:0:0:
187,55,8123,1,0,0:0:0:0:
166,80,8205,1,0,0:0:0:0:
160,112,8287,6,0,L|165:163,1,32.5,0|0,0:0|0:0,0:0:0:0:
183,320,8451,1,14,0:0:0:0:
512,193,9599,5,14,0:0:0:0:
267,124,11074,6,0,L|205:128,1,32.5,14|0,0:0|0:0,0:0:0:0:
216,238,11238,2,0,L|278:235,1,32.5,2|0,0:0|0:0,0:0:0:0:
308,140,11402,6,0,L|252:111,1,32.5,2|0,0:0|0:0,0:0:0:0:
206,213,11566,2,0,L|261:240,1,32.5,2|0,0:0|0:0,0:0:0:0:
339,163,11730,6,0,L|304:111,1,32.5,2|0,0:0|0:0,0:0:0:0:
215,176,11894,2,0,L|249:227,1,32.5,2|0,0:0|0:0,0:0:0:0:
364,194,12058,6,0,L|360:132,1,32.5,2|0,0:0|0:0,0:0:0:0:
271,297,12222,6,0,B|224:314|224:314|121:290,1,130,14|0,0:0|0:0,0:0:0:0:
20,185,12714,5,8,0:1:0:0:
15,138,12796,1,8,0:1:0:0:
50,107,12878,1,8,0:1:0:0:
96,117,12960,1,8,0:1:0:0:
113,161,13042,5,8,0:1:0:0:
153,188,13123,1,8,0:1:0:0:
202,190,13205,1,8,0:1:0:0:
244,166,13287,1,8,0:1:0:0:
267,124,13369,5,8,0:1:0:0:
266,76,13451,1,8,0:1:0:0:
239,36,13533,1,8,0:1:0:0:
195,16,13615,1,8,0:1:0:0:
148,21,13697,6,0,P|105:30|58:33,1,77.999997619629,14|0,0:0|0:0,0:0:0:0:
183,104,14025,2,0,P|225:97|272:94,1,77.999997619629,8|8,0:1|0:0,0:0:0:0:
113,161,14353,1,0,0:0:0:0:
148,21,14517,1,8,0:0:0:0:
244,166,14681,1,8,0:1:0:0:
126,316,14845,6,0,P|116:229|112:150,1,155.999995239258,10|8,0:0|0:0,0:0:0:0:
203,237,15337,1,8,0:1:0:0:
33,250,15501,2,0,P|18:208|4:158,1,77.999997619629,8|8,0:1|0:0,0:0:0:0:
126,316,15828,1,8,0:0:0:0:
126,316,15910,1,0,0:0:0:0:
126,316,15992,2,0,P|76:331|36:353,1,77.999997619629,8|0,0:1|0:0,0:0:0:0:
271,297,16320,6,0,P|291:258|280:197,1,77.999997619629,10|0,0:0|0:0,0:0:0:0:
134,180,16648,2,0,P|114:219|125:280,1,77.999997619629,8|8,0:1|0:0,0:0:0:0:
290,224,16976,1,0,0:0:0:0:
186,92,17140,1,8,0:0:0:0:
203,237,17304,1,8,0:1:0:0:
380,177,17468,6,0,L|350:1,1,155.999995239258,10|8,0:0|0:0,0:0:0:0:
294,123,17960,1,8,0:1:0:0:
476,174,18123,2,0,P|472:216|451:253,1,77.999997619629,8|8,0:1|0:0,0:0:0:0:
361,317,18451,1,8,0:0:0:0:
290,224,18615,2,0,L|213:216,1,77.999997619629,8|8,0:1|0:1,0:0:0:0:
136,248,18861,1,8,0:1:0:0:
121,270,18943,6,0,P|113:308|131:362,1,77.999997619629,14|0,0:0|0:0,0:0:0:0:
212,215,19271,2,0,L|131:160,1,77.999997619629,8|8,0:1|0:0,0:0:0:0:
209,309,19599,1,0,0:0:0:0:
275,138,19763,1,8,0:0:0:0:
121,270,19927,1,8,0:1:0:0:
298,292,20091,6,0,P|284:215|273:123,1,155.999995239258,10|8,0:0|0:0,0:0:0:0:
215,240,20582,1,8,0:1:0:0:
375,190,20746,2,0,P|378:144|378:98,1,77.999997619629,8|8,0:1|0:0,0:0:0:0:
215,240,21074,1,8,0:0:0:0:
215,240,21156,1,0,0:0:0:0:
215,240,21238,2,0,P|222:295|234:339,1,77.999997619629,8|0,0:1|0:0,0:0:0:0:
378,112,21566,6,0,P|313:104|216:98,1,155.999995239258,10|8,0:0|0:1,0:0:0:0:
222,99,22058,1,8,0:0:0:0:
301,214,22222,1,0,0:0:0:0:
300,22,22386,1,8,0:0:0:0:
206,194,22550,1,8,0:1:0:0:
144,13,22714,6,0,L|302:23,1,155.999995239258,10|8,0:0|0:0,0:0:0:0:
299,23,23205,1,8,0:1:0:0:
123,133,23369,2,0,L|45:129,1,77.999997619629,8|8,0:1|0:0,0:0:0:0:
301,214,23697,2,0,L|378:219,1,77.999997619629,8|8,0:0|0:1,0:0:0:0:
121,345,24025,5,8,0:1:0:0:
82,342,24107,1,8,0:1:0:0:
44,340,24189,1,14,0:0:0:0:
256,192,24271,12,2,26484,0:0:0:0:
117,276,26648,5,0,0:0:0:0:
117,276,26730,1,0,0:0:0:0:
117,276,26812,1,6,0:0:0:0:
310,89,27304,1,6,0:0:0:0:
26,89,27796,1,6,0:0:0:0:
409,319,28287,1,6,0:0:0:0:
256,192,28369,12,0,29927,0:0:0:0:
187,172,30091,5,6,0:3:0:0:
129,140,30254,1,2,0:0:0:0:
129,75,30418,1,2,0:0:0:0:
184,42,30582,1,2,0:0:0:0:
187,172,30746,6,0,B|114:163|40:160,1,130,2|0,0:0|0:0,0:0:0:0:
185,342,31238,2,0,P|234:313|242:232,2,130,2|0|0,0:0|0:0|0:0,0:0:0:0:
187,172,32058,2,0,B|235:153|235:153|325:174,1,130,2|0,0:0|0:0,0:0:0:0:
247,246,32550,1,2,0:0:0:0:
57,160,32713,5,2,0:0:0:0:
64,96,32877,1,2,0:0:0:0:
72,32,33041,1,2,0:0:0:0:
187,172,33205,5,2,0:0:0:0:
57,160,33533,1,2,0:0:0:0:
125,70,33861,1,2,0:0:0:0:
471,120,34517,5,2,0:0:0:0:
395,116,34845,5,2,0:0:0:0:
430,185,35009,1,2,0:0:0:0:
471,120,35172,1,2,0:0:0:0:
426,323,35336,5,14,0:0:0:0:
430,185,35500,1,2,0:0:0:0:
465,254,35664,1,2,0:0:0:0:
386,252,35828,2,0,B|338:253|338:253|302:269|302:269|237:269,2,130,2|2|2,0:0|0:0|0:0,0:0:0:0:
226,38,36976,5,2,0:0:0:0:
224,167,37140,2,0,L|226:22,1,130,2|0,0:0|0:0,0:0:0:0:
155,104,37631,1,2,0:0:0:0:
297,105,37795,1,2,0:0:0:0:
178,255,37959,6,0,P|150:258|98:239,2,65,2|0|0,0:0|0:0|0:0,0:0:0:0:
154,169,38451,2,0,L|155:86,1,65,2|0,0:0|0:0,0:0:0:0:
65,180,38779,2,0,L|66:115,1,65,2|0,0:0|0:0,0:0:0:0:
114,249,39107,1,2,0:0:0:0:
386,252,39271,6,0,L|344:246,1,32.5,2|0,0:0|0:0,0:0:0:0:
356,174,39435,2,0,L|315:181,1,32.5,2|0,0:0|0:0,0:0:0:0:
299,112,39599,2,0,L|264:134,1,32.5,2|0,0:0|0:0,0:0:0:0:
226,72,39763,2,0,L|200:104,1,32.5,2|0,0:0|0:0,0:0:0:0:
114,249,39927,5,10,0:1:0:0:
71,265,40009,1,8,0:1:0:0:
35,236,40090,1,8,0:1:0:0:
43,190,40172,1,8,0:1:0:0:
87,174,40254,5,8,0:1:0:0:
133,189,40336,1,8,0:1:0:0:
180,183,40418,1,8,0:1:0:0:
226,168,40500,1,8,0:1:0:0:
274,177,40582,6,0,P|259:253|246:356,1,155.999995239258,14|8,0:0|0:1,0:0:0:0:
163,240,41074,2,0,P|156:204|151:163,1,77.999997619629,0|8,0:0|0:0,0:0:0:0:
353,268,41402,2,0,P|349:306|344:345,1,77.999997619629,0|8,0:0|0:1,0:0:0:0:
274,177,41730,1,0,0:0:0:0:
274,177,41812,1,0,0:0:0:0:
274,177,41894,5,10,0:0:0:0:
367,179,42058,1,8,0:0:0:0:
460,181,42222,1,8,0:1:0:0:
460,181,42386,6,0,L|463:125,1,38.9999988098145,0|0,0:0|0:0,0:0:0:0:
367,179,42550,2,0,L|385:273,2,77.999997619629,8|0|8,0:0|0:0|0:1,0:0:0:0:
248,330,43041,1,0,0:0:0:0:
248,330,43123,1,0,0:0:0:0:
248,330,43205,5,10,0:0:0:0:
230,238,43369,1,8,0:0:0:0:
213,145,43533,1,8,0:1:0:0:
213,145,43697,6,0,P|172:141|120:133,1,77.999997619629,0|8,0:0|0:0,0:0:0:0:
306,221,44025,2,0,P|266:228|210:245,1,77.999997619629,0|8,0:0|0:1,0:0:0:0:
323,96,44353,1,0,0:0:0:0:
323,96,44435,1,0,0:0:0:0:
323,96,44517,5,10,0:0:0:0:
367,179,44681,1,8,0:0:0:0:
405,264,44845,1,8,0:1:0:0:
405,264,45009,6,0,L|452:265,1,38.9999988098145,0|0,0:0|0:0,0:0:0:0:
367,179,45172,2,0,P|325:187|270:193,1,77.999997619629,8|0,0:0|0:0,0:0:0:0:
199,151,45500,1,8,0:1:0:0:
248,330,45664,1,0,0:0:0:0:
248,330,45746,1,0,0:0:0:0:
248,330,45828,5,14,0:0:0:0:
158,302,45992,1,8,0:0:0:0:
69,270,46156,1,8,0:1:0:0:
69,270,46320,6,0,L|87:171,1,77.999997619629,0|8,0:0|0:0,0:0:0:0:
158,302,46648,2,0,L|165:382,1,77.999997619629,0|8,0:0|0:1,0:0:0:0:
229,237,46976,1,0,0:0:0:0:
229,237,47058,1,0,0:0:0:0:
229,237,47140,5,10,0:0:0:0:
148,189,47304,1,8,0:0:0:0:
67,141,47468,1,8,0:1:0:0:
67,141,47631,6,0,P|40:145|14:147,1,38.9999988098145,0|0,0:0|0:0,0:0:0:0:
148,189,47795,2,0,P|158:159|171:103,1,77.999997619629,8|0,0:0|0:0,0:0:0:0:
64,59,48123,1,8,0:1:0:0:
69,270,48287,1,0,0:0:0:0:
69,270,48369,1,0,0:0:0:0:
69,270,48451,5,10,0:0:0:0:
158,302,48615,1,8,0:0:0:0:
248,330,48779,1,8,0:1:0:0:
248,330,48943,6,0,B|240:281|240:281|251:241,1,77.999997619629,0|8,0:0|0:0,0:0:0:0:
323,96,49271,2,0,B|331:145|331:145|320:185,1,77.999997619629,0|8,0:0|0:1,0:0:0:0:
64,59,49599,1,0,0:0:0:0:
64,59,49681,1,0,0:0:0:0:
64,59,49763,6,0,L|42:7,1,38.9999988098145,10|0,0:0|0:0,0:0:0:0:
140,104,49927,2,0,L|165:60,1,38.9999988098145,2|0,0:0|0:0,0:0:0:0:
61,148,50090,2,0,L|1:117,1,38.9999988098145,10|0,0:0|0:0,0:0:0:0:
148,189,50254,2,0,L|183:172,1,38.9999988098145,2|0,0:0|0:0,0:0:0:0:
65,241,50418,5,8,0:1:0:0:
51,285,50500,1,8,0:1:0:0:
74,325,50582,1,8,0:1:0:0:
120,333,50664,1,8,0:1:0:0:
163,315,50746,1,8,0:1:0:0:
209,313,50828,1,8,0:1:0:0:
251,333,50910,1,8,0:1:0:0:
297,333,50992,1,8,0:1:0:0:
337,307,51074,5,14,0:0:0:0:
148,189,51238,1,8,0:0:0:0:
369,176,51402,5,8,0:1:0:0:
163,315,51566,1,8,0:0:0:0:
163,315,51894,6,0,P|109:303|62:303,1,77.999997619629,8|0,0:0|0:0,0:0:0:0:
272,250,52222,2,0,P|286:210|273:159,1,77.999997619629,14|0,0:0|0:0,0:0:0:0:
179,114,52550,2,0,P|219:110|276:98,2,77.999997619629,8|8|8,0:0|0:1|0:0,0:0:0:0:
120,234,53041,5,8,0:0:0:0:
201,204,53205,1,8,0:0:0:0:
281,175,53369,1,8,0:1:0:0:
163,315,53533,1,0,0:0:0:0:
163,315,53615,1,0,0:0:0:0:
163,315,53697,5,14,0:0:0:0:
179,114,53861,1,8,0:0:0:0:
337,307,54025,1,8,0:1:0:0:
342,229,54189,6,0,L|335:322,1,77.999997619629,8|0,0:0|0:0,0:0:0:0:
287,97,54517,2,0,L|279:189,1,77.999997619629,8|8,0:0|0:1,0:0:0:0:
331,22,54845,2,0,P|292:11|253:17,1,77.999997619629,14|0,0:0|0:0,0:0:0:0:
280,174,55172,5,8,0:0:0:0:
364,161,55336,1,8,0:1:0:0:
448,146,55500,1,8,0:0:0:0:
280,174,55664,5,8,0:0:0:0:
331,22,55828,1,8,0:0:0:0:
448,146,55992,1,8,0:1:0:0:
248,84,56156,1,0,0:0:0:0:
248,84,56238,1,0,0:0:0:0:
248,84,56320,5,14,0:0:0:0:
337,307,56484,1,8,0:0:0:0:
390,84,56648,5,8,0:1:0:0:
120,234,56812,1,8,0:0:0:0:
120,234,57140,6,0,P|127:276|134:328,1,77.999997619629,8|0,0:0|0:0,0:0:0:0:
280,174,57468,2,0,P|237:163|185:188,1,77.999997619629,14|0,0:0|0:0,0:0:0:0:
354,264,57795,2,0,P|357:232|364:184,2,77.999997619629,8|8|8,0:0|0:1|0:0,0:0:0:0:
476,91,58287,5,8,0:0:0:0:
390,84,58451,1,8,0:0:0:0:
304,75,58615,1,8,0:1:0:0:
459,185,58779,1,0,0:0:0:0:
459,185,58861,1,0,0:0:0:0:
459,185,58943,5,14,0:0:0:0:
355,5,59107,1,8,0:0:0:0:
322,252,59271,1,8,0:1:0:0:
245,258,59435,6,0,L|338:251,1,77.999997619629,8|0,0:0|0:0,0:0:0:0:
113,203,59763,2,0,L|205:195,1,77.999997619629,8|0,0:0|0:0,0:0:0:0:
38,247,60090,2,0,P|27:208|33:169,1,77.999997619629,14|0,0:0|0:0,0:0:0:0:
222,28,60418,5,8,0:0:0:0:
207,113,60582,1,8,0:1:0:0:
190,196,60746,1,8,0:0:0:0:
222,28,60910,5,8,0:0:0:0:
49,88,61074,1,8,0:0:0:0:
190,196,61238,1,8,0:1:0:0:
118,12,61402,1,0,0:0:0:0:
118,12,61484,1,0,0:0:0:0:
118,12,61566,6,0,L|109:173,1,155.999995239258,14|8,0:0|0:1,0:0:0:0:
118,12,62058,2,0,L|10:3,1,77.999997619629,8|0,0:0|0:0,0:0:0:0:
109,167,62386,5,8,0:0:0:0:
118,12,62550,1,8,0:1:0:0:
10,171,62713,2,0,P|33:234|122:270,1,155.999995239258,10|8,0:0|0:0,0:0:0:0:
285,191,63205,1,8,0:1:0:0:
109,167,63369,1,8,0:0:0:0:
285,191,63533,5,8,0:0:0:0:
173,348,63697,1,8,0:0:0:0:
109,167,63861,2,0,P|118:124|125:63,1,77.999997619629,8|0,0:1|0:0,0:0:0:0:
291,87,64189,6,0,P|354:112|386:199,1,155.999995239258,10|8,0:0|0:1,0:0:0:0:
197,133,64681,2,0,P|190:95|185:33,1,77.999997619629,8|0,0:0|0:0,0:0:0:0:
285,191,65009,2,0,P|269:232|251:280,1,77.999997619629,8|8,0:0|0:1,0:0:0:0:
109,167,65336,1,10,0:0:0:0:
291,87,65500,5,8,0:1:0:0:
335,99,65582,1,8,0:1:0:0:
369,130,65664,1,8,0:1:0:0:
386,173,65746,1,8,0:1:0:0:
381,219,65828,1,8,0:1:0:0:
356,258,65910,1,8,0:1:0:0:
315,282,65992,1,8,0:1:0:0:
269,284,66074,1,8,0:1:0:0:
225,268,66156,6,8,L|209:213,1,38.9999988098145,8|8,0:1|0:1,0:0:0:0:
109,167,66320,2,8,L|125:222,1,38.9999988098145,8|8,0:1|0:1,0:0:0:0:
155,337,66484,2,8,L|139:282,1,38.9999988098145,8|8,0:1|0:1,0:0:0:0:
36,248,66648,2,8,L|52:303,1,38.9999988098145,8|8,0:1|0:1,0:0:0:0:
285,191,66812,6,0,P|223:116|152:124,1,155.999995239258,14|8,0:0|0:1,0:0:0:0:
119,204,67304,1,8,0:0:0:0:
285,191,67468,1,0,0:0:0:0:
144,299,67631,1,8,0:0:0:0:
170,115,67795,2,0,L|179:37,1,77.999997619629,8|0,0:1|0:0,0:0:0:0:
119,204,68123,5,14,0:0:0:0:
285,191,68287,1,8,0:0:0:0:
222,351,68451,2,0,L|167:281,1,77.999997619629,8|0,0:1|0:0,0:0:0:0:
312,117,68779,2,0,L|275:216,1,77.999997619629,8|0,0:0|0:0,0:0:0:0:
66,153,69107,2,0,L|170:135,1,77.999997619629,8|0,0:1|0:0,0:0:0:0:
298,364,69435,6,0,L|214:349,1,77.999997619629,14|0,0:0|0:0,0:0:0:0:
312,117,69763,2,0,L|396:102,1,77.999997619629,8|0,0:1|0:0,0:0:0:0:
173,289,70090,1,8,0:0:0:0:
312,117,70254,1,8,0:0:0:0:
298,364,70418,1,8,0:1:0:0:
142,139,70582,1,0,0:0:0:0:
142,139,70664,1,0,0:0:0:0:
142,139,70746,6,0,B|202:122,3,38.9999988098145,14|0|0|0,0:0|0:0|0:0|0:0,0:0:0:0:
241,255,71074,2,0,B|301:272,3,38.9999988098145,8|0|0|0,0:1|0:0|0:0|0:0,0:0:0:0:
319,135,71402,2,0,B|379:118,3,38.9999988098145,8|0|0|0,0:0|0:0|0:0|0:0,0:0:0:0:
415,243,71730,2,0,B|475:260,3,38.9999988098145,8|0|0|0,0:1|0:0|0:0|0:0,0:0:0:0:
496,131,72058,5,14,0:0:0:0:
491,85,72140,1,8,0:1:0:0:
454,55,72222,1,8,0:1:0:0:
407,53,72304,1,8,0:1:0:0:
374,86,72386,1,8,0:1:0:0:
370,132,72468,1,8,0:1:0:0:
341,169,72550,1,8,0:1:0:0:
294,172,72631,1,8,0:1:0:0:
252,149,72713,1,8,0:1:0:0:
237,105,72795,1,8,0:1:0:0:
255,62,72877,1,8,0:1:0:0:
298,43,72959,1,8,0:1:0:0:
344,50,73041,1,8,0:1:0:0:
374,86,73123,1,8,0:1:0:0:
370,132,73205,2,8,L|353:184,1,38.9999988098145,8|8,0:1|0:1,0:0:0:0:
260,321,73369,5,14,0:0:0:0:
210,306,73451,1,8,0:1:0:0:
161,292,73533,1,8,0:1:0:0:
112,278,73615,1,8,0:1:0:0:
157,255,73697,1,8,0:1:0:0:
165,204,73779,1,8,0:1:0:0:
132,166,73861,1,8,0:1:0:0:
81,168,73943,1,8,0:1:0:0:
52,209,74025,1,8,0:1:0:0:
65,257,74107,1,8,0:1:0:0:
112,278,74189,1,8,0:1:0:0:
157,255,74271,1,8,0:1:0:0:
165,204,74353,1,8,0:1:0:0:
132,166,74435,1,8,0:1:0:0:
81,168,74517,2,8,L|24:172,1,38.9999988098145,8|8,0:1|0:1,0:0:0:0:
252,149,74681,5,14,0:0:0:0:
207,24,75172,5,14,0:0:0:0:
390,116,75500,5,8,0:1:0:0:
390,116,75582,1,8,0:1:0:0:
390,116,75664,1,14,0:0:0:0:
374,245,75828,6,0,B|377:296,3,32.5,14|0|0|0,0:0|0:0|0:0|0:0,0:0:0:0:
303,264,76156,6,0,B|269:302,3,32.5,2|0|0|0,0:0|0:0|0:0|0:0,0:0:0:0:
237,228,76484,6,0,B|186:231,3,32.5,2|0|0|0,0:0|0:0|0:0|0:0,0:0:0:0:
251,148,76812,6,0,P|266:123|318:94,2,65,2|2|2,0:0|0:0|0:0,0:0:0:0:
347,201,77304,6,0,B|390:248|390:248|390:111,1,195.00000743866,14|8,0:0|0:1,0:0:0:0:
237,228,77795,2,0,B|313:310,1,97.50000371933,8|0,0:0|0:0,0:0:0:0:
390,116,78123,2,0,L|275:98,1,97.50000371933,8|8,0:0|0:1,0:0:0:0:
142,260,78451,6,0,P|211:323|302:299,1,195.00000743866,10|8,0:0|0:0,0:0:0:0:
293,100,78943,1,8,0:1:0:0:
183,59,79107,2,0,P|175:118|190:152,1,97.50000371933,8|0,0:0|0:0,0:0:0:0:
328,221,79435,2,0,B|261:211|261:211|236:228,1,97.50000371933,8|8,0:0|0:1,0:0:0:0:
408,334,79763,1,0,0:0:0:0:
408,334,79845,1,0,0:0:0:0:
408,334,79927,6,0,B|461:373|461:373|462:228,1,195.00000743866,10|8,0:0|0:1,0:0:0:0:
328,123,80418,2,0,L|328:237,1,97.50000371933,8|0,0:0|0:0,0:0:0:0:
189,151,80746,1,8,0:0:0:0:
328,123,80910,1,8,0:1:0:0:
142,260,81074,1,8,0:0:0:0:
85,57,81238,6,0,L|182:58,1,97.50000371933,10|0,0:0|0:0,0:0:0:0:
295,254,81566,1,8,0:1:0:0:
142,260,81730,2,0,L|142:144,1,97.50000371933,8|0,0:0|0:0,0:0:0:0:
295,254,82058,2,0,L|295:355,1,97.50000371933,8|8,0:0|0:1,0:0:0:0:
230,121,82386,1,0,0:0:0:0:
230,121,82468,1,0,0:0:0:0:
230,121,82550,6,0,L|333:123,1,97.50000371933,14|0,0:0|0:0,0:0:0:0:
142,260,82877,1,8,0:1:0:0:
182,58,83041,1,8,0:0:0:0:
295,254,83205,6,0,B|341:270|341:270|407:248,1,97.50000371933,2|8,0:0|0:0,0:0:0:0:
327,122,83533,1,8,0:1:0:0:
163,222,83697,6,0,B|147:268|147:268|169:334,1,97.50000371933,10|0,0:0|0:0,0:0:0:0:
295,254,84025,1,8,0:0:0:0:
195,90,84189,6,0,B|149:74|149:74|83:96,1,97.50000371933,10|8,0:1|0:0,0:0:0:0:
163,222,84517,1,10,0:0:0:0:
327,122,84681,5,8,0:0:0:0:
327,122,84763,1,0,0:1:0:0:
327,122,84845,2,0,B|343:76|343:76|321:10,1,97.50000371933,10|0,0:1|0:0,0:0:0:0:
434,74,85090,1,0,0:0:0:0:
434,74,85172,6,0,B|467:117|467:117|322:122,1,195.00000743866,10|8,0:0|0:1,0:0:0:0:
179,132,85664,2,0,L|237:210,1,97.50000371933,8|0,0:0|0:0,0:0:0:0:
386,200,85992,2,0,L|315:105,1,97.50000371933,8|8,0:0|0:1,0:0:0:0:
162,313,86320,6,0,B|198:359|198:359|358:322,1,195.00000743866,14|0,0:0|0:0,0:0:0:0:
233,213,86812,6,0,L|170:227,3,48.750001859665,10|8|8|8,0:1|0:1|0:1|0:1,0:0:0:0:
328,122,87140,6,0,L|256:137,3,48.750001859665,10|8|8|8,0:0|0:1|0:1|0:1,0:0:0:0:
418,84,87468,5,10,0:1:0:0:
387,47,87550,1,8,0:1:0:0:
343,27,87632,1,8,0:1:0:0:
295,29,87713,1,8,0:1:0:0:
252,52,87795,6,0,P|266:166|273:254,1,195.00000743866,14|8,0:0|0:1,0:0:0:0:
98,174,88287,2,0,P|129:132|185:119,1,97.50000371933,8|0,0:0|0:0,0:0:0:0:
162,313,88615,2,0,P|113:305|65:304,1,97.50000371933,8|8,0:0|0:1,0:0:0:0:
252,52,88943,6,0,P|340:93|339:194,1,195.00000743866,10|8,0:0|0:0,0:0:0:0:
162,313,89435,1,8,0:1:0:0:
38,228,89599,2,0,L|30:122,1,97.50000371933,8|0,0:0|0:0,0:0:0:0:
169,174,89927,2,0,B|228:174|228:174|253:146,2,97.50000371933,8|8|0,0:0|0:1|0:0,0:0:0:0:
252,52,90418,6,0,B|331:51|331:51|367:80|367:80|451:80,1,195.00000743866,10|8,0:0|0:1,0:0:0:0:
254,146,90910,2,0,B|226:171|226:171|226:254,1,97.50000371933,8|0,0:0|0:0,0:0:0:0:
407,263,91238,1,8,0:0:0:0:
436,80,91402,1,8,0:1:0:0:
254,146,91566,1,8,0:0:0:0:
421,176,91730,6,0,L|436:80,1,97.50000371933,10|0,0:0|0:0,0:0:0:0:
254,146,92058,1,8,0:1:0:0:
407,263,92222,2,0,P|455:250|522:240,1,97.50000371933,8|0,0:0|0:0,0:0:0:0:
222,343,92550,2,0,P|168:328|119:319,1,97.50000371933,8|8,0:0|0:1,0:0:0:0:
334,198,92877,1,0,0:0:0:0:
334,198,92959,1,0,0:0:0:0:
334,198,93041,6,0,P|349:157|324:83,1,97.50000371933,14|0,0:0|0:0,0:0:0:0:
226,230,93369,1,8,0:1:0:0:
407,263,93533,1,8,0:0:0:0:
254,146,93697,6,0,B|221:181|221:181|227:232,1,97.50000371933,2|8,0:0|0:0,0:0:0:0:
416,204,94025,1,8,0:1:0:0:
283,314,94189,6,0,B|329:325|329:325|370:294,1,97.50000371933,10|0,0:0|0:0,0:0:0:0:
254,146,94517,1,8,0:0:0:0:
416,204,94681,6,0,B|402:157|402:157|355:137,1,97.50000371933,10|8,0:1|0:0,0:0:0:0:
283,314,95009,1,10,0:0:0:0:
474,269,95172,5,8,0:0:0:0:
474,269,95254,1,0,0:0:0:0:
474,269,95336,2,0,B|460:222|460:222|413:202,1,97.50000371933,10|0,0:1|0:0,0:0:0:0:
452,354,95582,1,0,0:0:0:0:
452,354,95664,6,0,P|523:343|470:269,1,195.00000743866,10|8,0:0|0:1,0:0:0:0:
369,294,96156,2,0,P|355:353|334:392,1,97.50000371933,8|0,0:0|0:0,0:0:0:0:
226,230,96484,2,0,P|277:224|335:210,1,97.50000371933,8|8,0:0|0:1,0:0:0:0:
127,320,96812,6,0,B|74:348|74:348|83:194,1,195.00000743866,14|0,0:0|0:0,0:0:0:0:
226,230,97304,2,0,L|219:327,1,97.50000371933,8|0,0:1|0:0,0:0:0:0:
81,213,97631,2,0,L|87:115,1,97.50000371933,8|0,0:0|0:0,0:0:0:0:
226,230,97959,1,8,0:1:0:0:
0,280,98123,1,8,0:1:0:0:
0,280,98205,1,8,0:1:0:0:
0,280,98287,6,0,L|11:97,1,155.999995239258,14|8,0:0|0:1,0:0:0:0:
157,220,98779,2,0,L|80:212,1,77.999997619629,8|0,0:0|0:0,0:0:0:0:
147,98,99107,5,8,0:0:0:0:
127,320,99271,1,8,0:1:0:0:
9,124,99435,2,0,B|42:87|42:87|152:99,1,155.999995239258,10|8,0:0|0:0,0:0:0:0:
235,229,99927,2,0,L|122:217,1,77.999997619629,8|0,0:1|0:0,0:0:0:0:
218,327,100254,5,8,0:0:0:0:
254,146,100418,1,8,0:0:0:0:
79,211,100582,2,0,L|74:289,1,77.999997619629,8|0,0:1|0:0,0:0:0:0:
369,294,100910,6,0,P|427:270|455:178,1,155.999995239258,14|8,0:0|0:1,0:0:0:0:
254,146,101402,2,0,P|270:230|281:311,1,155.999995239258,12|8,0:0|0:0,0:0:0:0:
361,201,101894,1,8,0:1:0:0:
157,220,102058,2,0,L|149:281,1,38.9999988098145,6|0,0:3|0:0,0:0:0:0:
114,126,102222,5,8,0:1:0:0:
123,67,102304,1,8,0:1:0:0:
170,33,102386,1,8,0:1:0:0:
228,42,102468,1,8,0:1:0:0:
263,88,102550,1,8,0:1:0:0:
254,146,102631,1,8,0:1:0:0:
207,182,102713,1,8,0:1:0:0:
149,173,102795,1,8,0:1:0:0:
86,180,102877,5,8,0:1:0:0:
53,233,102959,1,8,0:1:0:0:
73,292,103041,1,8,0:1:0:0:
131,313,103123,1,8,0:1:0:0:
185,282,103205,1,8,0:1:0:0:
194,220,103287,1,8,0:1:0:0:
247,187,103369,1,8,0:1:0:0:
305,207,103451,1,8,0:1:0:0:
327,266,103533,5,14,0:0:0:0:
114,126,104025,1,14,0:0:0:0:
456,186,104517,1,14,0:0:0:0:
85,280,105009,6,0,B|76:241|103:201|103:201|81:176|52:162|52:162|70:110|88:53|88:53|96:96|117:130,1,341.250013017655,14|0,0:0|0:0,0:0:0:0:
256,192,106812,5,14,0:0:0:0:
256,192,106894,12,0,112058,0:0:0:0:
