osu file format v14

[General]
AudioFilename: optc.mp3
AudioLeadIn: 0
PreviewTime: 76648
Countdown: 0
SampleSet: Soft
StackLeniency: 0.7
Mode: 0
LetterboxInBreaks: 0
WidescreenStoryboard: 1

[Editor]
Bookmarks: 583,13697,26812,30091,40582,51074,61566,66812,72058,77304,87795,98287,103533,106812
DistanceSpacing: 1.4
BeatDivisor: 4
GridSize: 16
TimelineZoom: 2.6

[Metadata]
Title:Exceed the Destiny (short ver.)
TitleUnicode:Exceed the Destiny (short ver.)
Artist:Sasaki Sayaka
ArtistUnicode:佐咲紗花
Creator:Shad0w1and
Version:Normal
Source:超昂神騎エクシール
Tags:Choukou Shinki Ixseal Beat Valkyrie Kyriel アリスソフト AliceSoft Alice Soft
BeatmapID:1379320
BeatmapSetID:650655

[Difficulty]
HPDrainRate:4
CircleSize:3.5
OverallDifficulty:5
ApproachRate:6
SliderMultiplier:1.1
SliderTickRate:1

[Events]
//Background and Video events
0,0,"BG5.jpg",0,0
Video,0,"optc.flv"
//Break Periods
//Storyboard Layer 0 (Background)
//Storyboard Layer 1 (Fail)
//Storyboard Layer 2 (Pass)
//Storyboard Layer 3 (Foreground)
//Storyboard Sound Samples

[TimingPoints]
583,327.868852459016,4,2,1,80,1,0
13697,-100,4,2,1,90,0,1
24189,-100,4,2,1,80,0,0
30091,327.868852459016,4,2,1,60,1,0
40582,-100,4,2,1,70,0,0
51074,-100,4,2,1,70,0,0
66812,-100,4,2,1,80,0,0
72058,-100,4,2,1,90,0,0
77304,-100,4,2,1,100,0,1
87795,-100,4,2,1,100,0,1
98287,-100,4,2,1,90,0,1
103533,-100,4,2,1,80,0,0

[Colours]
Combo1 : 255,226,140
Combo2 : 98,255,176
Combo3 : 81,159,255
Combo4 : 243,56,84

[HitObjects]
67,159,583,6,0,L|53:32,1,110,6|0,0:0|0:0,0:0:0:0:
131,48,1074,2,0,L|145:175,1,110,2|0,0:0|0:0,0:0:0:0:
261,257,1730,2,0,P|346:237|361:151,1,165,2|0,0:0|0:0,0:0:0:0:
290,183,2386,2,0,P|275:135|268:65,1,110,2|2,0:0|0:0,0:0:0:0:
497,52,3205,6,0,P|466:112|410:125,1,110,2|0,0:0|0:0,0:0:0:0:
366,170,3697,2,0,L|386:292,1,110,2|0,0:0|0:0,0:0:0:0:
314,313,4189,2,0,L|302:249,1,55,2|2,0:0|0:0,0:0:0:0:
229,238,4517,2,0,P|132:214|156:305,1,220,2|2,0:0|0:0,0:0:0:0:
256,192,5828,12,2,7140,0:0:0:0:
256,192,8451,5,14,0:0:0:0:
256,192,9599,5,14,0:0:0:0:
256,192,11074,6,0,B|303:188|355:204|355:204|391:173|391:173|413:226|454:242|517:244|542:177,1,330,14|2,0:0|0:0,0:0:0:0:
468,151,12222,5,14,0:0:0:0:
270,271,12714,2,0,P|179:170|277:113,1,275,10|8,0:0|0:1,0:0:0:0:
259,191,13697,6,0,L|139:192,1,110,14|8,0:0|0:1,0:0:0:0:
132,38,14353,2,0,L|201:37,2,55,8|8|8,0:0|0:0|0:1,0:0:0:0:
59,12,14845,6,0,P|27:61|20:112,1,110,10|8,0:0|0:0,0:0:0:0:
88,158,15337,1,8,0:1:0:0:
88,158,15501,2,0,P|95:200|95:277,1,110,8|8,0:1|0:0,0:0:0:0:
55,333,15992,1,8,0:1:0:0:
206,361,16320,6,0,P|247:351|291:288,1,110,10|8,0:0|0:1,0:0:0:0:
232,156,16976,2,0,L|161:152,2,55,8|8|8,0:0|0:0|0:1,0:0:0:0:
301,189,17468,6,0,P|348:180|386:123,1,110,10|8,0:0|0:0,0:0:0:0:
388,55,17960,1,8,0:1:0:0:
388,55,18123,2,0,P|325:51|261:43,1,110,8|8,0:1|0:0,0:0:0:0:
205,71,18615,1,8,0:1:0:0:
81,162,18943,6,0,P|91:216|95:283,1,110,14|8,0:0|0:1,0:0:0:0:
239,215,19599,2,0,L|306:216,2,55,8|8|8,0:0|0:0|0:1,0:0:0:0:
205,284,20091,6,0,P|225:328|301:349,1,110,10|8,0:0|0:0,0:0:0:0:
349,320,20582,1,8,0:1:0:0:
349,320,20746,2,0,P|401:308|481:293,1,110,8|8,0:1|0:0,0:0:0:0:
488,226,21238,1,8,0:1:0:0:
383,112,21566,6,0,P|385:61|393:-14,2,110,10|8|8,0:0|0:1|0:0,0:0:0:0:
311,141,22386,2,0,P|277:134|236:120,1,55,8|8,0:0|0:1,0:0:0:0:
185,155,22714,6,0,P|179:106|173:24,2,110,10|8|8,0:0|0:0|0:1,0:0:0:0:
103,285,23697,2,0,P|11:243|26:185,1,165,8|14,0:0|0:0,0:0:0:0:
256,192,24271,12,0,25501,0:0:0:0:
97,153,26484,5,2,0:0:0:0:
250,158,26812,6,0,B|272:50|272:50|198:56,1,165,6|6,0:0|0:0,0:0:0:0:
437,127,27796,2,0,B|382:131|382:131|404:23,1,165,6|6,0:0|0:0,0:0:0:0:
256,192,28369,12,0,29435,0:0:0:0:
256,192,30091,6,0,P|190:231|136:238,2,110,6|2|2,0:3|0:0|0:0,0:0:0:0:
409,176,31074,1,0,0:0:0:0:
409,176,31238,6,0,P|430:248|354:300,1,165,2|0,0:0|0:0,0:0:0:0:
256,192,32058,2,0,P|265:121|275:62,1,110,2|0,0:0|0:0,0:0:0:0:
329,31,32550,1,2,0:0:0:0:
192,101,32877,6,0,P|105:63|185:8,1,220,2|2,0:0|0:0,0:0:0:0:
267,124,33861,6,0,B|316:132|350:118|350:118|380:153|380:153|424:127|470:132,1,220,2|2,0:0|0:0,0:0:0:0:
466,286,34845,2,0,L|391:273,1,55,2|2,0:0|0:0,0:0:0:0:
364,337,35172,2,0,L|294:344,1,55,2|14,0:0|0:0,0:0:0:0:
231,347,35500,6,0,P|219:292|210:233,2,110,2|2|2,0:0|0:0|0:0,0:0:0:0:
99,265,36484,2,0,P|116:205|130:134,1,110,2|0,0:0|0:0,0:0:0:0:
180,103,36976,1,2,0:0:0:0:
180,103,37140,2,0,P|236:98|290:129,1,110,2|0,0:0|0:0,0:0:0:0:
355,97,37631,1,2,0:0:0:0:
355,97,37795,6,0,B|396:83|425:68|425:68|452:130|406:194|406:194|437:244|437:244|354:284|376:356|376:356|421:331|460:328,1,495,2|2,0:0|0:0,0:0:0:0:
456,328,40582,6,0,P|491:274|483:214,1,110,14|8,0:0|0:1,0:0:0:0:
425,185,41074,2,0,P|369:183|296:174,1,110,8|8,0:0|0:0,0:0:0:0:
165,215,41730,6,0,P|163:323|267:324,1,220,10|8,0:0|0:0,0:0:0:0:
301,272,42550,2,0,P|335:271|373:272,1,55,8|8,0:0|0:0,0:0:0:0:
423,233,42877,1,8,0:1:0:0:
423,233,43041,6,0,P|428:183|430:113,2,110,10|8|8,0:0|0:0|0:0,0:0:0:0:
296,143,44025,2,0,P|285:95|277:16,1,110,8|10,0:0|0:0,0:0:0:0:
38,228,45009,5,8,0:0:0:0:
38,228,45172,2,0,P|61:278|128:294,1,110,8|8,0:0|0:1,0:0:0:0:
174,253,45664,2,0,P|230:257|282:274,1,110,10|8,0:0|0:0,0:0:0:0:
435,273,46320,2,0,P|444:234|442:144,1,110,8|8,0:0|0:0,0:0:0:0:
314,81,46976,6,0,B|276:93|238:85|238:85|236:119|220:141|220:141|177:126|136:119|136:119|138:161|118:192|83:202,1,330,10|8,0:0|0:0,0:0:0:0:
59,129,48123,1,8,0:1:0:0:
59,129,48287,6,0,P|42:76|31:15,1,110,10|8,0:0|0:0,0:0:0:0:
186,17,48943,2,0,P|176:80|167:148,1,110,8|8,0:0|0:0,0:0:0:0:
293,218,49599,6,0,P|443:192|322:99,1,385,10|8,0:0|0:1,0:0:0:0:
169,125,51074,6,0,P|140:114|105:89,2,55,14|8|8,0:0|0:0|0:1,0:0:0:0:
139,196,51566,2,0,P|79:201|26:198,1,110,8|8,0:0|0:0,0:0:0:0:
69,347,52222,6,0,P|124:329|166:279,1,110,14|8,0:0|0:0,0:0:0:0:
293,218,52877,2,0,P|366:249|390:326,1,165,8|8,0:0|0:1,0:0:0:0:
237,347,53697,6,0,P|239:319|240:275,2,55,14|8|8,0:0|0:0|0:1,0:0:0:0:
169,384,54189,2,0,P|108:374|59:334,1,110,8|8,0:0|0:0,0:0:0:0:
27,198,54845,6,0,P|71:161|108:106,1,110,14|8,0:0|0:0,0:0:0:0:
173,90,55336,2,0,P|204:114|224:142,1,55,8|8,0:1|0:0,0:0:0:0:
281,164,55664,2,0,P|301:154|342:128,2,55,8|8|8,0:0|0:0|0:1,0:0:0:0:
139,225,56320,6,0,L|148:283,2,55,14|8|8,0:0|0:0|0:1,0:0:0:0:
108,153,56812,2,0,P|59:142|-10:132,1,110,8|8,0:0|0:0,0:0:0:0:
45,281,57468,6,0,P|72:343|85:395,1,110,14|8,0:0|0:0,0:0:0:0:
236,376,58123,2,0,P|306:366|352:272,1,165,8|8,0:0|0:1,0:0:0:0:
204,249,58943,6,0,L|179:284|164:305,2,55,14|8|8,0:0|0:0|0:1,0:0:0:0:
282,244,59435,2,0,P|286:196|286:117,1,110,8|8,0:0|0:0,0:0:0:0:
147,68,60090,6,0,P|83:79|44:128,1,110,14|8,0:0|0:0,0:0:0:0:
91,176,60582,2,0,P|79:214|61:248,1,55,8|8,0:1|0:0,0:0:0:0:
103,298,60910,2,0,P|157:288|223:282,1,110,8|8,0:0|0:1,0:0:0:0:
335,374,61566,6,0,P|394:365|433:317,1,110,14|8,0:0|0:1,0:0:0:0:
460,260,62058,2,0,P|416:235|356:188,1,110,8|8,0:0|0:0,0:0:0:0:
369,121,62550,1,8,0:1:0:0:
380,41,62713,6,0,P|435:80|445:140,1,110,10|8,0:0|0:0,0:0:0:0:
369,121,63205,1,8,0:1:0:0:
300,156,63369,2,0,P|250:140|184:123,1,110,8|8,0:0|0:0,0:0:0:0:
118,138,63861,1,8,0:1:0:0:
185,276,64189,6,0,P|244:267|271:209,1,110,10|8,0:0|0:1,0:0:0:0:
300,156,64681,2,0,P|300:104|310:42,1,110,8|8,0:0|0:0,0:0:0:0:
455,95,65336,2,8,B|461:140|431:174|431:174|454:194|490:208|490:208|456:248|439:283|437:334,1,275,10|8,0:0|0:1,0:0:0:0:
288,354,66484,1,8,0:1:0:0:
220,215,66812,6,0,P|161:203|100:204,2,110,14|8|8,0:0|0:1|0:0,0:0:0:0:
163,71,67795,1,8,0:1:0:0:
14,31,68123,6,0,P|19:85|25:148,1,110,14|8,0:0|0:1,0:0:0:0:
163,71,68779,2,0,P|210:62|291:69,1,110,8|8,0:0|0:1,0:0:0:0:
387,166,69435,6,0,P|394:112|401:42,2,110,14|8|8,0:0|0:1|0:0,0:0:0:0:
267,263,70418,2,0,P|271:321|282:398,1,110,8|14,0:1|0:0,0:0:0:0:
390,266,71074,5,8,0:1:0:0:
276,161,71402,2,0,P|217:152|158:154,1,110,8|8,0:0|0:1,0:0:0:0:
256,192,72058,12,14,74681,0:0:0:0:
275,195,77304,6,0,P|308:149|298:87,1,110,14|8,0:0|0:1,0:0:0:0:
233,129,77795,2,0,P|176:118|108:90,1,110,8|8,0:0|0:0,0:0:0:0:
61,239,78451,6,0,P|113:227|168:216,1,110,10|8,0:0|0:0,0:0:0:0:
228,265,78943,1,8,0:1:0:0:
277,323,79107,2,0,P|336:322|379:285,2,110,8|8|8,0:0|0:0|0:0,0:0:0:0:
228,265,79927,6,0,L|263:149,1,110,10|8,0:0|0:1,0:0:0:0:
326,121,80418,1,8,0:0:0:0:
431,232,80746,2,0,L|485:228,2,55,8|8|8,0:0|0:1|0:0,0:0:0:0:
379,174,81238,6,0,P|381:137|394:55,1,110,10|8,0:0|0:1,0:0:0:0:
317,42,81730,2,0,P|259:34|186:16,1,110,8|8,0:0|0:0,0:0:0:0:
151,166,82386,6,0,L|267:153,1,110,10|8,0:0|0:0,0:0:0:0:
326,194,82877,2,0,P|344:246|331:310,2,110,8|8|8,0:1|0:0|0:1,0:0:0:0:
193,274,83861,6,0,L|203:398,1,110,10|8,0:0|0:1,0:0:0:0:
59,322,84517,2,0,L|50:196,1,110,8|8,0:0|0:1,0:0:0:0:
94,148,85009,1,8,0:0:0:0:
170,151,85172,6,0,P|207:131|232:64,1,110,10|8,0:0|0:1,0:0:0:0:
298,30,85664,2,0,P|348:42|379:104,1,110,8|8,0:0|0:0,0:0:0:0:
357,242,86320,6,0,P|291:231|178:222,1,165,14|8,0:0|0:1,0:0:0:0:
60,301,87140,2,0,P|49:240|42:174,1,110,8|8,0:0|0:1,0:0:0:0:
182,126,87795,6,0,P|193:83|201:-5,1,110,14|8,0:0|0:1,0:0:0:0:
126,39,88287,2,0,P|55:42|-1:33,1,110,8|8,0:0|0:0,0:0:0:0:
112,158,88943,6,0,P|135:218|103:277,1,110,10|8,0:0|0:0,0:0:0:0:
57,214,89435,1,8,0:1:0:0:
37,139,89599,2,0,P|61:90|88:28,1,110,8|8,0:0|0:0,0:0:0:0:
269,175,90418,6,0,P|324:168|362:109,1,110,10|8,0:0|0:1,0:0:0:0:
429,158,90910,2,0,P|432:224|430:278,1,110,8|8,0:0|0:0,0:0:0:0:
353,263,91402,2,0,L|285:269,1,55,8|8,0:1|0:0,0:0:0:0:
220,274,91730,6,0,P|206:233|190:159,1,110,10|8,0:0|0:1,0:0:0:0:
114,174,92222,2,0,P|69:192|51:263,1,110,8|8,0:0|0:0,0:0:0:0:
131,375,92877,6,0,P|207:353|296:337,1,165,14|8,0:0|0:1,0:0:0:0:
430,267,93697,2,0,P|434:208|395:146,1,110,8|8,0:0|0:1,0:0:0:0:
258,152,94353,6,0,P|198:121|172:63,1,110,10|8,0:0|0:1,0:0:0:0:
324,41,95009,2,0,P|331:96|335:155,1,110,8|8,0:0|0:1,0:0:0:0:
412,163,95500,1,8,0:0:0:0:
478,124,95664,6,0,P|437:90|383:91,1,110,10|8,0:0|0:1,0:0:0:0:
334,150,96156,2,0,P|267:163|222:161,1,110,8|8,0:0|0:0,0:0:0:0:
77,207,96812,6,0,P|69:129|52:32,1,165,14|8,0:0|0:1,0:0:0:0:
208,34,97631,2,0,P|185:86|165:110,2,82.5,8|8|8,0:0|0:0|0:1,0:0:0:0:
280,6,98287,6,0,P|335:29|347:88,1,110,14|8,0:0|0:1,0:0:0:0:
334,150,98779,2,0,P|327:204|321:259,1,110,8|8,0:0|0:0,0:0:0:0:
263,311,99271,1,8,0:1:0:0:
263,311,99435,6,0,P|201:312|152:267,1,110,10|8,0:0|0:0,0:0:0:0:
136,212,99927,1,8,0:1:0:0:
256,117,100254,2,0,L|246:42,2,55,8|8|8,0:0|0:0|0:1,0:0:0:0:
405,159,100910,6,0,P|428:127|454:45,1,110,14|8,0:0|0:1,0:0:0:0:
383,21,101402,2,0,P|350:70|335:121,1,110,12|8,0:0|0:0,0:0:0:0:
338,195,101894,2,0,L|340:253,1,55,8|6,0:1|0:3,0:0:0:0:
339,249,103533,6,0,B|233:223|233:223|166:268,1,165,14|14,0:0|0:0,0:0:0:0:
357,96,104517,2,0,B|463:122|463:122|530:77,1,165,14|14,0:0|0:0,0:0:0:0:
256,192,106812,5,14,0:0:0:0:
256,192,106894,12,0,112058,0:0:0:0:
