osu file format v14

[General]
AudioFilename: optc.mp3
AudioLeadIn: 0
PreviewTime: 76648
Countdown: 0
SampleSet: Soft
StackLeniency: 0.7
Mode: 0
LetterboxInBreaks: 0
WidescreenStoryboard: 1

[Editor]
Bookmarks: 583,13697,26812,30091,40582,51074,61566,66812,72058,77304,87795,98287,103533,106812
DistanceSpacing: 1.5
BeatDivisor: 4
GridSize: 16
TimelineZoom: 2.6

[Metadata]
Title:Exceed the Destiny (short ver.)
TitleUnicode:Exceed the Destiny (short ver.)
Artist:Sasaki Sayaka
ArtistUnicode:佐咲紗花
Creator:Shad0w1and
Version:Hyper
Source:超昂神騎エクシール
Tags:Choukou Shinki Ixseal Beat Valkyrie Kyriel アリスソフト AliceSoft Alice Soft
BeatmapID:1379319
BeatmapSetID:650655

[Difficulty]
HPDrainRate:5
CircleSize:4
OverallDifficulty:7.5
ApproachRate:8.5
SliderMultiplier:1.2
SliderTickRate:1

[Events]
//Background and Video events
0,0,"BG3.jpg",0,0
Video,0,"optc.flv"
//Break Periods
//Storyboard Layer 0 (Background)
//Storyboard Layer 1 (Fail)
//Storyboard Layer 2 (Pass)
//Storyboard Layer 3 (Foreground)
//Storyboard Sound Samples

[TimingPoints]
583,327.868852459016,4,2,1,80,1,0
12714,-100,4,2,1,55,0,0
13697,-83.3333333333333,4,2,1,90,0,1
24189,-100,4,2,1,80,0,0
30091,327.868852459016,4,2,1,60,1,0
30091,-133.333333333333,4,2,1,60,0,0
39927,-100,4,2,1,45,0,0
40582,-83.3333333333333,4,2,1,70,0,0
50500,-83.3333333333333,4,2,1,55,0,0
51074,-83.3333333333333,4,2,1,70,0,0
65500,-83.3333333333333,4,2,1,55,0,0
66812,-83.3333333333333,4,2,1,80,0,0
72058,-83.3333333333333,4,2,1,90,0,0
75828,-153.846153846154,4,2,1,80,0,0
77304,-66.6666666666667,4,2,1,100,0,1
87550,-66.6666666666667,4,2,1,80,0,1
87795,-66.6666666666667,4,2,1,100,0,1
98287,-83.3333333333333,4,2,1,90,0,1
102222,-83.3333333333333,4,2,1,70,0,1
102877,-83.3333333333333,4,2,1,80,0,1
103533,-133.333333333333,4,2,1,80,0,0

[Colours]
Combo1 : 255,226,140
Combo2 : 98,255,176
Combo3 : 81,159,255
Combo4 : 243,56,84

[HitObjects]
11,151,91,6,0,P|45:171|74:175,2,60,2|2|2,0:0|0:0|0:0,0:0:0:0:
141,111,583,6,0,L|141:256,1,120,6|0,0:0|0:0,0:0:0:0:
224,269,1074,2,0,P|263:259|303:178,1,120,2|0,0:0|0:0,0:0:0:0:
304,195,1730,6,0,B|432:195|432:195|406:249,1,180,2|0,0:0|0:0,0:0:0:0:
380,109,2386,2,0,P|409:58|467:48,1,120,2|2,0:0|0:0,0:0:0:0:
319,299,3205,6,0,B|284:276|284:276|202:276,1,120,2|0,0:0|0:0,0:0:0:0:
115,268,3697,2,0,B|83:232|83:232|85:135,1,120,2|0,0:0|0:0,0:0:0:0:
169,192,4189,2,0,L|246:192,1,60,2|2,0:0|0:0,0:0:0:0:
321,203,4517,6,0,B|348:151|348:151|320:96,1,120,2|0,0:0|0:0,0:0:0:0:
229,192,5173,2,0,B|202:244|202:244|230:299,1,120,2|0,0:0|0:0,0:0:0:0:
321,203,5828,6,0,L|383:196,1,60,2|0,0:0|0:0,0:0:0:0:
229,298,6156,2,0,L|294:291,1,60,0|0,0:0|0:0,0:0:0:0:
169,199,6484,2,0,L|242:190,1,60,0|0,0:0|0:0,0:0:0:0:
77,296,6812,2,0,L|152:287,1,60,0|0,0:0|0:0,0:0:0:0:
321,203,7140,6,0,L|321:136,1,60,2|0,0:0|0:0,0:0:0:0:
381,72,7468,2,0,P|412:68|442:73,2,60,0|0|0,0:0|0:0|0:0,0:0:0:0:
410,159,7960,6,0,L|410:206,3,30,0|0|0|0,0:0|0:0|0:0|0:0,0:0:0:0:
392,226,8287,5,0,0:0:0:0:
392,226,8369,1,0,0:0:0:0:
392,226,8451,1,14,0:0:0:0:
392,226,9599,5,14,0:0:0:0:
392,226,11074,6,0,L|354:226,3,30,14|0|2|0,0:0|0:0|0:0|0:0,0:0:0:0:
333,261,11402,2,0,L|302:261,3,30,2|0|2|0,0:0|0:0|0:0|0:0,0:0:0:0:
274,296,11730,2,0,L|244:296,3,30,2|0|2|0,0:0|0:0|0:0|0:0,0:0:0:0:
215,331,12058,1,2,0:0:0:0:
215,331,12140,1,0,0:0:0:0:
215,331,12222,6,0,B|176:309|176:309|91:309,1,120,14|0,0:0|0:0,0:0:0:0:
166,236,12714,6,0,L|170:188,3,30,8|8|8|8,0:1|0:1|0:1|0:1,0:0:0:0:
182,135,13042,6,0,L|182:92,1,30,8|8,0:1|0:1,0:0:0:0:
238,183,13205,2,0,L|238:229,1,30,8|8,0:1|0:1,0:0:0:0:
252,112,13369,2,0,L|252:68,1,30,8|8,0:1|0:1,0:0:0:0:
307,159,13533,2,0,L|307:188,1,30,8|8,0:1|0:1,0:0:0:0:
323,88,13697,6,0,B|368:118|368:118|477:117,1,143.999995605469,14|8,0:0|0:1,0:0:0:0:
407,20,14189,1,8,0:0:0:0:
323,88,14353,2,0,L|323:177,2,71.9999978027344,0|8|8,0:0|0:0|0:1,0:0:0:0:
151,76,14845,6,0,P|183:138|250:160,1,143.999995605469,10|8,0:0|0:0,0:0:0:0:
253,58,15337,1,8,0:1:0:0:
151,76,15501,2,0,L|151:148,1,71.9999978027344,8|8,0:1|0:0,0:0:0:0:
250,159,15828,1,8,0:0:0:0:
151,76,15992,2,0,L|77:76,1,71.9999978027344,8|0,0:1|0:0,0:0:0:0:
121,209,16320,6,0,B|151:171|151:171|151:54,1,143.999995605469,10|8,0:0|0:1,0:0:0:0:
54,125,16812,1,8,0:0:0:0:
121,209,16976,2,0,L|207:209,2,71.9999978027344,0|8|8,0:0|0:0|0:1,0:0:0:0:
226,314,17468,6,0,P|286:267|292:177,1,143.999995605469,10|8,0:0|0:0,0:0:0:0:
193,209,17960,1,8,0:1:0:0:
226,314,18123,2,0,L|298:314,1,71.9999978027344,8|8,0:1|0:0,0:0:0:0:
298,203,18450,1,8,0:0:0:0:
193,137,18615,2,0,L|193:208,1,71.9999978027344,8|8,0:1|0:1,0:0:0:0:
166,243,18861,1,8,0:1:0:0:
166,243,18943,6,0,B|125:211|125:211|17:211,1,143.999995605469,14|8,0:0|0:1,0:0:0:0:
82,308,19435,1,8,0:0:0:0:
166,243,19599,2,0,L|168:148,2,71.9999978027344,0|8|8,0:0|0:0|0:1,0:0:0:0:
271,157,20091,6,0,P|238:90|165:63,1,143.999995605469,10|8,0:0|0:0,0:0:0:0:
167,171,20582,1,8,0:1:0:0:
271,157,20746,2,0,L|271:85,1,71.9999978027344,8|8,0:1|0:0,0:0:0:0:
177,63,21074,1,8,0:0:0:0:
271,157,21238,2,0,L|343:157,1,71.9999978027344,8|0,0:1|0:0,0:0:0:0:
306,287,21566,6,0,B|271:247|271:247|271:140,1,143.999995605469,10|8,0:0|0:1,0:0:0:0:
370,199,22058,1,8,0:0:0:0:
306,287,22222,2,0,L|230:287,2,71.9999978027344,0|8|8,0:0|0:0|0:1,0:0:0:0:
238,179,22714,6,0,P|175:197|130:263,1,143.999995605469,10|8,0:0|0:0,0:0:0:0:
234,287,23205,1,8,0:1:0:0:
238,179,23369,2,0,L|238:106,1,71.9999978027344,8|8,0:1|0:0,0:0:0:0:
131,259,23697,2,0,L|131:347,1,71.9999978027344,8|8,0:0|0:1,0:0:0:0:
234,287,24025,1,8,0:1:0:0:
234,287,24107,1,8,0:1:0:0:
234,287,24189,5,14,0:0:0:0:
256,192,24271,12,2,26484,0:0:0:0:
348,191,26648,5,0,0:0:0:0:
348,191,26730,1,0,0:0:0:0:
348,191,26812,2,0,B|383:243|383:243|346:290|346:290|346:362,1,180,6|6,0:0|0:0,0:0:0:0:
164,193,27796,2,0,B|129:141|129:141|166:94|166:94|166:22,1,180,6|6,0:0|0:0,0:0:0:0:
256,192,28369,12,0,29927,0:0:0:0:
255,192,30091,6,0,P|297:178|341:193,1,90.0000034332277,6|2,0:3|0:0,0:0:0:0:
298,250,30582,1,2,0:0:0:0:
255,192,30746,2,0,L|255:88,1,90.0000034332277,2|0,0:0|0:0,0:0:0:0:
187,76,31238,6,0,P|221:37|325:90,1,180.000006866455,2|0,0:0|0:0,0:0:0:0:
255,102,32058,2,0,L|255:194,1,90.0000034332277,2|0,0:0|0:0,0:0:0:0:
298,250,32550,6,0,L|364:250,1,45.0000017166138,2|2,0:0|0:0,0:0:0:0:
255,192,32877,2,0,L|206:192,1,45.0000017166138,2|2,0:0|0:0,0:0:0:0:
149,231,33205,2,0,P|137:185|154:145,1,90.0000034332277,2|2,0:0|0:0,0:0:0:0:
298,250,33861,6,0,P|365:254|314:188,1,180.000006866455,2|2,0:0|0:0,0:0:0:0:
328,184,34845,2,0,L|328:130,2,45.0000017166138,2|2|2,0:0|0:0|0:0,0:0:0:0:
255,307,35336,5,14,0:0:0:0:
213,247,35500,2,0,P|256:234|298:250,2,90.0000034332277,2|2|2,0:0|0:0|0:0,0:0:0:0:
328,184,36484,2,0,L|328:91,1,90.0000034332277,2|0,0:0|0:0,0:0:0:0:
395,66,36976,1,2,0:0:0:0:
399,139,37140,2,0,P|356:128|328:94,1,90.0000034332277,2|0,0:0|0:0,0:0:0:0:
395,66,37631,1,2,0:0:0:0:
260,125,37795,6,0,P|266:51|328:94,1,180.000006866455,2|2,0:0|0:0,0:0:0:0:
213,247,38779,2,0,L|113:247,1,90.0000034332277,2|0,0:0|0:0,0:0:0:0:
77,155,39271,6,0,L|77:115,7,22.5000008583069,2|0|2|0|2|0|2|0,0:0|0:0|0:0|0:0|0:0|0:0|0:0|0:0,0:0:0:0:
119,107,39927,6,0,L|119:56,7,30,8|8|8|8|8|8|8|8,0:1|0:1|0:1|0:1|0:1|0:1|0:1|0:1,0:0:0:0:
160,47,40582,6,0,B|205:79|205:79|316:77,1,143.999995605469,14|8,0:0|0:1,0:0:0:0:
334,170,41074,2,0,L|228:171,1,71.9999978027344,0|8,0:0|0:0,0:0:0:0:
300,264,41402,2,0,L|372:264,1,71.9999978027344,0|8,0:0|0:1,0:0:0:0:
334,170,41730,1,0,0:0:0:0:
206,253,41894,6,0,P|225:324|300:362,1,143.999995605469,10|8,0:0|0:1,0:0:0:0:
372,264,42386,2,0,L|297:264,2,71.9999978027344,0|8|0,0:0|0:0|0:0,0:0:0:0:
334,170,42877,1,8,0:1:0:0:
300,264,43041,1,0,0:0:0:0:
427,180,43205,6,0,L|427:92,1,71.9999978027344,10|0,0:0|0:0,0:0:0:0:
334,170,43533,1,8,0:1:0:0:
372,264,43697,2,0,L|444:264,1,71.9999978027344,0|8,0:0|0:0,0:0:0:0:
334,170,44025,2,0,L|259:170,1,71.9999978027344,0|8,0:0|0:1,0:0:0:0:
300,264,44353,1,0,0:0:0:0:
427,180,44517,6,0,L|427:106,1,71.9999978027344,10|0,0:0|0:0,0:0:0:0:
334,98,44845,2,0,L|334:190,1,71.9999978027344,8|0,0:1|0:0,0:0:0:0:
300,264,45172,2,0,P|219:287|157:248,1,143.999995605469,8|8,0:0|0:1,0:0:0:0:
237,189,45664,1,0,0:0:0:0:
334,98,45828,6,0,L|334:177,1,71.9999978027344,14|0,0:0|0:0,0:0:0:0:
300,264,46156,1,8,0:1:0:0:
237,189,46320,2,0,L|135:189,1,71.9999978027344,0|8,0:0|0:0,0:0:0:0:
262,98,46648,2,0,L|336:98,1,71.9999978027344,0|8,0:0|0:1,0:0:0:0:
237,189,46976,1,0,0:0:0:0:
231,31,47140,6,0,P|300:37|333:97,1,143.999995605469,10|8,0:0|0:1,0:0:0:0:
237,189,47631,1,0,0:0:0:0:
262,98,47795,1,8,0:0:0:0:
334,170,47959,2,0,P|333:216|318:252,2,71.9999978027344,0|8|0,0:0|0:1|0:0,0:0:0:0:
237,189,48451,6,0,P|201:169|172:129,1,71.9999978027344,10|0,0:0|0:0,0:0:0:0:
262,98,48779,1,8,0:1:0:0:
306,179,48943,2,0,P|272:190|236:188,1,71.9999978027344,0|8,0:0|0:0,0:0:0:0:
348,123,49271,2,0,P|332:155|306:179,1,71.9999978027344,0|8,0:0|0:1,0:0:0:0:
262,98,49599,1,0,0:0:0:0:
324,28,49763,6,0,L|363:28,7,35.9999989013672,10|0|2|0|10|0|2|0,0:0|0:0|0:0|0:0|0:0|0:0|0:0|0:0,0:0:0:0:
352,75,50418,6,0,L|404:74,7,35.9999989013672,8|8|8|8|8|8|8|8,0:1|0:1|0:1|0:1|0:1|0:1|0:1|0:1,0:0:0:0:
454,106,51074,6,0,P|461:80|449:31,2,71.9999978027344,14|8|8,0:0|0:0|0:1,0:0:0:0:
352,219,51566,2,0,L|352:55,1,143.999995605469,8|8,0:0|0:0,0:0:0:0:
280,219,52222,6,0,L|352:219,1,71.9999978027344,14|0,0:0|0:0,0:0:0:0:
454,106,52550,2,0,L|382:106,1,71.9999978027344,8|8,0:0|0:1,0:0:0:0:
352,219,52877,2,0,L|424:219,1,71.9999978027344,8|0,0:0|0:0,0:0:0:0:
382,106,53205,1,8,0:0:0:0:
271,72,53369,2,0,L|271:157,1,71.9999978027344,8|0,0:1|0:0,0:0:0:0:
352,331,53697,6,0,L|423:331,2,71.9999978027344,14|8|8,0:0|0:0|0:1,0:0:0:0:
245,295,54189,2,0,P|283:235|354:218,1,143.999995605469,8|8,0:0|0:0,0:0:0:0:
352,331,54681,1,8,0:1:0:0:
245,295,54845,6,0,B|215:247|215:247|232:132,1,143.999995605469,14|8,0:0|0:0,0:0:0:0:
361,147,55336,2,0,L|351:220,1,71.9999978027344,8|8,0:1|0:0,0:0:0:0:
245,295,55664,1,8,0:0:0:0:
227,160,55828,1,8,0:0:0:0:
351,218,55992,1,8,0:1:0:0:
351,218,56320,6,0,P|345:269|362:307,2,71.9999978027344,14|8|8,0:0|0:0|0:1,0:0:0:0:
454,106,56812,2,0,L|454:251,1,143.999995605469,8|8,0:0|0:0,0:0:0:0:
383,120,57468,6,0,L|454:106,1,71.9999978027344,14|0,0:0|0:0,0:0:0:0:
282,194,57795,2,0,L|350:217,1,71.9999978027344,8|8,0:0|0:1,0:0:0:0:
157,207,58123,2,0,L|204:261,1,71.9999978027344,8|0,0:0|0:0,0:0:0:0:
208,108,58451,1,8,0:0:0:0:
317,132,58615,2,0,P|304:165|282:193,1,71.9999978027344,8|0,0:1|0:0,0:0:0:0:
95,114,58943,6,0,P|99:79|117:41,2,71.9999978027344,14|8|8,0:0|0:0|0:1,0:0:0:0:
208,108,59435,2,0,L|245:18,1,71.9999978027344,8|0,0:0|0:0,0:0:0:0:
181,175,59763,2,0,L|218:85,1,71.9999978027344,8|8,0:0|0:1,0:0:0:0:
154,242,60090,2,0,L|191:152,1,71.9999978027344,14|0,0:0|0:0,0:0:0:0:
95,114,60418,5,8,0:0:0:0:
181,175,60582,1,8,0:1:0:0:
276,226,60746,1,8,0:0:0:0:
317,132,60910,6,0,P|319:97|302:49,1,71.9999978027344,8|8,0:0|0:0,0:0:0:0:
181,175,61238,2,0,P|179:210|192:254,1,71.9999978027344,8|0,0:1|0:0,0:0:0:0:
397,361,61566,6,0,L|386:217,1,143.999995605469,14|8,0:0|0:1,0:0:0:0:
284,198,62058,2,0,L|297:363,1,143.999995605469,8|8,0:0|0:0,0:0:0:0:
188,245,62550,1,8,0:1:0:0:
325,100,62713,6,0,P|378:147|386:217,1,143.999995605469,10|8,0:0|0:0,0:0:0:0:
188,245,63205,2,0,L|182:173,1,71.9999978027344,8|8,0:1|0:0,0:0:0:0:
284,198,63533,2,0,L|289:269,1,71.9999978027344,8|8,0:0|0:0,0:0:0:0:
210,344,63861,2,0,P|171:346|137:334,1,71.9999978027344,8|0,0:1|0:0,0:0:0:0:
182,173,64189,6,0,L|336:173,1,143.999995605469,10|8,0:0|0:1,0:0:0:0:
284,76,64681,2,0,L|182:76,1,71.9999978027344,8|0,0:0|0:0,0:0:0:0:
217,269,65009,2,0,L|289:269,1,71.9999978027344,8|8,0:0|0:1,0:0:0:0:
182,173,65336,1,10,0:0:0:0:
73,277,65500,6,0,L|70:323,1,35.9999989013672,8|8,0:1|0:1,0:0:0:0:
107,210,65664,2,0,L|110:164,1,35.9999989013672,8|8,0:1|0:1,0:0:0:0:
147,274,65828,2,0,L|144:319,1,35.9999989013672,8|8,0:1|0:1,0:0:0:0:
180,208,65992,2,0,L|182:170,1,35.9999989013672,8|8,0:1|0:1,0:0:0:0:
217,269,66156,6,8,L|254:269,3,35.9999989013672,8|8|8|8,0:1|0:1|0:1|0:1,0:0:0:0:
290,205,66484,2,8,L|331:205,3,35.9999989013672,8|8|8|8,0:1|0:1|0:1|0:1,0:0:0:0:
365,264,66812,6,0,P|398:200|341:134,1,143.999995605469,14|8,0:0|0:1,0:0:0:0:
259,114,67304,1,8,0:0:0:0:
358,71,67468,1,0,0:0:0:0:
326,205,67631,1,8,0:0:0:0:
259,114,67795,2,0,L|259:23,1,71.9999978027344,8|0,0:1|0:0,0:0:0:0:
190,205,68123,5,14,0:0:0:0:
326,205,68287,1,8,0:0:0:0:
190,133,68451,2,0,L|190:224,1,71.9999978027344,8|0,0:1|0:0,0:0:0:0:
259,114,68779,2,0,L|259:37,1,71.9999978027344,8|0,0:0|0:0,0:0:0:0:
121,42,69107,2,0,L|121:123,1,71.9999978027344,8|0,0:1|0:0,0:0:0:0:
244,253,69435,6,0,P|260:221|260:186,1,71.9999978027344,14|0,0:0|0:0,0:0:0:0:
120,187,69763,2,0,P|120:226|147:262,1,71.9999978027344,8|0,0:1|0:0,0:0:0:0:
244,253,70090,1,8,0:0:0:0:
120,187,70254,1,8,0:0:0:0:
190,350,70418,2,0,L|265:350,1,71.9999978027344,8|0,0:1|0:0,0:0:0:0:
190,205,70746,6,0,L|190:126,1,71.9999978027344,14|0,0:0|0:0,0:0:0:0:
136,253,71074,2,0,P|101:253|65:227,1,71.9999978027344,8|0,0:1|0:0,0:0:0:0:
244,253,71402,2,0,P|279:253|315:279,1,71.9999978027344,8|0,0:0|0:0,0:0:0:0:
191,373,71730,2,0,L|191:287,1,71.9999978027344,8|0,0:1|0:0,0:0:0:0:
70,233,72058,5,14,0:0:0:0:
70,233,72222,1,8,0:0:0:0:
190,205,72386,1,8,0:1:0:0:
190,205,72550,1,8,0:0:0:0:
309,272,72713,1,8,0:1:0:0:
309,272,72877,1,8,0:0:0:0:
191,301,73041,1,8,0:1:0:0:
191,301,73205,1,8,0:0:0:0:
309,200,73369,6,0,L|309:287,1,71.9999978027344,14|8,0:0|0:0,0:0:0:0:
190,133,73697,2,0,L|190:50,1,71.9999978027344,8|8,0:1|0:0,0:0:0:0:
309,200,74025,1,8,0:1:0:0:
73,200,74189,1,8,0:0:0:0:
190,61,74353,1,8,0:1:0:0:
191,265,74517,6,0,L|191:309,2,35.9999989013672,8|8|14,0:1|0:1|0:0,0:0:0:0:
309,272,75172,5,14,0:0:0:0:
427,263,75664,5,14,0:0:0:0:
398,340,75828,6,0,P|495:305|387:190,1,311.999985717774,14|2,0:0|0:0,0:0:0:0:
427,263,77304,6,0,B|357:263|357:263|322:237|322:237|252:237,1,180.000006866455,14|8,0:0|0:1,0:0:0:0:
207,333,77795,2,0,L|297:332,1,90.0000034332277,8|0,0:0|0:0,0:0:0:0:
255,237,78123,2,0,L|165:237,1,90.0000034332277,8|8,0:0|0:1,0:0:0:0:
297,332,78451,6,0,P|341:291|338:178,1,180.000006866455,10|8,0:0|0:0,0:0:0:0:
255,237,78943,1,8,0:1:0:0:
297,332,79107,2,0,L|408:332,1,90.0000034332277,8|0,0:0|0:0,0:0:0:0:
255,237,79435,2,0,L|129:237,1,90.0000034332277,8|8,0:0|0:1,0:0:0:0:
256,79,79763,1,0,0:0:0:0:
256,79,79845,1,0,0:0:0:0:
256,79,79927,6,0,P|293:158|254:236,1,180.000006866455,10|8,0:0|0:1,0:0:0:0:
102,158,80418,2,0,L|192:158,1,90.0000034332277,8|0,0:0|0:0,0:0:0:0:
128,330,80746,2,0,P|66:325|26:291,2,90.0000034332277,8|8|8,0:0|0:1|0:0,0:0:0:0:
102,248,81238,6,0,L|102:153,1,90.0000034332277,10|0,0:0|0:0,0:0:0:0:
187,262,81566,1,8,0:1:0:0:
16,228,81730,2,0,L|16:110,1,90.0000034332277,8|0,0:0|0:0,0:0:0:0:
102,248,82058,2,0,L|102:349,1,90.0000034332277,8|8,0:0|0:1,0:0:0:0:
254,235,82386,1,0,0:0:0:0:
254,235,82468,1,0,0:0:0:0:
254,235,82550,6,0,P|223:199|179:189,1,90.0000034332277,14|0,0:0|0:0,0:0:0:0:
102,338,82877,1,8,0:1:0:0:
187,262,83041,1,8,0:0:0:0:
187,352,83205,6,0,L|187:257,1,90.0000034332277,2|8,0:0|0:0,0:0:0:0:
187,262,83533,1,8,0:1:0:0:
254,235,83697,6,0,L|254:127,1,90.0000034332277,10|0,0:0|0:0,0:0:0:0:
254,145,84025,1,8,0:0:0:0:
321,118,84189,6,0,L|321:10,1,90.0000034332277,10|8,0:1|0:0,0:0:0:0:
321,27,84517,2,0,B|364:38|364:38|410:27,2,90.0000034332277,10|8|10,0:0|0:0|0:1,0:0:0:0:
435,198,85009,1,0,0:0:0:0:
435,198,85090,1,0,0:0:0:0:
435,198,85172,6,0,B|435:127|435:127|408:93|408:93|408:22,1,180.000006866455,10|8,0:0|0:1,0:0:0:0:
254,145,85664,2,0,L|254:244,1,90.0000034332277,8|0,0:0|0:0,0:0:0:0:
345,260,85992,2,0,L|345:168,1,90.0000034332277,8|8,0:0|0:1,0:0:0:0:
168,110,86320,6,0,P|176:196|254:235,1,180.000006866455,14|0,0:0|0:0,0:0:0:0:
344,145,86812,2,0,L|226:145,1,90.0000034332277,8|0,0:1|0:0,0:0:0:0:
162,235,87140,2,0,L|252:235,1,90.0000034332277,8|0,0:0|0:0,0:0:0:0:
157,41,87468,5,8,0:1:0:0:
157,41,87550,1,8,0:1:0:0:
157,41,87631,1,8,0:1:0:0:
157,41,87713,1,8,0:1:0:0:
157,41,87795,6,0,P|78:78|57:162,1,180.000006866455,14|8,0:0|0:1,0:0:0:0:
254,145,88287,2,0,L|254:55,1,90.0000034332277,8|0,0:0|0:0,0:0:0:0:
162,145,88615,2,0,L|162:265,1,90.0000034332277,8|8,0:0|0:1,0:0:0:0:
348,254,88943,6,0,B|348:182|348:182|323:147|323:147|323:65,1,180.000006866455,10|8,0:0|0:0,0:0:0:0:
419,105,89435,1,8,0:1:0:0:
252,235,89599,2,0,L|162:235,1,90.0000034332277,8|0,0:0|0:0,0:0:0:0:
72,145,89927,2,0,L|162:145,2,90.0000034332277,8|8|0,0:0|0:1|0:0,0:0:0:0:
252,235,90418,6,0,P|286:169|257:63,1,180.000006866455,10|8,0:0|0:1,0:0:0:0:
162,145,90910,2,0,L|162:245,1,90.0000034332277,8|0,0:0|0:0,0:0:0:0:
72,145,91238,2,0,L|72:52,2,90.0000034332277,8|8|8,0:0|0:1|0:0,0:0:0:0:
252,235,91730,6,0,P|244:193|205:154,1,90.0000034332277,10|0,0:0|0:0,0:0:0:0:
162,235,92058,1,8,0:1:0:0:
303,158,92222,2,0,L|302:49,1,90.0000034332277,8|0,0:0|0:0,0:0:0:0:
162,235,92550,2,0,L|162:355,1,90.0000034332277,8|8,0:0|0:1,0:0:0:0:
392,158,92877,1,0,0:0:0:0:
392,158,92959,1,0,0:0:0:0:
392,158,93041,6,0,P|378:108|332:72,1,90.0000034332277,14|0,0:0|0:0,0:0:0:0:
303,158,93369,1,8,0:1:0:0:
349,245,93533,1,8,0:0:0:0:
392,158,93697,6,0,L|296:158,1,90.0000034332277,2|8,0:0|0:0,0:0:0:0:
302,158,94025,1,8,0:1:0:0:
349,245,94189,6,0,L|453:245,1,90.0000034332277,10|0,0:0|0:0,0:0:0:0:
439,245,94517,1,8,0:0:0:0:
395,333,94681,6,0,L|268:333,1,90.0000034332277,10|8,0:1|0:0,0:0:0:0:
305,333,95009,2,0,P|270:302|250:240,2,90.0000034332277,10|8|10,0:0|0:0|0:1,0:0:0:0:
302,158,95500,1,0,0:0:0:0:
302,158,95582,1,0,0:0:0:0:
302,158,95664,6,0,B|235:158|235:158|197:183|197:183|106:183,1,180.000006866455,10|8,0:0|0:1,0:0:0:0:
252,263,96156,2,0,B|266:304|266:304|255:349,1,90.0000034332277,8|0,0:0|0:0,0:0:0:0:
302,158,96484,2,0,B|291:113|291:113|306:70,1,90.0000034332277,8|8,0:0|0:1,0:0:0:0:
424,238,96812,6,0,B|357:238|357:238|319:263|319:263|228:263,1,180.000006866455,14|0,0:0|0:0,0:0:0:0:
305,71,97304,2,0,L|403:71,1,90.0000034332277,8|0,0:1|0:0,0:0:0:0:
302,158,97631,2,0,P|240:129|236:17,1,180.000006866455,8|8,0:0|0:1,0:0:0:0:
305,71,98123,1,8,0:1:0:0:
129,183,98287,6,0,B|36:183|36:183|-2:122,1,143.999995605469,14|8,0:0|0:1,0:0:0:0:
129,183,98779,2,0,L|129:256,1,71.9999978027344,8|0,0:0|0:0,0:0:0:0:
302,158,99107,5,8,0:0:0:0:
129,183,99271,1,8,0:1:0:0:
302,302,99435,2,0,L|302:126,1,143.999995605469,10|8,0:0|0:0,0:0:0:0:
216,99,99927,2,0,L|215:249,1,143.999995605469,8|8,0:1|0:0,0:0:0:0:
302,158,100418,1,8,0:0:0:0:
129,183,100582,2,0,L|129:273,1,71.9999978027344,8|0,0:1|0:0,0:0:0:0:
216,99,100910,6,0,B|144:79|144:79|77:98,1,143.999995605469,14|8,0:0|0:1,0:0:0:0:
302,158,101402,2,0,B|374:178|374:178|440:158,1,143.999995605469,12|8,0:0|0:0,0:0:0:0:
372,82,101894,1,8,0:1:0:0:
334,257,102058,1,6,0:3:0:0:
215,242,102222,6,0,L|155:242,3,35.9999989013672,8|8|8|8,0:1|0:1|0:1|0:1,0:0:0:0:
171,198,102550,2,0,L|109:198,3,35.9999989013672,8|8|8|8,0:1|0:1|0:1|0:1,0:0:0:0:
130,155,102877,5,8,0:1:0:0:
130,155,102959,1,8,0:1:0:0:
130,155,103041,1,8,0:1:0:0:
130,155,103123,1,8,0:1:0:0:
130,155,103205,2,0,L|130:99,3,35.9999989013672,8|8|8|8,0:1|0:1|0:1|0:1,0:0:0:0:
92,88,103533,5,14,0:0:0:0:
256,192,104025,1,14,0:0:0:0:
53,184,104517,1,14,0:0:0:0:
314,34,105009,6,0,B|329:60|341:71|341:71|331:98|314:118|314:118|352:129|369:156|375:210|327:239|276:236|255:190,1,315.000012016297,14|0,0:0|0:0,0:0:0:0:
255,191,106812,5,14,0:0:0:0:
256,192,106894,12,0,112058,0:0:0:0:
