osu file format v14

[General]
AudioFilename: optc.mp3
AudioLeadIn: 0
PreviewTime: 76648
Countdown: 0
SampleSet: Soft
StackLeniency: 0.7
Mode: 0
LetterboxInBreaks: 0
WidescreenStoryboard: 0

[Editor]
Bookmarks: 583,13697,26812,30091,40582,51074,61566,66812,72058,77304,87795,98287,103533,106812
DistanceSpacing: 1
BeatDivisor: 4
GridSize: 32
TimelineZoom: 2.7

[Metadata]
Title:Exceed the Destiny (short ver.)
TitleUnicode:Exceed the Destiny (short ver.)
Artist:Sasaki Sayaka
ArtistUnicode:佐咲紗花
Creator:Shad0w1and
Version:Extra
Source:超昂神騎エクシール
Tags:Choukou Shinki Ixseal Beat Valkyrie Kyriel アリスソフト AliceSoft Alice Soft
BeatmapID:1378712
BeatmapSetID:650655

[Difficulty]
HPDrainRate:6
CircleSize:4
OverallDifficulty:8.2
ApproachRate:9.2
SliderMultiplier:1.4
SliderTickRate:1

[Events]
//Background and Video events
0,0,"BG1.jpg",0,0
Video,0,"optc.flv"
//Break Periods
//Storyboard Layer 0 (Background)
//Storyboard Layer 1 (Fail)
//Storyboard Layer 2 (Pass)
//Storyboard Layer 3 (Foreground)
//Storyboard Sound Samples

[TimingPoints]
583,327.868852459016,4,2,1,80,1,0
12714,-100,4,2,1,55,0,0
13697,-83.3333333333333,4,2,1,90,0,1
24189,-100,4,2,1,80,0,0
30091,327.868852459016,4,2,1,60,1,0
39927,-100,4,2,1,45,0,0
40582,-83.3333333333333,4,2,1,70,0,0
50500,-83.3333333333333,4,2,1,55,0,0
51074,-83.3333333333333,4,2,1,70,0,0
65500,-83.3333333333333,4,2,1,55,0,0
66812,-83.3333333333333,4,2,1,80,0,0
72058,-83.3333333333333,4,2,1,90,0,0
75828,-100,4,2,1,80,0,0
77304,-66.6666666666667,4,2,1,100,0,1
87550,-66.6666666666667,4,2,1,80,0,1
87795,-66.6666666666667,4,2,1,100,0,1
98287,-83.3333333333333,4,2,1,90,0,1
102222,-83.3333333333333,4,2,1,70,0,1
102877,-83.3333333333333,4,2,1,80,0,1
103533,-133.333333333333,4,2,1,80,0,0

[Colours]
Combo1 : 255,226,140
Combo2 : 98,255,176
Combo3 : 81,159,255
Combo4 : 243,56,84

[HitObjects]
181,207,91,6,0,P|225:189|246:153,2,70,2|2|2,0:0|0:0|0:0,0:0:0:0:
75,196,583,6,0,P|69:137|58:42,1,140,6|0,0:0|0:0,0:0:0:0:
181,207,1074,2,0,P|163:271|142:357,1,140,2|0,0:0|0:0,0:0:0:0:
366,270,1730,6,0,P|341:205|281:173,1,140,2|0,0:0|0:0,0:0:0:0:
267,278,2222,1,0,0:0:0:0:
394,156,2386,2,0,L|402:62,1,70,2|0,0:0|0:0,0:0:0:0:
216,147,2714,2,0,P|246:218|274:304,1,140,2|0,0:0|0:0,0:0:0:0:
307,60,3205,6,0,P|243:84|216:148,1,140,2|0,0:0|0:0,0:0:0:0:
413,219,3697,2,0,L|425:59,1,140,2|0,0:0|0:0,0:0:0:0:
315,161,4189,1,2,0:0:0:0:
495,168,4353,1,2,0:0:0:0:
307,60,4517,6,0,B|269:92|269:92|286:214,1,140,2|0,0:0|0:0,0:0:0:0:
152,348,5173,2,0,B|190:316|190:316|173:194,1,140,2|0,0:0|0:0,0:0:0:0:
247,232,5828,6,0,L|152:224,1,70,2|0,0:0|0:0,0:0:0:0:
317,226,6156,2,0,L|222:234,1,70,0|0,0:0|0:0,0:0:0:0:
387,232,6484,2,0,L|292:224,1,70,0|0,0:0|0:0,0:0:0:0:
457,226,6812,2,0,L|362:234,1,70,0|0,0:0|0:0,0:0:0:0:
442,141,7140,6,0,L|511:136,1,70,2|0,0:0|0:0,0:0:0:0:
387,231,7468,2,0,P|359:209|341:153,2,70,0|0|0,0:0|0:0|0:0,0:0:0:0:
349,69,7960,6,0,L|318:84,3,35
218,131,8287,5,0,0:0:0:0:
233,181,8369,1,0,0:0:0:0:
247,231,8451,1,14,0:0:0:0:
400,59,9599,5,14,0:0:0:0:
123,195,11074,6,0,L|127:128,1,35,14|0,0:0|0:0,0:0:0:0:
246,140,11238,2,0,L|242:207,1,35,2|0,0:0|0:0,0:0:0:0:
132,175,11402,2,0,L|136:108,1,35,2|0,0:0|0:0,0:0:0:0:
255,119,11566,2,0,L|251:186,1,35,2|0,0:0|0:0,0:0:0:0:
141,154,11730,2,0,L|145:87,1,35,2|0,0:0|0:0,0:0:0:0:
264,99,11894,2,0,L|260:166,1,35,2|0,0:0|0:0,0:0:0:0:
150,134,12058,2,0,L|154:67,1,35,2|0,0:0|0:0,0:0:0:0:
273,79,12222,6,0,P|166:70|112:62,1,140,14|0,0:0|0:0,0:0:0:0:
91,254,12714,5,8,0:1:0:0:
60,240,12796,1,8,0:1:0:0:
50,207,12878,1,8,0:1:0:0:
69,179,12960,1,8,0:1:0:0:
103,176,13042,1,8,0:1:0:0:
127,199,13123,1,8,0:1:0:0:
157,234,13205,5,8,0:1:0:0:
201,246,13287,1,8,0:1:0:0:
244,235,13369,1,8,0:1:0:0:
277,203,13451,1,8,0:1:0:0:
289,160,13533,1,8,0:1:0:0:
279,116,13615,1,8,0:1:0:0:
245,89,13697,6,0,L|123:79,1,83.9999974365235,14|0,0:0|0:0,0:0:0:0:
312,185,14025,2,0,L|428:174,1,83.9999974365235,8|8,0:1|0:0,0:0:0:0:
245,89,14353,1,0,0:0:0:0:
260,253,14517,1,8,0:0:0:0:
352,88,14681,1,8,0:1:0:0:
161,82,14845,6,0,P|171:176|176:262,1,167.999994873047,10|8,0:0|0:0,0:0:0:0:
78,168,15337,1,8,0:1:0:0:
261,154,15501,2,0,P|277:199|292:253,1,83.9999974365235,8|8,0:1|0:0,0:0:0:0:
161,82,15828,1,8,0:0:0:0:
161,82,15910,1,0,0:0:0:0:
161,82,15992,2,0,L|188:-26,1,83.9999974365235,8|0,0:1|0:0,0:0:0:0:
340,134,16320,6,0,P|293:153|232:144,1,83.9999974365235,10|0,0:0|0:0,0:0:0:0:
81,101,16648,2,0,P|127:81|189:91,1,83.9999974365235,8|8,0:1|0:0,0:0:0:0:
340,134,16976,1,0,0:0:0:0:
148,198,17140,1,8,0:0:0:0:
275,45,17304,1,8,0:1:0:0:
206,291,17468,6,0,L|16:258,1,167.999994873047,10|8,0:0|0:0,0:0:0:0:
148,198,17960,1,8,0:1:0:0:
265,380,18123,2,0,P|311:376|356:359,1,83.9999974365235,8|8,0:1|0:0,0:0:0:0:
407,255,18451,1,8,0:0:0:0:
304,181,18615,2,0,L|295:98,1,83.9999974365235,8|8,0:1|0:1,0:0:0:0:
356,35,18861,1,8,0:1:0:0:
380,19,18943,6,0,P|419:15|478:37,1,83.9999974365235,14|0,0:0|0:0,0:0:0:0:
294,97,19271,2,0,L|181:84,1,83.9999974365235,8|8,0:1|0:0,0:0:0:0:
304,181,19599,1,0,0:0:0:0:
409,123,19763,1,8,0:0:0:0:
275,14,19927,1,8,0:1:0:0:
248,270,20091,6,0,P|331:255|430:243,1,167.999994873047,10|8,0:0|0:0,0:0:0:0:
304,181,20582,1,8,0:1:0:0:
358,353,20746,2,0,P|408:356|457:357,1,83.9999974365235,8|8,0:1|0:0,0:0:0:0:
248,270,21074,1,8,0:0:0:0:
248,270,21156,1,0,0:0:0:0:
248,270,21238,2,0,P|189:278|141:291,1,83.9999974365235,8|0,0:1|0:0,0:0:0:0:
358,353,21566,6,0,P|367:283|373:178,1,167.999994873047,10|8,0:0|0:1,0:0:0:0:
372,185,22058,1,8,0:0:0:0:
248,270,22222,1,0,0:0:0:0:
455,269,22386,1,8,0:0:0:0:
270,168,22550,1,8,0:1:0:0:
465,101,22714,6,0,L|454:271,1,167.999994873047,10|8,0:0|0:0,0:0:0:0:
454,268,23205,1,8,0:1:0:0:
270,168,23369,2,0,L|274:84,1,83.9999974365235,8|8,0:1|0:0,0:0:0:0:
376,7,23697,2,0,L|371:90,1,83.9999974365235,8|8,0:0|0:1,0:0:0:0:
186,248,24025,5,8,0:1:0:0:
135,245,24107,1,8,0:1:0:0:
85,243,24189,1,14,0:0:0:0:
256,192,24271,12,2,26484,0:0:0:0:
124,277,26648,5,0,0:0:0:0:
124,277,26730,1,0,0:0:0:0:
124,277,26812,1,6,0:0:0:0:
310,254,27304,1,6,0:0:0:0:
91,136,27796,1,6,0:0:0:0:
388,82,28287,1,6,0:0:0:0:
256,192,28369,12,0,29927,0:0:0:0:
186,230,30091,5,6,0:3:0:0:
119,209,30254,1,2,0:0:0:0:
105,140,30418,1,2,0:0:0:0:
157,93,30582,1,2,0:0:0:0:
172,161,30746,6,0,B|265:178|265:178|321:158,1,140,2|0,0:0|0:0,0:0:0:0:
406,123,31238,2,0,L|375:277,2,140,2|0|0,0:0|0:0|0:0,0:0:0:0:
378,260,32058,2,0,B|430:281|430:281|527:258,1,140,2|0,0:0|0:0,0:0:0:0:
443,181,32550,1,2,0:0:0:0:
307,162,32713,5,2,0:0:0:0:
315,231,32877,1,2,0:0:0:0:
323,300,33041,1,2,0:0:0:0:
307,162,33205,5,2,0:0:0:0:
323,300,33533,1,2,0:0:0:0:
190,255,33861,1,2,0:0:0:0:
270,237,34517,5,2,0:0:0:0:
270,237,34845,5,2,0:0:0:0:
307,162,35009,1,2,0:0:0:0:
352,232,35172,1,2,0:0:0:0:
265,88,35336,5,14,0:0:0:0:
270,237,35500,1,2,0:0:0:0:
307,162,35664,1,2,0:0:0:0:
223,164,35828,2,0,B|171:163|171:163|133:146|133:146|62:146,2,140,2|2|2,0:0|0:0|0:0,0:0:0:0:
223,164,36976,5,2,0:0:0:0:
107,238,37140,2,0,P|125:317|179:346,1,140,2|0,0:0|0:0,0:0:0:0:
223,164,37631,1,2,0:0:0:0:
86,146,37795,1,2,0:0:0:0:
197,257,37959,6,0,P|227:260|283:240,2,70,2|0|0,0:0|0:0|0:0,0:0:0:0:
223,164,38451,2,0,L|226:76,1,70,2|0,0:0|0:0,0:0:0:0:
317,171,38779,2,0,L|319:101,1,70,2|0,0:0|0:0,0:0:0:0:
265,250,39107,1,2,0:0:0:0:
167,283,39271,6,0,L|165:234,1,35,2|0,0:0|0:0,0:0:0:0:
135,266,39435,2,0,L|149:220,1,35,2|0,0:0|0:0,0:0:0:0:
110,239,39599,2,0,L|139:201,1,35,2|0,0:0|0:0,0:0:0:0:
96,206,39763,2,0,L|137:180,1,35,2|0,0:0|0:0,0:0:0:0:
201,128,39927,5,10,0:1:0:0:
228,124,40009,1,8,0:1:0:0:
255,132,40090,1,8,0:1:0:0:
276,150,40172,1,8,0:1:0:0:
289,174,40254,1,8,0:1:0:0:
292,202,40336,1,8,0:1:0:0:
283,228,40418,1,8,0:1:0:0:
265,250,40500,1,8,0:1:0:0:
222,195,40582,6,0,B|330:174|330:174|410:203,1,167.999994873047,14|8,0:0|0:1,0:0:0:0:
293,104,41074,2,0,P|286:65|302:8,1,83.9999974365235,0|8,0:0|0:0,0:0:0:0:
384,193,41402,2,0,P|391:232|375:289,1,83.9999974365235,0|8,0:0|0:1,0:0:0:0:
404,77,41730,1,0,0:0:0:0:
404,77,41812,1,0,0:0:0:0:
404,77,41894,6,0,L|506:79,2,83.9999974365235,10|0|8,0:0|0:0|0:1,0:0:0:0:
222,195,42386,2,0,L|155:194,1,41.9999987182618,0|0,0:0|0:0,0:0:0:0:
98,211,42550,2,0,L|80:119,2,83.9999974365235,8|0|8,0:0|0:0|0:1,0:0:0:0:
299,290,43041,1,0,0:0:0:0:
299,290,43123,1,0,0:0:0:0:
299,290,43205,6,0,P|337:281|396:273,1,83.9999974365235,10|0,0:0|0:0,0:0:0:0:
453,170,43533,1,8,0:1:0:0:
346,107,43697,2,0,L|324:0,1,83.9999974365235,0|8,0:0|0:0,0:0:0:0:
268,202,44025,1,0,0:0:0:0:
453,170,44189,1,8,0:1:0:0:
329,24,44353,1,0,0:0:0:0:
329,24,44435,1,0,0:0:0:0:
329,24,44517,6,0,P|283:33|226:39,2,83.9999974365235,10|0|8,0:0|0:0|0:1,0:0:0:0:
222,195,45009,2,0,L|171:194,1,41.9999987182618,0|0,0:0|0:0,0:0:0:0:
215,281,45172,2,0,P|255:273|312:266,1,83.9999974365235,8|0,0:0|0:0,0:0:0:0:
360,156,45500,1,8,0:1:0:0:
150,119,45664,1,0,0:0:0:0:
150,119,45746,1,0,0:0:0:0:
150,119,45828,6,0,P|160:171|205:208,1,83.9999974365235,14|0,0:0|0:0,0:0:0:0:
360,156,46156,1,8,0:1:0:0:
294,44,46320,2,0,L|254:118,1,83.9999974365235,0|8,0:0|0:0,0:0:0:0:
320,230,46648,2,0,L|360:155,1,83.9999974365235,0|8,0:0|0:1,0:0:0:0:
179,193,46976,1,0,0:0:0:0:
179,193,47058,1,0,0:0:0:0:
179,193,47140,6,0,P|204:246|261:264,1,83.9999974365235,10|0,0:0|0:0,0:0:0:0:
359,156,47468,1,8,0:1:0:0:
150,119,47631,2,0,P|121:115|93:113,1,41.9999987182618,0|0,0:0|0:0,0:0:0:0:
179,193,47795,2,0,P|218:187|278:183,1,83.9999974365235,8|0,0:0|0:0,0:0:0:0:
341,282,48123,1,8,0:1:0:0:
145,277,48287,1,0,0:0:0:0:
145,277,48369,1,0,0:0:0:0:
145,277,48451,6,0,P|109:247|97:181,1,83.9999974365235,10|0,0:0|0:0,0:0:0:0:
262,183,48779,1,8,0:1:0:0:
96,131,48943,2,0,B|87:184|87:184|99:227,1,83.9999974365235,0|8,0:0|0:0,0:0:0:0:
223,340,49271,2,0,B|232:287|232:287|220:244,1,83.9999974365235,0|8,0:0|0:1,0:0:0:0:
121,332,49599,1,0,0:0:0:0:
121,332,49681,1,0,0:0:0:0:
121,332,49763,6,0,L|58:332,1,41.9999987182618,10|0,0:0|0:0,0:0:0:0:
181,257,49927,2,0,L|223:257,1,41.9999987182618,2|0,0:0|0:0,0:0:0:0:
88,243,50090,2,0,L|25:243,1,41.9999987182618,10|0,0:0|0:0,0:0:0:0:
148,168,50254,2,0,L|190:168,1,41.9999987182618,2|0,0:0|0:0,0:0:0:0:
50,151,50418,5,8,0:1:0:0:
15,127,50500,1,8,0:1:0:0:
1,88,50582,1,8,0:1:0:0:
10,48,50664,1,8,0:1:0:0:
40,20,50746,1,8,0:1:0:0:
81,15,50828,1,8,0:1:0:0:
118,33,50910,1,8,0:1:0:0:
139,69,50992,1,8,0:1:0:0:
136,111,51074,5,14,0:0:0:0:
14,281,51238,1,8,0:0:0:0:
71,84,51402,5,8,0:1:0:0:
181,257,51566,1,8,0:0:0:0:
181,257,51894,6,0,L|284:265,1,83.9999974365235,8|0,0:0|0:0,0:0:0:0:
440,107,52222,2,0,L|434:192,1,83.9999974365235,14|0,0:0|0:0,0:0:0:0:
314,143,52550,2,0,L|230:136,1,83.9999974365235,8|8,0:0|0:1,0:0:0:0:
348,270,52877,2,0,L|264:263,1,83.9999974365235,8|0,0:0|0:0,0:0:0:0:
440,107,53205,5,8,0:0:0:0:
348,270,53369,1,8,0:1:0:0:
314,143,53533,1,0,0:0:0:0:
314,143,53615,1,0,0:0:0:0:
314,143,53697,5,14,0:0:0:0:
452,301,53861,1,8,0:0:0:0:
440,107,54025,1,8,0:1:0:0:
348,270,54189,6,0,L|356:370,1,83.9999974365235,8|0,0:0|0:0,0:0:0:0:
230,136,54517,2,0,L|238:236,1,83.9999974365235,8|8,0:0|0:1,0:0:0:0:
361,60,54845,2,0,P|319:48|277:54,1,83.9999974365235,14|0,0:0|0:0,0:0:0:0:
236,219,55172,5,8,0:0:0:0:
314,143,55336,1,8,0:1:0:0:
208,116,55500,1,8,0:0:0:0:
342,252,55664,5,8,0:0:0:0:
208,116,55828,1,8,0:0:0:0:
160,297,55992,1,8,0:1:0:0:
236,219,56156,1,0,0:0:0:0:
236,219,56238,1,0,0:0:0:0:
236,219,56320,5,14,0:0:0:0:
31,215,56484,1,8,0:0:0:0:
208,116,56648,5,8,0:1:0:0:
154,325,56812,1,8,0:0:0:0:
154,325,57140,6,0,P|109:314|50:308,1,83.9999974365235,8|0,0:0|0:0,0:0:0:0:
236,219,57468,2,0,P|248:180|242:131,1,83.9999974365235,14|0,0:0|0:0,0:0:0:0:
146,58,57795,2,0,P|93:73|51:77,1,83.9999974365235,8|8,0:0|0:1,0:0:0:0:
244,137,58123,2,0,P|277:130|342:123,1,83.9999974365235,8|0,0:0|0:0,0:0:0:0:
133,171,58451,5,8,0:0:0:0:
258,24,58615,1,8,0:1:0:0:
236,219,58779,1,0,0:0:0:0:
236,219,58861,1,0,0:0:0:0:
236,219,58943,5,14,0:0:0:0:
326,123,59107,1,8,0:0:0:0:
133,171,59271,1,8,0:1:0:0:
245,302,59435,6,0,L|234:204,1,83.9999974365235,8|0,0:0|0:0,0:0:0:0:
123,87,59763,2,0,L|134:185,1,83.9999974365235,8|0,0:0|0:0,0:0:0:0:
40,298,60090,2,0,L|29:200,1,83.9999974365235,14|0,0:0|0:0,0:0:0:0:
143,277,60418,5,8,0:0:0:0:
235,218,60582,1,8,0:1:0:0:
327,160,60746,1,8,0:0:0:0:
245,302,60910,5,8,0:0:0:0:
406,269,61074,1,8,0:0:0:0:
230,107,61238,1,8,0:1:0:0:
426,102,61402,1,0,0:0:0:0:
426,102,61484,1,0,0:0:0:0:
426,102,61566,6,0,L|405:274,1,167.999994873047,14|8,0:0|0:1,0:0:0:0:
327,160,62058,1,8,0:0:0:0:
339,185,62386,5,8,0:0:0:0:
512,176,62550,1,8,0:1:0:0:
294,36,62713,2,0,P|289:119|339:185,1,167.999994873047,10|8,0:0|0:0,0:0:0:0:
402,84,63205,1,8,0:1:0:0:
217,133,63369,1,8,0:0:0:0:
337,184,63533,5,8,0:0:0:0:
264,21,63697,1,8,0:0:0:0:
133,171,63861,2,0,P|154:214|171:272,1,83.9999974365235,8|0,0:1|0:0,0:0:0:0:
346,302,64189,6,0,P|414:275|449:181,1,167.999994873047,10|8,0:0|0:1,0:0:0:0:
287,63,64681,2,0,P|250:60|169:50,1,83.9999974365235,8|0,0:0|0:0,0:0:0:0:
254,197,65009,2,0,P|298:188|350:183,1,83.9999974365235,8|8,0:0|0:1,0:0:0:0:
402,84,65336,1,10,0:0:0:0:
133,171,65500,5,8,0:1:0:0:
130,204,65582,1,8,0:1:0:0:
136,237,65664,1,8,0:1:0:0:
151,267,65746,1,8,0:1:0:0:
172,293,65828,1,8,0:1:0:0:
200,311,65910,1,8,0:1:0:0:
232,323,65992,1,8,0:1:0:0:
265,325,66074,1,8,0:1:0:0:
298,319,66156,6,8,L|354:308,1,41.9999987182618,8|8,0:1|0:1,0:0:0:0:
410,239,66320,2,8,L|354:228,1,41.9999987182618,8|8,0:1|0:1,0:0:0:0:
254,197,66484,2,8,L|310:186,1,41.9999987182618,8|8,0:1|0:1,0:0:0:0:
366,117,66648,2,8,L|310:106,1,41.9999987182618,8|8,0:1|0:1,0:0:0:0:
464,170,66812,6,0,L|483:-7,1,167.999994873047,14|8,0:0|0:1,0:0:0:0:
324,108,67304,1,8,0:0:0:0:
464,170,67468,1,0,0:0:0:0:
254,197,67631,1,8,0:0:0:0:
412,320,67795,2,0,P|420:288|393:216,1,83.9999974365235,8|0,0:1|0:0,0:0:0:0:
324,108,68123,5,14,0:0:0:0:
314,281,68287,1,8,0:0:0:0:
464,170,68451,2,0,P|480:137|474:85,1,83.9999974365235,8|0,0:1|0:0,0:0:0:0:
254,197,68779,2,0,P|212:186|146:175,1,83.9999974365235,8|0,0:0|0:0,0:0:0:0:
32,286,69107,2,0,P|71:286|138:276,1,83.9999974365235,8|0,0:1|0:0,0:0:0:0:
406,120,69435,6,0,P|364:116|309:104,1,83.9999974365235,14|0,0:0|0:0,0:0:0:0:
155,96,69763,2,0,P|167:145|173:193,1,83.9999974365235,8|0,0:1|0:0,0:0:0:0:
314,281,70090,1,8,0:0:0:0:
323,107,70254,1,8,0:0:0:0:
115,280,70418,1,8,0:1:0:0:
314,281,70582,1,0,0:0:0:0:
314,281,70664,1,0,0:0:0:0:
314,281,70746,6,0,B|347:267|347:267|412:276,1,83.9999974365235,14|0,0:0|0:0,0:0:0:0:
171,178,71074,2,0,B|138:192|138:192|73:183,1,83.9999974365235,8|0,0:1|0:0,0:0:0:0:
323,107,71402,2,0,B|356:93|356:93|421:102,1,83.9999974365235,8|0,0:0|0:0,0:0:0:0:
162,352,71730,2,0,B|129:366|129:366|64:357,1,83.9999974365235,8|0,0:1|0:0,0:0:0:0:
59,92,72058,5,14,0:0:0:0:
115,280,72222,1,8,0:0:0:0:
161,56,72386,5,8,0:1:0:0:
200,278,72550,1,8,0:0:0:0:
274,39,72713,5,8,0:1:0:0:
279,299,72877,1,8,0:0:0:0:
390,45,73041,5,8,0:1:0:0:
351,340,73205,1,8,0:0:0:0:
191,67,73369,5,14,0:0:0:0:
451,259,73533,1,8,0:0:0:0:
163,200,73697,5,8,0:1:0:0:
476,120,73861,1,8,0:0:0:0:
249,309,74025,5,8,0:1:0:0:
315,22,74189,1,8,0:0:0:0:
412,305,74353,5,8,0:1:0:0:
194,70,74517,2,0,L|258:82,1,41.9999987182618,8|8,0:1|0:1,0:0:0:0:
476,120,74681,5,14,0:0:0:0:
456,145,75172,5,14,0:0:0:0:
441,180,75500,5,8,0:1:0:0:
441,180,75582,1,8,0:1:0:0:
441,180,75664,1,14,0:0:0:0:
272,268,75828,6,0,B|221:285|159:239|146:165|218:98|218:98|261:141|256:187,1,350,14|0,0:0|0:0,0:0:0:0:
256,187,76812,6,0,P|290:179|338:177,2,70,2|2|2,0:0|0:0|0:0,0:0:0:0:
422,283,77304,6,0,B|439:216|468:147|468:147|421:101,1,210.000008010865,14|8,0:0|0:1,0:0:0:0:
256,187,77795,2,0,P|269:252|280:305,1,105.000004005432,8|0,0:0|0:0,0:0:0:0:
99,176,78123,2,0,P|107:124|114:72,1,105.000004005432,8|8,0:0|0:1,0:0:0:0:
361,44,78451,6,0,P|330:162|245:185,1,210.000008010865,10|8,0:0|0:0,0:0:0:0:
114,72,78943,1,8,0:1:0:0:
263,86,79107,2,0,B|276:120|276:120|255:186,1,105.000004005432,8|0,0:0|0:0,0:0:0:0:
91,275,79435,2,0,B|78:241|78:241|99:175,1,105.000004005432,8|8,0:0|0:1,0:0:0:0:
276,289,79763,1,0,0:0:0:0:
276,289,79845,1,0,0:0:0:0:
276,289,79927,6,0,B|319:259|373:257|411:279|411:279|404:303|369:329,1,210.000008010865,10|8,0:0|0:1,0:0:0:0:
255,185,80418,2,0,P|263:138|271:71,1,105.000004005432,8|0,0:0|0:0,0:0:0:0:
139,178,80746,1,8,0:0:0:0:
367,178,80910,1,8,0:1:0:0:
165,63,81074,1,8,0:0:0:0:
276,289,81238,6,0,P|322:273|390:263,1,105.000004005432,10|0,0:0|0:0,0:0:0:0:
255,185,81566,1,8,0:1:0:0:
373,377,81730,2,0,P|430:365|481:308,1,105.000004005432,8|0,0:0|0:0,0:0:0:0:
167,258,82058,2,0,P|109:251|51:193,1,105.000004005432,8|8,0:0|0:1,0:0:0:0:
270,81,82386,1,0,0:0:0:0:
270,81,82468,1,0,0:0:0:0:
270,81,82550,6,0,L|253:196,1,105.000004005432,14|0,0:0|0:0,0:0:0:0:
361,44,82877,1,8,0:1:0:0:
153,146,83041,1,8,0:0:0:0:
367,178,83205,6,0,B|395:153|395:153|498:153,1,105.000004005432,2|8,0:0|0:0,0:0:0:0:
270,81,83533,1,8,0:1:0:0:
157,281,83697,6,0,B|129:256|129:256|26:256,1,105.000004005432,10|0,0:0|0:0,0:0:0:0:
254,184,84025,1,8,0:0:0:0:
336,384,84189,6,0,B|364:359|364:359|467:359,1,105.000004005432,10|8,0:1|0:0,0:0:0:0:
239,287,84517,1,10,0:0:0:0:
367,178,84681,5,8,0:0:0:0:
367,178,84763,1,0,0:1:0:0:
367,178,84845,2,0,P|356:237|312:282,1,105.000004005432,10|0,0:1|0:0,0:0:0:0:
254,184,85090,1,0,0:0:0:0:
254,184,85172,6,0,B|103:168|103:168|161:241,1,210.000008010865,10|8,0:0|0:1,0:0:0:0:
367,178,85664,2,0,P|409:157|434:89,1,105.000004005432,8|0,0:0|0:0,0:0:0:0:
238,80,85992,2,0,P|246:132|256:205,1,105.000004005432,8|8,0:0|0:1,0:0:0:0:
7,124,86320,6,0,P|22:52|144:21,1,210.000008010865,14|0,0:0|0:0,0:0:0:0:
139,213,86812,2,0,P|85:223|4:231,1,105.000004005432,8|0,0:1|0:0,0:0:0:0:
210,382,87140,2,0,P|240:332|237:284,1,105.000004005432,8|0,0:0|0:0,0:0:0:0:
103,106,87468,5,8,0:1:0:0:
74,148,87550,1,8,0:1:0:0:
90,196,87631,1,8,0:1:0:0:
138,212,87713,1,8,0:1:0:0:
181,183,87795,6,0,B|259:175|321:147|321:147|386:206,1,210.000008010865,14|8,0:0|0:1,0:0:0:0:
291,322,88287,2,0,P|235:311|185:307,1,105.000004005432,8|0,0:0|0:0,0:0:0:0:
368,190,88615,2,0,P|429:193|498:186,1,105.000004005432,8|8,0:0|0:1,0:0:0:0:
156,13,88943,6,0,P|118:105|182:183,1,210.000008010865,10|8,0:0|0:0,0:0:0:0:
368,190,89435,1,8,0:1:0:0:
310,61,89599,2,0,B|283:91|283:91|193:91,1,105.000004005432,8|0,0:0|0:0,0:0:0:0:
90,212,89927,2,0,B|117:182|117:182|207:182,2,105.000004005432,8|8|0,0:0|0:1|0:0,0:0:0:0:
291,322,90418,6,0,B|334:187|334:187|282:138,1,210.000008010865,10|8,0:0|0:1,0:0:0:0:
90,212,90910,2,0,B|117:242|117:242|207:242,1,105.000004005432,8|0,0:0|0:0,0:0:0:0:
218,91,91238,1,8,0:0:0:0:
90,212,91402,1,8,0:1:0:0:
289,244,91566,1,8,0:0:0:0:
83,107,91730,6,0,P|88:160|89:212,1,105.000004005432,10|0,0:0|0:0,0:0:0:0:
289,244,92058,1,8,0:1:0:0:
155,41,92222,2,0,P|108:62|82:106,1,105.000004005432,8|0,0:0|0:0,0:0:0:0:
284,140,92550,2,0,P|294:89|311:17,1,105.000004005432,8|8,0:0|0:1,0:0:0:0:
172,137,92877,1,0,0:0:0:0:
172,137,92959,1,0,0:0:0:0:
172,137,93041,6,0,L|183:268,1,105.000004005432,14|0,0:0|0:0,0:0:0:0:
284,140,93369,1,8,0:1:0:0:
89,211,93533,1,8,0:0:0:0:
291,322,93697,6,0,B|317:294|317:294|392:294,1,105.000004005432,2|8,0:0|0:0,0:0:0:0:
180,240,94025,1,8,0:1:0:0:
203,146,94189,6,0,B|214:182|214:182|176:247,1,105.000004005432,10|0,0:0|0:0,0:0:0:0:
328,92,94517,1,8,0:0:0:0:
399,159,94681,6,0,B|361:150|361:150|324:85,1,105.000004005432,10|8,0:1|0:0,0:0:0:0:
383,294,95009,1,10,0:0:0:0:
501,178,95172,5,8,0:0:0:0:
501,178,95254,1,0,0:0:0:0:
501,178,95336,2,0,P|446:164|375:158,1,105.000004005432,10|0,0:1|0:0,0:0:0:0:
328,92,95582,1,0,0:0:0:0:
328,92,95664,6,0,P|394:49|303:17,1,210.000008010865,10|8,0:0|0:1,0:0:0:0:
397,197,96156,2,0,P|435:187|522:177,1,105.000004005432,8|0,0:0|0:0,0:0:0:0:
281,269,96484,2,0,P|229:252|150:235,1,105.000004005432,8|8,0:0|0:1,0:0:0:0:
349,115,96812,6,0,P|359:222|274:269,1,210.000008010865,14|0,0:0|0:0,0:0:0:0:
147,87,97304,2,0,P|199:80|271:61,1,105.000004005432,8|0,0:1|0:0,0:0:0:0:
180,240,97631,2,0,P|125:228|76:221,1,105.000004005432,8|0,0:0|0:0,0:0:0:0:
47,65,97959,1,8,0:1:0:0:
269,175,98123,1,8,0:1:0:0:
269,175,98205,1,8,0:1:0:0:
269,175,98287,6,0,P|244:269|221:368,1,167.999994873047,14|8,0:0|0:1,0:0:0:0:
397,197,98779,2,0,L|388:97,1,83.9999974365235,8|0,0:0|0:0,0:0:0:0:
280,268,99107,5,8,0:0:0:0:
489,258,99271,1,8,0:1:0:0:
309,118,99435,2,0,B|269:154|269:154|280:272,1,167.999994873047,10|8,0:0|0:0,0:0:0:0:
142,330,99927,2,0,P|102:312|73:259,1,83.9999974365235,8|0,0:1|0:0,0:0:0:0:
309,118,100254,5,8,0:0:0:0:
383,294,100418,1,8,0:0:0:0:
173,223,100582,2,0,P|160:179|162:118,1,83.9999974365235,8|0,0:1|0:0,0:0:0:0:
303,371,100910,6,0,P|237:345|117:330,1,167.999994873047,14|8,0:0|0:1,0:0:0:0:
383,294,101402,2,0,P|431:246|391:128,1,167.999994873047,12|8,0:0|0:0,0:0:0:0:
250,67,101894,1,8,0:1:0:0:
173,223,102058,2,0,L|92:233,1,41.9999987182618,6|0,0:3|0:0,0:0:0:0:
27,144,102222,5,8,0:1:0:0:
6,108,102304,1,8,0:1:0:0:
8,66,102386,1,8,0:1:0:0:
32,33,102468,1,8,0:1:0:0:
71,19,102550,1,8,0:1:0:0:
111,28,102631,1,8,0:1:0:0:
140,59,102713,1,8,0:1:0:0:
147,99,102795,1,8,0:1:0:0:
161,139,102877,5,8,0:1:0:0:
186,181,102959,1,8,0:1:0:0:
232,200,103041,1,8,0:1:0:0:
280,188,103123,1,8,0:1:0:0:
313,151,103205,1,8,0:1:0:0:
338,108,103287,1,8,0:1:0:0:
384,89,103369,1,8,0:1:0:0:
432,101,103451,1,8,0:1:0:0:
465,138,103533,5,14,0:0:0:0:
227,337,104025,1,14,0:0:0:0:
512,347,104517,1,14,0:0:0:0:
77,161,105009,6,0,B|27:168|-1:185|-1:185|58:199|104:229|104:229|153:187|153:187|201:208|256:192,1,367.500014019013,14|0,0:0|0:0,0:0:0:0:
256,192,106812,5,14,0:0:0:0:
256,192,106894,12,0,112058,0:0:0:0:
