osu file format v14

[General]
AudioFilename: optc.mp3
AudioLeadIn: 0
PreviewTime: 76648
Countdown: 0
SampleSet: Soft
StackLeniency: 0.7
Mode: 0
LetterboxInBreaks: 0
WidescreenStoryboard: 1

[Editor]
Bookmarks: 583,13697,26812,30091,40582,51074,61566,66812,72058,77304,87795,98287,103533,106812
DistanceSpacing: 1
BeatDivisor: 2
GridSize: 16
TimelineZoom: 1.2

[Metadata]
Title:Exceed the Destiny (short ver.)
TitleUnicode:Exceed the Destiny (short ver.)
Artist:Sasaki Sayaka
ArtistUnicode:佐咲紗花
Creator:Shad0w1and
Version:Easy
Source:超昂神騎エクシール
Tags:Choukou Shinki Ixseal Beat Valkyrie Kyriel アリスソフト AliceSoft Alice Soft
BeatmapID:1379360
BeatmapSetID:650655

[Difficulty]
HPDrainRate:3
CircleSize:3
OverallDifficulty:4
ApproachRate:5
SliderMultiplier:0.8
SliderTickRate:1

[Events]
//Background and Video events
0,0,"BG6.jpg",0,0
Video,0,"optc.flv"
//Break Periods
//Storyboard Layer 0 (Background)
//Storyboard Layer 1 (Fail)
//Storyboard Layer 2 (Pass)
//Storyboard Layer 3 (Foreground)
//Storyboard Sound Samples

[TimingPoints]
583,327.868852459016,4,2,1,80,1,0
13697,-100,4,2,1,90,0,1
24189,-100,4,2,1,80,0,0
30091,327.868852459016,4,2,1,60,1,0
40582,-100,4,2,1,70,0,0
51074,-100,4,2,1,70,0,0
66812,-100,4,2,1,80,0,0
72058,-100,4,2,1,90,0,0
77304,-100,4,2,1,100,0,1
87795,-100,4,2,1,100,0,1
98287,-100,4,2,1,90,0,1
103533,-100,4,2,1,80,0,0

[Colours]
Combo1 : 255,226,140
Combo2 : 98,255,176
Combo3 : 81,159,255
Combo4 : 243,56,84

[HitObjects]
176,78,583,6,0,P|223:86|283:87,1,80,6|0,0:0|0:0,0:0:0:0:
283,59,1074,2,0,P|323:53|370:50,1,80,2|0,0:0|0:0,0:0:0:0:
430,93,1730,2,0,P|411:173|397:280,1,160,2|2,0:0|0:0,0:0:0:0:
328,287,2714,1,2,0:0:0:0:
246,199,3205,6,0,P|199:200|144:210,1,80,2|0,0:0|0:0,0:0:0:0:
133,181,3697,2,0,P|85:184|45:177,2,80,2|0|2,0:0|0:0|0:0,0:0:0:0:
122,142,4517,2,0,P|132:97|246:61,1,160,2|2,0:0|0:0,0:0:0:0:
228,54,5828,6,0,P|255:153|305:32,1,320,2|0,0:0|0:0,0:0:0:0:
309,34,8451,6,0,P|321:156|376:68,1,280,14|14,0:0|0:0,0:0:0:0:
382,92,11074,6,0,P|461:82|393:185,1,280,14|14,0:0|0:0,0:0:0:0:
394,185,13697,6,0,P|387:243|386:283,1,80,14|8,0:0|0:1,0:0:0:0:
325,317,14353,2,0,P|292:292|247:269,1,80,8|8,0:0|0:1,0:0:0:0:
218,269,14845,2,0,P|112:269|139:184,1,200,10|8,0:0|0:0,0:0:0:0:
184,159,15992,1,8,0:1:0:0:
183,78,16320,6,0,P|145:52|87:30,1,80,10|8,0:0|0:1,0:0:0:0:
44,77,16976,2,0,P|46:128|57:177,1,80,8|8,0:0|0:1,0:0:0:0:
90,165,17468,2,0,P|134:201|120:287,1,120,10|8,0:0|0:1,0:0:0:0:
158,294,18123,2,0,P|212:284|283:278,1,120,8|8,0:1|0:1,0:0:0:0:
356,288,18943,6,0,P|360:335|368:371,1,80,14|8,0:0|0:1,0:0:0:0:
447,366,19599,2,0,P|452:334|452:270,1,80,8|8,0:0|0:1,0:0:0:0:
442,248,20091,2,0,B|439:196|467:135|467:135|427:154|388:132,1,200,10|8,0:0|0:0,0:0:0:0:
430,64,21238,1,8,0:1:0:0:
367,14,21566,6,0,P|323:5|287:0,1,80,10|8,0:0|0:1,0:0:0:0:
254,72,22222,2,0,P|219:87|173:97,1,80,8|8,0:0|0:1,0:0:0:0:
156,130,22714,2,0,P|174:177|184:220,1,80,10|8,0:0|0:0,0:0:0:0:
112,245,23369,2,0,P|97:288|87:338,1,80,8|8,0:1|0:0,0:0:0:0:
201,365,24189,6,0,B|260:352|296:309|296:309|272:259|215:233|215:233|267:215|300:193|300:193|247:159|222:104|270:42|347:59|357:127,1,560,14|2,0:0|0:0,0:0:0:0:
391,192,26812,6,0,B|470:180|470:180|502:209,1,120,6|6,0:0|0:0,0:0:0:0:
489,326,27796,2,0,B|410:338|410:338|378:309,1,120,6|6,0:0|0:0,0:0:0:0:
380,311,30091,6,0,P|328:306|280:311,1,80,6|2,0:3|0:0,0:0:0:0:
228,342,30746,2,0,P|181:329|134:307,1,80,2|2,0:0|0:0,0:0:0:0:
140,278,31238,2,0,P|132:204|240:219,1,200,2|2,0:0|0:0,0:0:0:0:
388,239,32713,6,0,P|425:222|456:196,1,80,2|2,0:0|0:0,0:0:0:0:
447,117,33369,2,0,P|411:103|358:99,1,80,2|2,0:0|0:0,0:0:0:0:
341,69,33861,2,0,B|261:64|202:36|202:36|212:80|226:110,1,200,2|2,0:0|0:0,0:0:0:0:
304,224,35336,6,0,P|308:269|305:315,1,80,14|2,0:0|0:0,0:0:0:0:
230,329,35992,2,0,P|208:303|182:253,1,80,2|2,0:0|0:0,0:0:0:0:
147,251,36484,2,0,P|66:216|49:302,1,200,2|2,0:0|0:0,0:0:0:0:
198,360,37959,6,0,B|256:367|288:342|288:342|356:363|356:363|353:308|383:258|383:258|406:281|431:297,1,320,2|2,0:0|0:0,0:0:0:0:
416,287,40582,6,0,P|454:278|508:246,1,80,14|8,0:0|0:1,0:0:0:0:
454,187,41238,2,0,P|410:172|346:145,1,80,8|8,0:0|0:1,0:0:0:0:
361,81,41894,2,0,P|290:107|203:121,1,160,10|8,0:0|0:0,0:0:0:0:
147,66,42877,1,8,0:1:0:0:
69,83,43205,6,0,P|52:123|43:162,1,80,10|8,0:0|0:1,0:0:0:0:
103,212,43861,2,0,P|111:253|118:298,1,80,8|8,0:0|0:1,0:0:0:0:
185,333,44517,2,0,P|268:316|293:235,1,160,10|8,0:0|0:0,0:0:0:0:
286,173,45500,1,8,0:1:0:0:
206,177,45828,6,0,P|209:222|215:268,1,80,14|8,0:0|0:1,0:0:0:0:
185,333,46484,2,0,P|143:321|98:314,1,80,8|8,0:0|0:1,0:0:0:0:
64,247,47140,2,0,P|85:157|157:131,1,160,10|8,0:0|0:0,0:0:0:0:
206,177,48123,1,8,0:1:0:0:
276,214,48451,6,0,P|321:203|373:185,1,80,10|8,0:0|0:1,0:0:0:0:
432,181,49107,2,0,P|432:141|425:93,1,80,8|8,0:0|0:1,0:0:0:0:
350,75,49763,2,0,B|303:70|275:50|275:50|231:90|231:90|189:51|137:65,1,240,10|8,0:0|0:1,0:0:0:0:
81,120,51074,6,0,P|94:165|107:205,1,80,14|8,0:0|0:1,0:0:0:0:
142,209,51566,2,0,P|134:248|124:311,1,80,8|8,0:0|0:0,0:0:0:0:
78,351,52222,2,0,P|38:354|1:338,2,80,14|8|8,0:0|0:0|0:0,0:0:0:0:
196,373,53369,1,8,0:1:0:0:
273,354,53697,6,0,P|294:317|339:268,1,80,14|8,0:0|0:1,0:0:0:0:
355,301,54189,2,0,P|386:314|434:323,1,80,8|8,0:0|0:0,0:0:0:0:
503,286,54845,2,0,L|503:166,1,120,14|8,0:0|0:1,0:0:0:0:
438,118,55664,2,0,P|397:116|332:102,1,80,8|8,0:0|0:1,0:0:0:0:
282,134,56320,6,0,L|283:213,1,80,14|8,0:0|0:1,0:0:0:0:
252,239,56812,2,0,L|260:326,1,80,8|8,0:0|0:0,0:0:0:0:
328,358,57468,2,0,P|369:365|432:350,2,80,14|8|8,0:0|0:0|0:0,0:0:0:0:
370,245,58615,1,8,0:1:0:0:
423,185,58943,6,0,P|460:185|520:181,1,80,14|8,0:0|0:1,0:0:0:0:
504,142,59435,2,0,P|489:107|455:69,1,80,8|8,0:0|0:0,0:0:0:0:
390,111,60090,2,0,P|333:101|242:76,1,120,14|8,0:0|0:1,0:0:0:0:
224,149,60910,2,0,P|228:195|229:241,1,80,8|8,0:0|0:1,0:0:0:0:
222,308,61566,6,0,P|168:281|152:235,1,80,14|8,0:0|0:1,0:0:0:0:
129,238,62058,2,0,P|139:198|146:143,1,80,8|8,0:0|0:0,0:0:0:0:
224,149,62713,2,0,P|261:146|312:131,1,80,14|8,0:0|0:0,0:0:0:0:
335,158,63205,2,0,P|331:198|350:238,1,80,8|8,0:1|0:0,0:0:0:0:
411,186,63861,1,8,0:1:0:0:
398,106,64189,6,0,P|358:79|304:83,1,80,14|8,0:0|0:1,0:0:0:0:
299,105,64681,2,0,P|259:115|195:119,1,80,8|8,0:0|0:0,0:0:0:0:
164,176,65336,2,8,P|94:132|188:83,1,200,14|8,0:0|0:1,0:0:0:0:
237,54,66484,1,8,0:1:0:0:
270,127,66812,6,0,P|295:163|339:198,2,80,14|8|8,0:0|0:1|0:0,0:0:0:0:
194,153,67795,1,8,0:1:0:0:
114,156,68123,2,0,P|71:194|50:231,1,80,14|8,0:0|0:1,0:0:0:0:
94,284,68779,2,0,P|134:288|199:282,1,80,8|8,0:0|0:1,0:0:0:0:
253,288,69435,6,0,L|265:186,2,80,14|8|8,0:0|0:1|0:0,0:0:0:0:
316,336,70418,2,0,P|362:334|411:312,1,80,8|14,0:1|0:0,0:0:0:0:
432,252,71074,1,8,0:1:0:0:
374,195,71402,2,0,L|381:88,1,80,8|8,0:0|0:1,0:0:0:0:
256,192,72058,12,14,74681,0:0:0:0:
256,192,77304,6,0,L|272:84,1,80,14|8,0:0|0:1,0:0:0:0:
258,73,77795,2,0,P|212:85|153:83,1,80,8|8,0:0|0:0,0:0:0:0:
99,77,78451,2,0,P|109:135|120:211,1,120,10|8,0:0|0:1,0:0:0:0:
146,224,79107,2,0,P|193:230|242:222,1,80,8|8,0:0|0:0,0:0:0:0:
345,236,79927,6,0,L|321:312,1,80,10|8,0:0|0:1,0:0:0:0:
348,342,80418,2,0,P|408:323|495:307,1,120,8|8,0:0|0:1,0:0:0:0:
499,240,81238,2,0,P|461:225|419:194,1,80,10|8,0:0|0:1,0:0:0:0:
406,169,81730,2,0,P|405:130|421:65,1,80,8|8,0:0|0:0,0:0:0:0:
331,90,82386,6,0,P|290:85|240:73,1,80,10|8,0:0|0:0,0:0:0:0:
212,79,82877,2,0,P|170:137|222:212,1,160,8|8,0:1|0:1,0:0:0:0:
284,232,83861,2,0,P|290:279|292:333,1,80,10|8,0:0|0:1,0:0:0:0:
356,358,84517,2,0,P|396:347|431:294,1,80,8|8,0:0|0:1,0:0:0:0:
491,279,85172,6,0,P|494:239|498:196,1,80,10|8,0:0|0:1,0:0:0:0:
475,165,85664,2,0,P|437:144|389:146,1,80,8|8,0:0|0:0,0:0:0:0:
320,144,86320,2,0,P|331:213|336:293,1,120,14|8,0:0|0:1,0:0:0:0:
276,317,87140,2,0,P|229:310|184:309,1,80,8|8,0:0|0:1,0:0:0:0:
121,279,87795,6,0,L|136:172,1,80,14|8,0:0|0:1,0:0:0:0:
151,164,88287,2,0,L|230:156,1,80,8|8,0:0|0:0,0:0:0:0:
300,116,88943,2,0,P|286:49|226:49,1,120,10|8,0:0|0:1,0:0:0:0:
207,58,89599,2,0,P|164:46|128:32,1,80,8|8,0:0|0:0,0:0:0:0:
60,130,90418,6,0,L|36:206,1,80,10|8,0:0|0:1,0:0:0:0:
59,238,90910,2,0,P|108:266|184:244,1,120,8|8,0:0|0:1,0:0:0:0:
239,218,91730,2,0,P|277:230|325:240,1,80,10|8,0:0|0:1,0:0:0:0:
353,224,92222,2,0,P|367:177|372:126,2,80,8|8|8,0:0|0:0|0:0,0:0:0:0:
391,235,93041,6,0,P|435:245|467:278,1,80,14|8,0:0|0:1,0:0:0:0:
396,315,93697,2,0,P|358:322|316:324,1,80,8|8,0:0|0:1,0:0:0:0:
238,341,94353,2,0,P|233:304|231:261,1,80,10|8,0:0|0:1,0:0:0:0:
283,200,95009,2,0,P|277:157|265:100,1,80,8|8,0:0|0:1,0:0:0:0:
201,81,95664,6,0,P|154:79|112:97,1,80,10|8,0:0|0:1,0:0:0:0:
92,115,96156,2,0,L|91:219,1,80,8|8,0:0|0:0,0:0:0:0:
131,264,96812,2,0,P|176:270|259:232,1,120,14|8,0:0|0:1,0:0:0:0:
319,273,97631,2,0,P|334:218|359:154,1,120,8|8,0:0|0:1,0:0:0:0:
387,134,98287,6,0,P|462:131|462:284,1,240,14|8,0:0|0:1,0:0:0:0:
468,302,99435,2,0,P|408:293|349:295,1,120,14|8,0:0|0:1,0:0:0:0:
315,367,100254,2,0,P|266:377|221:383,1,80,8|8,0:0|0:1,0:0:0:0:
184,319,100910,6,0,P|193:278|219:217,1,80,14|8,0:0|0:1,0:0:0:0:
245,229,101402,2,0,P|260:163|179:102,1,160,12|6,0:0|0:3,0:0:0:0:
199,103,103533,6,0,P|267:105|343:100,1,120,14|14,0:0|0:0,0:0:0:0:
266,210,104517,2,0,P|197:209|129:214,1,120,14|14,0:0|0:0,0:0:0:0:
256,192,106812,12,0,112058,0:0:0:0:
