osu file format v13

[General]
AudioFilename: Distance -Half Ver.-.mp3
AudioLeadIn: 0
PreviewTime: 60897
Countdown: 0
SampleSet: Soft
StackLeniency: 0.7
Mode: 3
LetterboxInBreaks: 0
SpecialStyle: 0
WidescreenStoryboard: 0

[Editor]
DistanceSpacing: 0.9
BeatDivisor: 4
GridSize: 8
TimelineZoom: 2.300001

[Metadata]
Title:Distance -Half Ver.-
TitleUnicode:Distance -Half Ver.-
Artist:Sasaki Sayaka
ArtistUnicode:佐咲 紗花
Creator:yoshilove
Version:4K EZ
Source:恋がさくころ桜どき
Tags:ぱれっと palette clearrave cherry blossom koi ga saku koro sakura doki opening op2 galgame eroge
BeatmapID:452958
BeatmapSetID:190182

[Difficulty]
HPDrainRate:6
CircleSize:4
OverallDifficulty:6
ApproachRate:5
SliderMultiplier:1.4
SliderTickRate:1

[Events]
//Background and Video events
Video,0,"distance_mv.avi"
0,0,"distance_bgbg.jpg",0,0
//Break Periods
//Storyboard Layer 0 (Background)
//Storyboard Layer 1 (Fail)
//Storyboard Layer 2 (Pass)
//Storyboard Layer 3 (Foreground)
//Storyboard Sound Samples
//Background Colour Transformations
3,100,163,162,255

[TimingPoints]
897,461.538461538462,4,2,1,25,1,0
56281,-100,4,1,0,25,0,0
61820,-100,4,2,2,30,0,1
64531,-100,4,2,0,30,0,1
64647,-100,4,2,2,30,0,1
71916,-100,4,2,0,30,0,1
72031,-100,4,2,2,30,0,1
75435,-100,4,2,2,30,0,0
76589,-100,4,2,2,30,0,1
79300,-100,4,2,0,30,0,1
79416,-100,4,2,2,30,0,1
86685,-100,4,2,0,30,0,1
86800,-100,4,2,2,30,0,1
91358,-100,4,2,0,25,0,0
106127,500,4,2,0,25,1,0
106627,480,4,2,0,25,1,0
107107,468.75,4,2,0,25,1,0
107458,555.555555555556,4,2,0,25,1,0
107735,600,4,2,0,25,1,0
108035,750,4,2,0,25,1,0
108410,800,4,2,0,25,1,0
108810,1090.90909090909,4,2,0,25,1,0
109355,1558.44155844156,4,2,0,25,1,0

[HitObjects]
192,192,897,5,0,0:0:0:0:
448,192,1589,1,0,0:0:0:0:
64,192,2050,1,0,0:0:0:0:
320,192,2512,1,2,0:0:0:0:
192,192,3666,1,0,0:0:0:0:
320,192,3897,1,0,0:0:0:0:
448,192,4127,1,2,0:0:0:0:
64,192,4589,1,0,0:0:0:0:
320,192,5050,1,0,0:0:0:0:
64,192,5281,1,0,0:0:0:0:
320,192,5743,1,2,0:0:0:0:
448,192,6204,1,0,0:0:0:0:
448,192,7358,1,0,0:0:0:0:
320,192,7820,1,2,0:0:0:0:
192,192,8281,1,0,0:0:0:0:
192,192,8973,1,0,0:0:0:0:
448,192,9435,1,2,0:0:0:0:
448,192,9897,1,2,0:0:0:0:
64,192,10589,1,0,0:0:0:0:
192,192,11050,1,2,0:0:0:0:
320,192,11512,1,0,0:0:0:0:
448,192,11973,1,0,0:0:0:0:
320,192,12666,1,2,0:0:0:0:
64,192,13358,1,0,0:0:0:0:
192,192,13820,1,2,0:0:0:0:
320,192,15666,1,0,0:0:0:0:
448,192,16127,1,2,0:0:0:0:
192,192,16589,1,0,0:0:0:0:
64,192,17050,1,2,0:0:0:0:
448,192,17512,1,0,0:0:0:0:
448,192,17973,1,0,0:0:0:0:
64,192,18435,1,0,0:0:0:0:
64,192,18897,1,0,0:0:0:0:
448,192,19358,1,0,0:0:0:0:
320,192,19820,1,2,0:0:0:0:
64,192,20281,1,0,0:0:0:0:
192,192,20743,1,2,0:0:0:0:
320,192,21204,1,0,0:0:0:0:
448,192,21897,1,0,0:0:0:0:
64,192,22127,1,0,0:0:0:0:
320,192,23050,1,0,0:0:0:0:
192,192,23512,1,2,0:0:0:0:
448,192,23973,1,0,0:0:0:0:
64,192,24435,1,2,0:0:0:0:
320,192,24897,1,0,0:0:0:0:
448,192,25358,1,0,0:0:0:0:
64,192,25589,1,0,0:0:0:0:
192,192,25820,1,0,0:0:0:0:
448,192,26743,1,0,0:0:0:0:
320,192,27204,1,2,0:0:0:0:
192,192,27666,1,0,0:0:0:0:
64,192,28127,1,2,0:0:0:0:
192,192,28589,1,0,0:0:0:0:
320,192,29050,1,0,0:0:0:0:
448,192,29512,128,0,30435:0:0:0:0:
320,192,30435,1,0,0:0:0:0:
64,192,30897,1,2,0:0:0:0:
320,192,31358,1,0,0:0:0:0:
64,192,31820,1,2,0:0:0:0:
448,192,32281,1,0,0:0:0:0:
320,192,32743,1,0,0:0:0:0:
64,192,33204,1,0,0:0:0:0:
192,192,33666,1,0,0:0:0:0:
448,192,34127,1,0,0:0:0:0:
192,192,34589,1,2,0:0:0:0:
320,192,35050,1,0,0:0:0:0:
64,192,35512,1,2,0:0:0:0:
448,192,35973,1,0,0:0:0:0:
64,192,36666,1,0,0:0:0:0:
192,192,36897,1,0,0:0:0:0:
192,192,37820,1,0,0:0:0:0:
320,192,38281,1,2,0:0:0:0:
64,192,38743,1,0,0:0:0:0:
448,192,39204,1,2,0:0:0:0:
64,192,39666,1,0,0:0:0:0:
192,192,40127,1,0,0:0:0:0:
320,192,40589,1,0,0:0:0:0:
320,192,41512,1,0,0:0:0:0:
192,192,41973,1,2,0:0:0:0:
448,192,42435,1,0,0:0:0:0:
64,192,42897,1,2,0:0:0:0:
320,192,43358,1,0,0:0:0:0:
192,192,43820,1,0,0:0:0:0:
64,192,44281,128,0,45204:0:0:0:0:
320,192,45204,1,0,0:0:0:0:
320,192,46589,1,2,0:0:0:0:
192,192,47050,1,0,0:0:0:0:
448,192,47973,1,2,0:0:0:0:
320,192,48435,1,0,0:0:0:0:
64,192,48897,1,0,0:0:0:0:
192,192,50281,1,0,0:0:0:0:
320,192,50743,1,2,0:0:0:0:
448,192,51666,1,2,0:0:0:0:
64,192,52589,128,0,54435:0:0:0:0:
320,192,54435,128,0,55358:0:0:0:0:
448,192,55358,1,2,0:0:0:0:
192,192,56281,1,0,0:0:0:0:
320,192,56589,1,0,0:0:0:0:
192,192,56897,1,0,0:0:0:0:
320,192,57204,1,0,0:0:0:0:
64,192,57512,1,8,0:3:0:0:
448,192,57820,1,4,0:3:0:0:
192,192,58127,128,0,58589:0:0:0:0:
320,192,58820,1,0,2:0:0:0:
448,192,59050,128,0,59973:2:0:0:0:
64,192,59973,1,0,0:0:0:0:
320,192,60897,1,0,0:0:0:0:
448,192,61820,1,4,0:1:0:0:
192,192,62281,1,2,0:0:0:0:
448,192,62743,1,0,0:0:0:0:
192,192,63204,1,2,0:0:0:0:
320,192,63666,1,0,0:0:0:0:
64,192,64127,1,2,0:0:0:0:
320,192,64589,1,2,0:0:0:0:
64,192,65050,1,2,0:0:0:0:
448,192,65512,1,0,0:0:0:0:
64,192,65973,1,2,0:0:0:0:
448,192,66435,1,0,0:0:0:0:
64,192,66897,1,2,0:0:0:0:
320,192,67358,128,0,67820:0:0:0:0:
448,192,67820,1,2,0:0:0:0:
192,192,68281,128,0,68743:0:0:0:0:
64,192,68743,1,2,0:0:0:0:
448,192,69204,1,4,0:1:0:0:
320,192,69666,1,2,0:0:0:0:
448,192,70127,1,0,0:0:0:0:
320,192,70589,1,2,0:0:0:0:
64,192,71050,1,0,0:0:0:0:
192,192,71512,1,2,0:0:0:0:
64,192,71973,1,2,0:0:0:0:
192,192,72435,1,2,0:0:0:0:
448,192,72897,128,0,73589:0:0:0:0:
320,192,73589,1,0,0:0:0:0:
192,192,74281,1,2,0:0:0:0:
64,192,74743,128,0,75435:0:0:0:0:
448,192,75435,1,0,0:0:0:0:
320,192,76127,1,2,0:0:0:0:
192,192,76589,1,4,0:1:0:0:
320,192,77050,1,2,0:0:0:0:
192,192,77512,1,0,0:0:0:0:
320,192,77973,1,2,0:0:0:0:
64,192,78435,1,0,0:0:0:0:
448,192,78897,1,2,0:0:0:0:
64,192,79358,1,2,0:0:0:0:
448,192,79820,1,2,0:0:0:0:
192,192,80281,1,0,0:0:0:0:
320,192,80743,1,2,0:0:0:0:
448,192,81204,1,0,0:0:0:0:
320,192,81666,1,2,0:0:0:0:
192,192,82127,128,0,82589:0:0:0:0:
64,192,82589,1,2,0:0:0:0:
320,192,83050,128,0,83512:0:0:0:0:
448,192,83512,1,2,0:0:0:0:
192,192,83973,1,0,0:0:0:0:
64,192,84435,1,2,0:0:0:0:
320,192,84897,1,0,0:0:0:0:
448,192,85358,1,2,0:0:0:0:
192,192,85820,1,0,0:0:0:0:
320,192,86281,1,2,0:0:0:0:
64,192,86743,1,2,0:0:0:0:
192,192,87204,1,2,0:0:0:0:
64,192,87666,128,0,88358:0:0:0:0:
192,192,88358,1,0,0:0:0:0:
448,192,89050,128,0,91358:0:0:0:0:
320,192,91358,1,4,0:1:0:0:
320,192,92050,1,0,0:0:0:0:
192,192,92512,1,0,0:0:0:0:
64,192,92973,1,2,0:0:0:0:
64,192,94127,1,0,0:0:0:0:
192,192,94358,1,0,0:0:0:0:
320,192,94589,1,2,0:0:0:0:
448,192,95050,1,0,0:0:0:0:
192,192,95512,1,0,0:0:0:0:
448,192,95743,1,0,0:0:0:0:
192,192,96204,1,2,0:0:0:0:
320,192,96666,1,0,0:0:0:0:
64,192,97820,1,0,0:0:0:0:
192,192,98281,1,2,0:0:0:0:
320,192,98743,1,0,0:0:0:0:
320,192,99435,1,0,0:0:0:0:
448,192,99897,1,2,0:0:0:0:
448,192,100358,1,2,0:0:0:0:
320,192,101050,1,0,0:0:0:0:
192,192,101512,1,2,0:0:0:0:
64,192,101973,1,0,0:0:0:0:
448,192,102435,128,0,103127:0:0:0:0:
320,192,103127,1,2,0:0:0:0:
192,192,103820,1,0,0:0:0:0:
64,192,104281,128,2,106127:0:0:0:0:
320,192,106127,1,0,0:0:0:0:
