osu file format v9

[General]
AudioFilename: .mp3
AudioLeadIn: 0
PreviewTime: -1
Countdown: 1
SampleSet: Normal
StackLeniency: 0.7
Mode: 0
LetterboxInBreaks: 1

[Editor]
Bookmarks: 84079
DistanceSpacing: 1.2
BeatDivisor: 4
GridSize: 8

[Metadata]
Title:TAMAYURA
Artist:Sasaki Hirofumi
Creator:val0108
Version:TAMAYURA
Source:GUITARFREAKS
Tags:

[Difficulty]
HPDrainRate:7
CircleSize:4
OverallDifficulty:7
ApproachRate:9
SliderMultiplier:2
SliderTickRate:1

[Events]
//Background and Video events
0,0,"sddfssdfsf.jpg"
//Break Periods
2,73601,83467
//Storyboard Layer 0 (Background)
//Storyboard Layer 1 (Fail)
//Storyboard Layer 2 (Pass)
//Storyboard Layer 3 (Foreground)
//Storyboard Sound Samples
//Background Colour Transformations
3,100,163,162,255

[TimingPoints]
28068,333.333333333333,4,1,0,100,1,0
49401,-100,4,1,0,100,0,1
49484,-100,4,1,0,100,0,0
70734,-200,4,1,0,100,0,0
72413,-100,4,1,0,100,0,0
110829,-100,4,2,0,5,0,0

[HitObjects]
176,112,28067,1,0
288,72,28234,1,0
272,192,28401,1,0
288,72,28567,1,0
288,72,28651,1,0
288,72,28734,1,0
176,112,28901,1,0
56,112,29067,1,0
32,168,29151,1,0
56,224,29234,1,0
256,304,29401,5,0
136,304,29567,1,0
136,248,29651,1,0
176,208,29734,1,0
368,304,29901,6,0,B|472:304,1,100,0|0
232,360,30234,2,0,B|232:248,1,100
168,256,30484,1,0
104,256,30567,2,0,B|104:152,1,100
200,32,30901,5,0
200,32,31067,1,0
72,160,31234,1,0
72,160,31317,1,0
72,160,31401,1,0
248,200,31567,1,0
248,200,31651,1,0
248,200,31734,1,0
408,288,31901,1,0
288,296,32067,5,0
168,304,32234,1,0
112,336,32317,1,0
88,280,32401,1,0
136,168,32567,1,0
184,136,32651,1,0
64,120,32817,1,0
24,80,32901,1,0
136,32,33067,1,0
192,40,33151,1,0
224,88,33234,1,0
280,104,33317,1,0
275,64,33401,6,0,B|283:120|283:120|315:168,1,100
362,179,33651,1,0
420,193,33734,1,0
360,88,33901,1,0
368,352,34067,2,0,B|360:296|360:296|328:248,1,100
288,224,34317,1,0
240,256,34401,2,0,B|104:256,1,100
256,344,34734,5,0
256,48,34901,1,0
256,344,35067,1,0
240,312,35151,1,0
264,280,35234,1,0
288,248,35317,1,0
264,216,35401,1,0
240,184,35484,1,0
240,144,35567,2,0,B|176:64,1,100
128,96,35817,1,0
76,65,35901,6,0,B|204:65,1,100
296,72,36234,1,0
344,40,36317,1,0
400,64,36401,1,0
448,176,36567,1,0
336,208,36734,1,0
400,312,36901,1,0
344,336,36984,1,0
288,320,37068,1,0
184,256,37234,1,0
80,192,37401,5,0
56,72,37568,1,0
56,72,37651,1,0
56,72,37734,1,0
80,192,37901,1,0
152,96,38068,1,0
200,56,38151,1,0
256,48,38234,1,0
216,160,38401,1,0
264,120,38484,1,0
328,112,38568,1,0
376,152,38651,1,0
408,200,38734,6,0,B|296:200,1,100
264,240,38984,1,0
216,272,39068,2,0,B|152:280|104:256,1,100
384,320,39401,1,0
472,240,39568,1,0
464,184,39651,1,0
416,152,39734,5,0
40,160,39901,2,0,B|96:136|176:128,1,100
240,80,40234,5,0
232,352,40401,1,0
336,112,40568,1,0
144,304,40734,1,0
384,208,40901,1,0
400,264,40984,1,0
368,312,41068,2,0,B|336:352,3,50
328,288,41401,6,0,B|240:256|208:208,1,100
179,241,41651,1,0
119,241,41734,2,0,B|63:193|63:137,1,100
240,244,42068,6,0,B|328:212|360:164,1,100
389,197,42318,1,0
449,197,42401,2,0,B|505:149|505:93,1,100
400,48,42734,5,0
280,48,42901,1,0
304,104,42984,1,0
296,168,43068,1,0
184,128,43234,1,0
272,208,43401,1,0
272,208,43484,1,0
272,208,43568,1,0
272,208,43651,1,0
272,208,43734,1,0
272,208,43818,1,0
272,208,43901,1,0
272,208,43984,1,0
272,208,44068,6,0,B|289:262|289:262|256:328,1,100
208,296,44318,1,0
152,304,44401,2,0,B|128:256|128:256|152:208,1,100
208,200,44651,1,0
240,152,44734,2,0,B|256:104|256:104|240:48,1,100
184,56,44984,1,0
128,72,45068,1,0
48,272,45234,6,0,B|120:192|232:176,1,200
420,177,45734,1,0
324,89,45901,1,0
324,273,46068,1,0
420,178,46234,1,0
455,178,46318,1,0
489,178,46401,2,0,B|420:250|292:218,1,200
160,208,46901,5,0
240,296,47068,1,0
240,296,47234,1,0
72,176,47401,1,0
72,176,47568,2,0,B|168:232|272:160,1,200
296,56,48068,5,0
208,56,48234,1,0
384,40,48401,1,0
128,32,48568,1,0
256,72,48734,6,0,B|256:128,1,50
256,122,48901,2,0,B|256:192,1,50
256,172,49068,2,0,B|256:248,1,50
256,222,49234,2,0,B|256:288,1,50
256,272,49401,5,0
256,272,49484,1,0
256,272,49568,1,0
136,264,49734,1,0
64,168,49901,1,0
184,168,50068,2,0,B|240:208|240:208|296:208,1,100
328,192,50318,1,0
384,208,50401,1,0
416,96,50568,1,0
304,56,50734,5,0
192,104,50901,1,0
144,136,50984,1,0
123,192,51068,2,0,B|91:227|91:227|67:288|67:288,1,100
128,296,51318,1,0
120,352,51401,2,0,B|170:345|170:345|232:368,1,100
272,344,51651,1,0
328,312,51734,1,0
376,104,51901,6,0,B|208:248,1,200
104,208,52401,1,0
208,152,52568,1,0
96,104,52734,1,0
16,200,52901,1,0
24,256,52984,1,0
40,312,53068,1,0
152,272,53234,1,0
272,240,53401,5,0
392,248,53568,1,0
400,192,53651,1,0
368,144,53734,1,0
488,136,53901,1,0
488,80,53984,1,0
368,88,54151,1,0
352,32,54234,1,0
252,99,54401,1,0
252,99,54484,1,0
252,99,54568,1,0
252,99,54651,1,0
252,99,54734,6,0,B|172:67|108:67,1,100
104,96,54984,1,0
48,64,55068,1,0
88,208,55234,1,0
184,136,55401,1,0
240,152,55484,1,0
296,176,55568,1,0
416,64,55734,5,0
416,184,55901,1,0
256,304,56068,1,0
376,288,56234,1,0
256,272,56401,1,0
256,272,56484,1,0
256,272,56568,1,0
256,272,56651,1,0
256,272,56734,1,0
136,280,56901,5,0
208,32,57068,1,0
416,168,57234,1,0
67,124,57401,6,0,B|128:168|184:168,1,100
108,366,57734,2,0,B|163:378|232:328,1,100
457,286,58068,2,0,B|400:240|336:232,1,100
417,44,58401,2,0,B|361:32|304:72,1,100
256,192,58734,12,0,59734
88,128,60068,5,0
192,72,60234,1,0
304,112,60401,1,0
416,72,60568,1,0
424,192,60734,2,0,B|456:248,1,50
408,328,60901,2,0,B|440:289,1,50
456,264,61068,1,0
456,264,61151,1,0
456,264,61234,1,0
336,248,61401,5,0
264,344,61568,1,0
160,280,61734,1,0
232,184,61901,1,0
208,64,62068,1,0
96,112,62234,5,0
56,160,62318,1,0
48,216,62401,1,0
72,272,62484,1,0
120,312,62568,1,0
168,344,62651,1,0
224,344,62734,6,0,B|280:304|280:304|264:272,1,100
80,200,63068,2,0,B|24:160|24:160|40:128,1,100
296,72,63401,2,0,B|352:32|352:32|336:0,1,100
440,216,63734,2,0,B|496:256|496:256|480:288,1,100
248,296,64068,5,0
96,176,64234,1,0
256,80,64401,1,0
392,192,64568,1,0
248,184,64734,5,0
248,184,64818,1,0
248,184,64901,1,0
248,184,64984,1,0
248,184,65068,1,0
248,184,65151,1,0
248,184,65234,1,0
248,184,65318,1,0
248,184,65401,2,0,B|248:296,1,100
152,352,65734,5,0
328,304,65901,1,0
152,264,66068,1,0
328,216,66234,1,0
152,168,66401,1,0
152,168,66484,1,0
152,168,66568,1,0
328,32,66734,5,0
152,80,66901,1,0
328,120,67068,1,0
152,168,67234,1,0
328,216,67401,1,0
328,216,67484,1,0
328,216,67568,1,0
328,216,67651,1,0
328,216,67734,1,0
96,112,68068,6,0,B|40:16,1,100
96,320,68401,2,0,B|32:216,1,100
240,112,68734,2,0,B|176:16,1,100
240,320,69068,2,0,B|176:208,1,100
24,152,69401,5,0
144,128,69568,1,0
256,160,69734,1,0
376,128,69901,1,0
488,200,70068,1,0
488,200,70151,1,0
488,200,70234,1,0
488,200,70318,1,0
488,200,70401,1,0
488,200,70484,1,0
488,200,70568,1,0
488,200,70651,1,0
488,200,70734,6,0,B|488:352,1,150
424,352,71401,2,0,B|424:192,1,150
360,200,72068,2,0,B|360:312,1,100
360,328,72484,1,0
360,360,72568,1,0
336,376,72651,1,0
304,384,72734,1,0
280,368,72818,1,0
264,344,72901,1,0
256,312,72984,1,0
256,280,73068,2,0,B|256:216,4,50
256,104,84067,5,0
256,288,84317,1,0
256,104,84567,1,0
256,288,84817,1,0
176,128,85067,5,0
320,232,85234,1,0
320,232,85317,1,0
320,232,85401,1,0
320,232,85484,1,0
200,232,85651,5,0
144,264,85734,1,0
104,152,85901,1,0
56,120,85984,1,0
168,72,86151,1,0
200,24,86234,1,0
256,128,86401,1,0
312,144,86484,1,0
368,160,86567,1,0
416,200,86651,1,0
456,240,86734,6,0,B|471:294|456:368,2,100
336,208,87234,1,0
216,184,87401,2,0,B|144:160|112:128,1,100
224,72,87734,1,0
344,80,87901,1,0
328,336,88067,1,0
208,320,88234,1,0
88,328,88401,2,0,B|88:228,2,100
176,248,88901,1,0
176,248,89067,1,0
272,176,89234,1,0
272,176,89401,1,0
360,272,89567,6,0,B|408:320,2,50
360,88,89901,2,0,B|360:24,2,50
176,88,90234,2,0,B|120:48,2,50
168,272,90567,1,0
112,168,90734,5,0
72,280,90901,1,0
240,336,91067,1,0
280,224,91234,1,0
384,160,91401,1,0
384,160,91484,1,0
384,160,91567,1,0
384,160,91651,1,0
384,160,91734,1,0
384,160,91817,1,0
384,160,91901,1,0
384,160,91984,1,0
384,160,92067,6,0,B|256:160,2,100
368,40,92567,1,0
368,288,92734,2,0,B|264:288,1,100
168,216,93067,1,0
152,96,93234,1,0
272,64,93401,1,0
296,184,93567,1,0
232,288,93734,2,0,B|96:288,2,100
344,328,94234,5,0
440,264,94401,1,0
432,144,94567,1,0
376,40,94734,1,0
72,272,95067,5,0
88,152,95234,1,0
152,48,95401,1,0
256,304,95734,5,0
256,184,95901,1,0
256,64,96067,1,0
256,64,96234,1,0
168,144,96401,1,0
168,144,96567,1,0
344,144,96734,1,0
344,144,96901,1,0
256,232,97067,2,0,B|256:288,3,50
256,304,97401,5,0
248,320,97484,1,0
232,328,97567,1,0
216,336,97651,1,0
200,336,97734,1,0
184,336,97817,1,0
168,336,97901,1,0
152,328,97984,1,0
136,320,98067,1,0
120,312,98151,1,0
112,304,98234,1,0
104,288,98317,1,0
96,272,98401,1,0
96,256,98484,1,0
96,240,98567,1,0
104,224,98651,1,0
120,224,98734,5,0
136,224,98817,1,0
152,232,98901,1,0
168,240,98984,1,0
184,232,99067,1,0
192,224,99151,1,0
192,208,99234,1,0
192,192,99317,1,0
192,176,99401,1,0
192,160,99484,1,0
192,144,99567,1,0
184,128,99651,1,0
168,120,99734,1,0
152,120,99817,1,0
136,120,99901,1,0
120,128,99984,1,0
112,136,100067,5,0
104,152,100151,1,0
112,168,100234,1,0
120,176,100317,1,0
136,184,100401,1,0
152,192,100484,1,0
168,200,100567,1,0
192,208,100651,1,0
208,208,100734,6,0,B|240:104|296:312|384:168,1,200
368,190,101234,1,0
368,190,101401,2,0,B|376:96|472:96|480:200,1,200
480,320,101901,1,0
360,320,102067,1,0
240,320,102234,1,0
120,320,102401,1,0
120,320,102567,1,0
120,320,102734,5,0
120,304,102817,1,0
120,288,102901,1,0
120,272,102984,1,0
120,256,103067,1,0
120,240,103151,1,0
120,224,103234,1,0
120,208,103317,1,0
120,192,103401,1,0
120,176,103484,1,0
120,160,103567,1,0
120,144,103651,1,0
120,128,103734,2,0,B|120:72,3,50
128,64,104067,5,0
144,56,104151,1,0
160,48,104234,1,0
176,48,104317,1,0
192,56,104401,1,0
200,64,104484,1,0
216,72,104567,1,0
232,80,104651,1,0
248,80,104734,1,0
264,72,104817,1,0
280,64,104901,1,0
296,56,104984,1,0
312,56,105067,2,0,B|384:56,3,50
368,72,105401,6,0,B|440:168,1,100
352,240,105734,2,0,B|288:152,1,100
176,144,106067,2,0,B|248:248,1,100
176,336,106401,2,0,B|104:240,1,100
256,192,106734,12,0,110901
