osu file format v9

[General]
AudioFilename: .mp3
AudioLeadIn: 0
PreviewTime: -1
Countdown: 1
SampleSet: Normal
StackLeniency: 0.7
Mode: 0
LetterboxInBreaks: 1

[Editor]
Bookmarks: 84079
DistanceSpacing: 1
BeatDivisor: 2
GridSize: 8

[Metadata]
Title:TAMAYURA
Artist:Sasaki Hirofumi
Creator:val0108
Version:Normal
Source:GUITARFREAKS
Tags:

[Difficulty]
HPDrainRate:3
CircleSize:3
OverallDifficulty:1
ApproachRate:3
SliderMultiplier:1.00000000596046
SliderTickRate:1

[Events]
//Background and Video events
0,0,"sddfssdfsf.jpg"
//Break Periods
2,73599,82625
//Storyboard Layer 0 (Background)
//Storyboard Layer 1 (Fail)
//Storyboard Layer 2 (Pass)
//Storyboard Layer 3 (Foreground)
//Storyboard Sound Samples
//Background Colour Transformations
3,100,163,162,255

[TimingPoints]
28066,333.333333333333,4,1,0,100,1,0
49399,-100,4,1,0,100,0,1
49566,-100,4,1,0,100,0,0
110829,-100,4,2,0,5,0,0

[HitObjects]
264,176,28066,2,0,B|200:128|112:120,2,150.000000894069
264,272,29399,1,0
264,272,29732,1,0
168,296,30066,1,0
168,296,30399,1,0
96,224,30732,6,0,B|256:176|416:184,1,300.000001788138
496,184,32066,2,0,B|480:104|368:24|224:32,1,300.000001788138
176,80,33399,6,0,B|248:144|376:144,1,200.000001192092
360,240,34399,1,0
280,296,34732,2,0,B|144:304,1,100.000000596046
104,232,35399,2,0,B|240:224,2,100.000000596046
48,152,36399,6,0,B|48:48,2,100.000000596046
152,152,37399,1,0
328,56,38066,2,0,B|328:176,1,100.000000596046
328,256,38732,5,0
128,256,39399,1,0
328,256,40066,1,0
328,256,40399,1,0
424,256,40732,1,0
424,256,41066,1,0
432,160,41399,6,0,B|304:168|112:80,1,300.000001788138
96,184,42732,2,0,B|248:256|416:256,1,300.000001788138
384,152,44066,6,0,B|384:48,3,100.000000596046
283,52,45399,2,0,B|283:172,3,100.000000596046
184,152,46732,5,0
256,344,47399,1,0
320,152,48066,1,0
320,152,48399,1,0
256,72,48732,1,0
256,72,49066,1,0
160,72,49399,6,0,B|224:208|384:280,1,300.000001788138
296,344,50732,2,0,B|248:304|200:304,1,100.000000596046
112,280,51399,2,0,B|136:232|192:216,2,100.000000596046
56,192,52399,5,0
104,104,52732,1,0
200,88,53066,1,0
296,88,53399,2,0,B|408:88,1,100.000000596046
432,184,54066,2,0,B|320:184,1,100.000000596046
312,280,54732,6,0,B|400:280|400:280|432:296|432:344|400:352|400:352|280:352,1,300.000001788138
176,352,56066,2,0,B|88:352|88:352|56:336|56:288|88:280|88:280|208:280,1,300.000001788138
256,192,57399,12,0,59399
128,64,60066,5,0
128,64,60399,1,0
64,136,60732,1,0
64,136,61066,1,0
64,232,61399,2,0,B|64:344,2,100.000000596046
216,96,62732,6,0,B|320:184|416:200,1,200.000001192092
392,296,63732,1,0
480,248,64066,2,0,B|480:120,1,100.000000596046
384,136,64732,2,0,B|384:16,1,100.000000596046
480,48,65399,6,0,B|304:88|184:176,1,300.000001788138
216,264,66732,2,0,B|104:280|48:120|176:56,1,300.000001788138
256,192,68066,12,0,70066
256,32,70732,6,0,B|264:152,1,100.000000596046
240,232,71399,2,0,B|232:344,1,100.000000596046
336,344,72066,2,0,B|456:336|480:184|440:64|328:64,1,400.000002384184
256,192,84065,12,0,86399
216,176,86732,6,0,B|184:240|104:264,1,100.000000596046
64,184,87399,2,0,B|64:120,2,50.000000298023
64,280,88065,2,0,B|88:352|160:344,1,100.000000596046
208,272,88732,2,0,B|312:272,1,100.000000596046
384,336,89399,6,0,B|448:232|384:184|312:168|312:168|232:168,1,300.000001788138
168,96,90732,1,0
168,96,91065,1,0
248,40,91399,1,0
248,40,91732,1,0
328,96,92065,6,0,B|472:96,1,100.000000596046
432,200,92732,2,0,B|432:264,2,50.000000298023
336,184,93399,2,0,B|296:304,1,100.000000596046
240,200,94065,2,0,B|144:264,1,100.000000596046
80,192,94732,5,0
80,96,95065,1,0
160,152,95399,1,0
160,56,95732,1,0
248,104,96065,5,0
248,104,96399,1,0
344,104,96732,1,0
344,104,97065,1,0
408,184,97399,6,0,B|216:184,2,150.000000894069
352,264,98732,2,0,B|408:336|480:344,2,150.000000894069
256,304,100065,2,0,B|168:232,1,100.000000596046
136,152,100732,2,0,B|93:172|48:248,1,100.000000596046
88,320,101399,1,0
88,320,101732,1,0
184,352,102065,1,0
184,352,102399,1,0
256,280,102732,6,0,B|224:224|288:192|256:112,2,150.000000894069
344,232,104065,2,0,B|368:168|448:184|456:88,2,150.000000894069
320,136,105399,5,0
304,40,105732,1,0
208,40,106065,1,0
184,136,106399,1,0
256,192,106732,12,0,110899
