osu file format v9

[General]
AudioFilename: .mp3
AudioLeadIn: 0
PreviewTime: -1
Countdown: 1
SampleSet: Normal
StackLeniency: 0.7
Mode: 0
LetterboxInBreaks: 1

[Editor]
Bookmarks: 84079
DistanceSpacing: 1.5
BeatDivisor: 4
GridSize: 8

[Metadata]
Title:TAMAYURA
Artist:Sasaki Hirofumi
Creator:val0108
Version:Insane
Source:GUITARFREAKS
Tags:

[Difficulty]
HPDrainRate:6
CircleSize:4
OverallDifficulty:6
ApproachRate:8
SliderMultiplier:2
SliderTickRate:1

[Events]
//Background and Video events
0,0,"sddfssdfsf.jpg"
//Break Periods
2,73599,83315
//Storyboard Layer 0 (Background)
//Storyboard Layer 1 (Fail)
//Storyboard Layer 2 (Pass)
//Storyboard Layer 3 (Foreground)
//Storyboard Sound Samples
//Background Colour Transformations
3,100,163,162,255

[TimingPoints]
28066,333.333333333333,4,1,0,100,1,0
49399,-100,4,1,0,100,0,1
49482,-100,4,1,0,100,0,0
70732,-200,4,1,0,100,0,0
72399,-100,4,1,0,100,0,0
110829,-100,4,2,0,5,0,0

[HitObjects]
208,144,28066,1,0
256,56,28232,1,0
336,120,28399,1,0
288,208,28566,1,0
384,224,28732,1,0
384,224,28816,1,0
384,224,28899,1,0
336,336,29066,5,0
256,280,29232,1,0
160,312,29399,1,0
80,256,29566,1,0
48,160,29732,2,0,B|112:200|168:208,1,100
160,200,29982,1,0
184,200,30066,1,0
152,96,30232,6,0,B|192:56|232:136,1,100
360,96,30566,2,0,B|320:56|280:136,1,100
312,224,30899,1,0
408,264,31066,1,0
392,168,31232,1,0
312,224,31399,1,0
328,320,31566,1,0
328,320,31649,1,0
328,320,31732,1,0
232,280,31899,1,0
128,288,32066,6,0,B|128:168,1,100
224,160,32399,2,0,B|224:40,1,100
328,56,32732,1,0
328,80,32816,1,0
328,104,32899,1,0
328,128,32982,1,0
328,152,33066,1,0
336,176,33149,1,0
352,200,33232,1,0
368,216,33316,1,0
392,224,33399,6,0,B|280:224,2,100
464,152,33899,1,0
472,256,34066,2,0,B|352:256,1,100
280,304,34399,1,0
280,304,34566,1,0
232,216,34732,1,0
128,216,34899,1,0
72,304,35066,2,0,B|72:192,1,100
72,176,35316,1,0
72,152,35399,1,0
136,72,35566,6,0,B|136:184,1,100
200,360,35899,2,0,B|200:232,1,100
264,72,36232,1,0
304,160,36399,1,0
400,136,36566,1,0
264,312,36732,1,0
304,224,36899,1,0
400,248,37066,1,0
368,344,37232,1,0
264,312,37399,5,0
176,272,37566,2,0,B|112:256,2,50
200,176,37899,1,0
136,96,38066,1,0
136,96,38149,1,0
136,96,38232,1,0
80,176,38399,1,0
80,200,38482,1,0
80,224,38566,1,0
80,248,38649,1,0
80,272,38732,6,0,B|120:320|160:328,1,100
184,328,38982,1,0
208,328,39066,1,0
256,240,39232,1,0
304,328,39399,2,0,B|424:328,1,100
408,224,39732,5,0
224,144,39899,2,0,B|352:176|432:168,1,200
376,80,40399,1,0
224,144,40566,1,0
72,80,40732,1,0
248,168,40899,1,0
248,168,40982,1,0
248,168,41066,1,0
248,168,41149,1,0
248,168,41232,1,0
248,168,41316,1,0
248,168,41399,6,0,B|128:192,1,100
8,328,41732,2,0,B|136:304,1,100
288,240,42066,2,0,B|408:216,1,100
464,40,42399,2,0,B|336:64,1,100
192,48,42732,5,0
272,104,42899,1,0
288,200,43066,1,0
216,272,43232,1,0
120,296,43399,1,0
120,296,43482,1,0
120,296,43566,1,0
120,296,43649,1,0
120,296,43732,1,0
120,296,43816,1,0
120,296,43899,1,0
120,296,43982,1,0
120,296,44066,6,0,B|120:168,1,100
120,96,44399,1,0
120,196,44566,1,0
192,128,44732,2,0,B|272:144|416:72,1,200
192,128,45232,2,0,B|280:328,1,200
368,344,45732,1,0
368,240,45899,1,0
176,280,46066,2,0,B|360:176,1,200
144,64,46732,6,0,B|32:64,1,100
192,200,47066,2,0,B|48:200,1,100
280,128,47399,2,0,B|152:128,1,100
328,264,47732,2,0,B|216:264,1,100
48,320,48066,5,0
144,288,48232,1,0
240,312,48399,1,0
336,296,48566,1,0
432,328,48732,1,0
432,304,48816,1,0
432,280,48899,1,0
432,256,48982,1,0
432,232,49066,1,0
432,208,49149,1,0
432,184,49232,1,0
432,160,49316,1,0
432,136,49399,6,0,B|320:136,2,100
392,40,49899,1,0
392,40,50066,2,0,B|272:40,1,100
224,112,50399,1,0
264,200,50566,1,0
192,264,50732,2,0,B|88:264,1,100
88,64,51066,2,0,B|304:64,1,200
464,184,51566,6,0,B|344:184,1,100
144,312,51899,2,0,B|272:312,1,100
336,280,52232,5,0
336,280,52399,1,0
248,232,52566,1,0
248,232,52732,1,0
152,224,52899,1,0
152,224,52982,1,0
152,224,53066,1,0
72,168,53232,1,0
64,264,53399,5,0
64,72,53566,2,0,B|64:16,2,50
152,112,53899,1,0
152,112,53982,1,0
248,136,54149,1,0
248,136,54232,1,0
344,96,54399,1,0
344,96,54482,1,0
344,96,54566,1,0
344,96,54649,1,0
344,96,54732,6,0,B|344:208,2,100
416,24,55232,1,0
432,120,55399,2,0,B|432:240,1,100
376,304,55732,1,0
288,256,55899,1,0
376,304,56066,1,0
288,256,56232,1,0
208,312,56399,2,0,B|96:272|32:200,1,200
104,128,56899,2,0,B|104:16,2,100
152,352,57399,6,0,B|152:232,1,100
312,160,57732,2,0,B|312:40,1,100
240,272,58066,2,0,B|240:152,1,100
392,104,58399,2,0,B|392:-24,1,100
256,192,58732,12,0,59732
112,136,60066,5,0
200,184,60232,1,0
240,88,60399,1,0
152,40,60566,1,0
64,80,60732,2,0,B|32:192,1,100
69,271,61066,1,0
85,287,61149,1,0
101,303,61232,1,0
125,319,61316,1,0
144,336,61399,5,0
208,200,61566,1,0
256,352,61732,1,0
320,216,61899,1,0
360,360,62066,1,0
368,336,62149,1,0
376,312,62232,1,0
384,288,62316,1,0
392,264,62399,2,0,B|416:208,3,50
408,192,62732,6,0,B|336:112,1,100
240,128,63066,2,0,B|160:32,1,100
288,304,63399,2,0,B|216:224,1,100
120,240,63733,2,0,B|40:144,1,100
56,64,64066,5,0
56,64,64232,1,0
56,264,64399,1,0
56,264,64566,1,0
88,168,64732,1,0
112,168,64816,1,0
136,168,64899,1,0
160,168,64982,1,0
184,168,65066,1,0
208,168,65149,1,0
232,168,65232,1,0
256,168,65316,1,0
280,168,65399,6,0,B|392:168,1,100
440,88,65732,2,0,B|336:88,1,100
344,248,66066,1,0
440,248,66232,1,0
440,352,66399,2,0,B|336:352,1,100
248,312,66732,5,0
192,232,66899,1,0
96,248,67066,1,0
32,168,67232,1,0
80,80,67399,2,0,B|184:72|296:104,1,200
296,112,67816,1,0
320,128,67899,1,0
336,144,67982,1,0
344,168,68066,6,0,B|344:280,1,100
152,216,68399,2,0,B|152:336,1,100
232,40,68732,2,0,B|232:152,1,100
40,88,69065,2,0,B|40:208,1,100
144,96,69399,5,0
232,216,69566,1,0
336,112,69732,1,0
440,224,69899,1,0
296,176,70066,1,0
296,176,70149,1,0
296,176,70232,1,0
296,176,70316,1,0
296,176,70399,1,0
296,176,70482,1,0
296,176,70566,1,0
296,176,70649,1,0
296,176,70732,6,0,B|144:176,1,150
144,224,71399,2,0,B|304:224,1,150
296,272,72066,2,0,B|184:272,1,100
168,272,72482,1,0
144,272,72566,1,0
120,272,72649,1,0
96,272,72732,1,0
72,264,72816,1,0
56,248,72899,1,0
48,224,72982,1,0
48,200,73066,2,0,B|48:144,4,50
256,112,84065,5,0
256,264,84315,1,0
256,112,84565,1,0
256,264,84815,1,0
128,192,85065,5,0
128,88,85232,1,0
104,88,85315,1,0
80,88,85399,1,0
56,88,85482,1,0
64,184,85649,1,0
40,184,85733,1,0
96,264,85899,1,0
72,264,85983,1,0
152,328,86149,1,0
128,328,86233,1,0
224,208,86399,5,0
224,208,86482,1,0
224,208,86565,1,0
224,208,86649,1,0
224,208,86732,6,0,B|224:104,2,100
272,296,87232,1,0
336,216,87399,2,0,B|480:216,1,100
436,115,87732,1,0
368,40,87899,1,0
312,120,88065,2,0,B|312:256,1,100
152,312,88399,2,0,B|152:88,1,200
224,48,88899,5,0
224,48,89065,1,0
264,144,89232,1,0
264,144,89399,1,0
360,168,89565,2,0,B|408:224,2,50
232,296,89899,2,0,B|256:352,2,50
88,192,90232,2,0,B|40:232,2,50
224,80,90565,1,0
128,48,90732,6,0,B|128:168,1,100
304,192,91065,2,0,B|304:328,1,100
216,136,91399,1,0
216,160,91482,1,0
216,184,91565,1,0
216,208,91649,1,0
216,232,91732,1,0
216,256,91815,1,0
216,280,91899,1,0
216,304,91982,1,0
216,328,92065,6,0,B|104:288,2,100
320,328,92565,1,0
312,232,92732,2,0,B|408:184,1,100
464,264,93065,1,0
352,120,93232,1,0
288,40,93399,2,0,B|176:56,1,100
32,144,93732,2,0,B|256:168,1,200
256,264,94232,5,0
168,320,94399,1,0
72,312,94565,1,0
72,208,94732,1,0
256,32,95065,5,0
352,40,95231,1,0
352,144,95398,1,0
256,352,95732,5,0
352,344,95898,1,0
352,240,96065,6,0,B|248:280,1,100
352,144,96399,2,0,B|248:96,1,100
216,192,96732,2,0,B|125:233,1,100
216,192,97065,2,0,B|118:169,1,100
64,88,97399,5,0
88,80,97482,1,0
112,80,97565,1,0
136,80,97649,1,0
160,80,97732,1,0
184,80,97815,1,0
208,80,97899,1,0
232,80,97982,1,0
256,88,98065,1,0
280,88,98149,1,0
304,88,98232,1,0
328,96,98315,1,0
352,104,98399,2,0,B|400:120,3,50
408,144,98732,5,0
408,168,98815,1,0
408,192,98899,1,0
408,216,98982,1,0
408,240,99065,1,0
408,264,99149,1,0
408,288,99232,1,0
392,312,99315,1,0
368,320,99399,2,0,B|304:352,3,50
296,344,99732,2,0,B|232:312,3,50
232,312,100065,5,0
208,304,100149,1,0
184,304,100232,1,0
160,296,100315,1,0
144,280,100399,1,0
136,256,100482,1,0
144,232,100565,1,0
160,216,100649,1,0
184,200,100732,6,0,B|392:200,1,200
312,128,101232,1,0
216,96,101399,2,0,B|16:96,1,200
16,200,101899,1,0
64,288,102065,2,0,B|168:288,1,100
164,288,102399,2,0,B|264:288,1,100
360,312,102732,5,0
384,304,102815,1,0
408,296,102899,1,0
424,272,102982,1,0
432,248,103065,1,0
432,224,103149,1,0
432,200,103232,1,0
432,176,103315,1,0
432,152,103399,1,0
424,128,103482,1,0
408,112,103565,1,0
384,104,103649,1,0
360,104,103732,1,0
336,112,103815,1,0
320,128,103899,1,0
304,144,103982,1,0
288,160,104065,5,0
272,176,104149,1,0
248,184,104232,1,0
224,176,104315,1,0
200,160,104399,1,0
184,144,104482,1,0
168,128,104565,1,0
152,112,104649,1,0
128,112,104732,1,0
112,128,104815,1,0
96,152,104899,1,0
88,176,104982,1,0
88,200,105065,1,0
88,224,105149,1,0
88,248,105232,1,0
88,272,105315,1,0
88,296,105399,6,0,B|192:328,1,100
280,288,105732,2,0,B|176:216,1,100
192,128,106065,2,0,B|312:176,1,100
376,128,106399,2,0,B|280:48,1,100
256,192,106732,12,0,110899
