osu file format v9

[General]
AudioFilename: .mp3
AudioLeadIn: 0
PreviewTime: -1
Countdown: 1
SampleSet: Normal
StackLeniency: 0.7
Mode: 0
LetterboxInBreaks: 1

[Editor]
Bookmarks: 84079
DistanceSpacing: 1
BeatDivisor: 4
GridSize: 8

[Metadata]
Title:TAMAYURA
Artist:Sasaki Hirofumi
Creator:val0108
Version:Hard
Source:GUITARFREAKS
Tags:

[Difficulty]
HPDrainRate:3
CircleSize:4
OverallDifficulty:4
ApproachRate:6
SliderMultiplier:1.50000000596046
SliderTickRate:1

[Events]
//Background and Video events
0,0,"sddfssdfsf.jpg"
//Break Periods
2,73599,83015
//Storyboard Layer 0 (Background)
//Storyboard Layer 1 (Fail)
//Storyboard Layer 2 (Pass)
//Storyboard Layer 3 (Foreground)
//Storyboard Sound Samples
//Background Colour Transformations
3,100,163,162,255

[TimingPoints]
28066,333.333333333333,4,1,0,100,1,0
49399,-100,4,1,0,100,0,1
49482,-100,4,1,0,100,0,0
110829,-100,4,2,0,5,0,0

[HitObjects]
192,88,28065,2,0,B|128:112|104:144,2,75.0000002980232
264,72,28565,1,0
256,144,28732,2,0,B|224:216|160:176|128:248,1,150.000000596046
88,288,29232,1,0
64,360,29399,1,0
136,328,29565,1,0
188,275,29732,2,0,B|292:235|348:243,1,150.000000596046
376,304,30232,2,0,B|432:272|432:208|384:176,1,150.000000596046
272,80,30899,6,0,B|184:56,1,75.0000002980232
152,120,31232,2,0,B|64:104,2,75.0000002980232
224,136,31732,1,0
224,136,31899,1,0
224,208,32065,2,0,B|216:312,1,75.0000002980232
288,256,32399,2,0,B|328:336,1,75.0000002980232
360,256,32732,2,0,B|440:272,1,75.0000002980232
424,200,33065,2,0,B|496:160,1,75.0000002980232
432,120,33399,6,0,B|400:80|344:72,2,75.0000002980232
368,152,33899,1,0
368,152,34065,2,0,B|208:152,1,150.000000596046
176,216,34566,1,0
160,288,34732,2,0,B|216:360,1,75.0000002980232
206,347,35065,2,0,B|56:352|24:208,1,225.000000894069
256,192,35899,12,0,38399
176,104,38732,6,0,B|256:136|336:136,1,150.000000596046
456,200,39399,2,0,B|408:272,2,75.000000298023
112,240,40066,6,0,B|184:304|256:312,1,150.000000596046
280,168,40732,2,0,B|200:120,2,75.000000298023
416,72,41399,6,0,B|416:168,1,75.0000002980232
344,251,41732,2,0,B|344:176,1,75.0000002980232
272,64,42066,2,0,B|272:139,1,75.0000002980232
200,243,42399,2,0,B|200:168,1,75.0000002980232
128,56,42732,2,0,B|128:224,3,150.000000596046
40,256,44066,6,0,B|152:256|152:256|240:200|280:328|336:240,1,300.000001192093
192,328,45066,1,0
264,328,45232,2,0,B|192:216|184:88,1,225.00000089407
336,120,46066,1,0
336,120,46399,1,0
256,192,46732,12,0,49066
216,96,49399,6,0,B|120:104,2,75.0000002980232
288,96,49899,1,0
360,96,50066,2,0,B|416:184|424:264,1,150.000000596046
272,232,50732,2,0,B|168:232,1,75.0000002980232
192,304,51066,2,0,B|264:304|360:344,1,150.000000596046
408,368,51566,6,0,B|352:312|336:216,1,150.000000596046
280,96,52232,1,0
280,96,52399,1,0
224,144,52566,1,0
224,144,52732,1,0
152,144,52899,2,0,B|64:144,2,75.0000002980232
152,216,53399,2,0,B|240:248|320:224,1,150.000000596046
240,88,54066,2,0,B|168:64|80:72,1,150.000000596046
64,216,54732,6,0,B|80:304,2,75.0000002980232
64,144,55232,1,0
120,200,55399,2,0,B|184:224|288:232,1,150.000000596046
344,224,55899,1,0
344,152,56066,2,0,B|432:152,1,75.000000298023
488,176,56399,2,0,B|392:128|288:80|168:88,1,300.000001192092
256,192,57399,12,0,59732
400,312,60066,6,0,B|352:248|272:216,1,150.000000596046
152,288,60732,2,0,B|184:368,2,75.0000002980232
184,144,61399,2,0,B|96:192|80:272,1,150.000000596046
24,208,61899,1,0
56,144,62066,2,0,B|120:80|192:48,1,150.000000596046
408,104,62732,6,0,B|344:192|416:328,1,225.00000089407
456,256,63399,2,0,B|352:200|224:184,1,225.00000089407
192,128,64066,2,0,B|205:92|240:56,1,75.0000002980232
280,128,64399,2,0,B|320:125|352:152,1,75.0000002980232
312,216,64732,2,0,B|264:304|160:304,1,150.000000596046
432,80,65399,6,0,B|344:136|184:80,1,225.00000089407
144,64,66066,1,0
120,136,66232,1,0
64,192,66399,1,0
200,336,66732,6,0,B|304:312,1,75.0000002980232
288,248,67066,2,0,B|208:264,1,75.0000002980232
176,200,67399,2,0,B|352:168,1,150.000000596046
256,40,68066,6,0,B|216:104|304:136|240:208,1,150.000000596046
256,328,68732,2,0,B|216:264|304:232|240:160,1,150.000000596046
104,184,69399,6,0,B|208:184,1,75.0000002980232
256,184,69732,2,0,B|344:184,1,75.0000002980232
408,184,70066,2,0,B|496:184,2,75.000000298023
256,192,70732,12,0,73399
184,120,84065,6,0,B|204:177|264:216,1,112.500000447035
136,200,84565,2,0,B|154:255|224:288,2,112.500000447034
96,136,85232,1,0
136,72,85399,6,0,B|200:48|256:40,1,112.500000447035
336,112,85899,2,0,B|424:144|472:144,2,112.500000447035
336,112,86565,1,0
264,160,86732,6,0,B|344:184|400:280,1,150.000000596046
336,312,87232,1,0
280,264,87399,2,0,B|448:208,1,150.000000596046
440,144,87899,1,0
440,72,88065,2,0,B|352:72,2,75.0000002980232
216,80,88899,6,0,B|128:96,2,75.000000298023
256,144,89399,2,0,B|296:216|248:312,1,150.000000596046
128,216,90065,2,0,B|90:143|130:71,1,150.000000596046
280,56,90732,1,0
280,56,91065,1,0
416,120,91399,2,0,B|416:208,1,75.000000298023
416,195,91732,2,0,B|416:280,1,75.000000298023
344,296,92065,6,0,B|248:224|120:192,1,225.000000894069
142,198,92732,1,0
272,120,93065,1,0
384,224,93399,2,0,B|304:168|160:120,1,225.000000894069
181,127,94065,1,0
328,104,94399,1,0
192,40,94732,6,0,B|176:120|56:144,1,150.000000596046
104,288,95399,2,0,B|168:216|240:192,1,150.000000596046
352,128,96065,1,0
352,128,96399,1,0
352,280,96732,1,0
352,280,97065,1,0
488,192,97399,6,0,B|384:176|240:192,1,225.000000894069
48,112,98399,1,0
64,264,98732,2,0,B|144:176|248:128,1,225.000000894069
464,112,99732,1,0
328,56,100065,5,0
328,56,100399,1,0
200,136,100732,1,0
200,136,101065,1,0
312,240,101399,2,0,B|216:288|152:296,3,150.000000596046
64,184,102732,6,0,B|80:56|216:32,2,225.000000894069
216,168,104065,2,0,B|456:168,2,225.000000894069
104,264,105399,6,0,B|152:232|256:232,1,150.000000596046
392,263,106065,2,0,B|344:231|248:232,1,150.000000596046
256,192,106732,12,0,110899
