osu file format v14

[General]
AudioFilename: Divine Battle.mp3
AudioLeadIn: 0
PreviewTime: 462
Countdown: 0
SampleSet: Soft
StackLeniency: 0.7
Mode: 0
LetterboxInBreaks: 0
WidescreenStoryboard: 0

[Editor]
Bookmarks: 13250,23354,33458,41036,45457,46720,56824,66928,75769,84611
DistanceSpacing: 0.9
BeatDivisor: 2
GridSize: 8
TimelineZoom: 1.5

[Metadata]
Title:Shinsen
TitleUnicode:神戦
Artist:Sasai Ryuji
ArtistUnicode:笹井隆司
Creator:smallboat
Version:Normal
Source:サガ3時空の覇者 Shadow or Light
Tags:bgm boss battle dungeon rpg time nintendo ds game square enix ito kenji devil ghost machine robot sword weapon gear magic legend god saga
BeatmapID:792546
BeatmapSetID:360610

[Difficulty]
HPDrainRate:3.5
CircleSize:3
OverallDifficulty:4.7
ApproachRate:5
SliderMultiplier:1.1
SliderTickRate:1

[Events]
//Background and Video events
0,0,"bg.jpg",0,0
//Break Periods
//Storyboard Layer 0 (Background)
//Storyboard Layer 1 (Fail)
//Storyboard Layer 2 (Pass)
//Storyboard Layer 3 (Foreground)
//Storyboard Sound Samples

[TimingPoints]
620,315.756236185665,4,2,1,70,1,0
620,-100,4,2,1,70,0,0
935,-100,4,2,3,65,0,0
1041,-100,4,2,1,70,0,0
1251,-100,4,2,3,65,0,0
1356,-100,4,2,1,70,0,0
1883,-100,4,2,3,65,0,0
1988,-100,4,2,1,70,0,0
2198,-100,4,2,3,65,0,0
2304,-100,4,2,1,70,0,0
3146,-100,4,2,1,75,0,0
11566,-100,4,2,1,70,0,0
11987,-100,4,2,1,75,0,0
13250,-100,4,2,1,75,0,1
19565,-100,4,2,1,75,0,1
19881,-100,4,2,2,70,0,1
20196,-100,4,2,1,70,0,1
20512,-100,4,2,2,70,0,1
20828,-100,4,2,1,70,0,1
22091,-100,4,2,3,60,0,1
22196,-100,4,2,1,60,0,1
22407,-100,4,2,3,60,0,1
22512,-100,4,2,1,60,0,1
22722,-100,4,2,3,60,0,1
22828,-100,4,2,1,60,0,1
23038,-100,4,2,1,70,0,1
23354,-100,4,2,1,75,0,1
29669,-100,4,2,1,70,0,1
29985,-100,4,2,2,70,0,1
30301,-100,4,2,2,70,0,1
30616,-100,4,2,2,70,0,1
30932,-100,4,2,1,75,0,1
32195,-100,4,2,1,75,0,1
33142,-100,4,2,1,70,0,1
33458,-100,4,2,1,80,0,1
35984,-100,4,2,1,85,0,1
38510,-100,4,2,3,55,0,1
39773,-100,4,2,1,75,0,1
41036,-100,4,2,4,55,0,0
41247,-100,4,2,3,55,0,0
45457,-100,4,2,1,70,0,0
46088,-100,4,2,1,60,0,0
46720,-100,4,2,1,65,0,0
55561,-100,4,2,1,65,0,0
56824,-100,4,2,1,80,0,1
65981,-100,4,2,2,95,0,1
66086,-100,4,2,1,80,0,1
66928,-100,4,2,1,70,0,0
75769,-100,4,2,2,65,0,0
75875,-100,4,2,1,75,0,0
84611,-100,4,2,1,80,0,0
86716,-100,4,2,1,75,0,0
87137,-100,4,2,1,30,0,0

[Colours]
Combo1 : 55,255,255
Combo2 : 193,0,0
Combo3 : 18,124,255
Combo4 : 95,0,189

[HitObjects]
114,339,620,6,0,B|65:333|65:333|14:290,2,110,2|8|8,0:0|0:0|0:0,0:0:0:0:
202,295,1567,1,2,0:0:0:0:
301,295,1883,2,0,B|323:233|323:233|299:194,2,110,8|8|0,0:0|0:0|0:0,0:0:0:0:
386,345,2830,1,2,0:0:0:0:
470,293,3146,6,0,L|483:169,1,110,4|2,0:0|0:0,0:0:0:0:
467,85,3777,1,8,0:0:0:0:
390,22,4093,1,2,0:0:0:0:
296,53,4409,2,0,B|242:63|242:63|188:51,1,110,0|2,0:0|0:0,0:0:0:0:
90,35,5040,1,8,0:0:0:0:
8,90,5356,1,2,0:0:0:0:
12,188,5672,6,0,P|57:217|111:223,1,110,0|2,0:0|0:0,0:0:0:0:
207,200,6303,2,0,P|261:205|306:235,1,110,0|2,0:0|0:0,0:0:0:0:
335,330,6935,2,0,P|384:352|439:349,1,110,0|2,0:0|0:0,0:0:0:0:
459,252,7566,2,0,L|404:255,2,55,0|0|2,0:0|0:0|0:0,0:0:0:0:
484,155,8198,6,0,L|471:45,1,110,4|2,0:0|0:0,0:0:0:0:
376,16,8829,1,8,0:0:0:0:
278,32,9145,1,2,0:0:0:0:
242,124,9461,2,0,L|351:110,1,110,0|2,0:0|0:0,0:0:0:0:
407,191,10092,1,0,0:0:0:0:
364,280,10408,1,2,0:0:0:0:
266,297,10724,6,0,L|274:242,2,55,2|0|0,0:0|0:0|0:0,0:0:0:0:
181,347,11355,2,0,L|71:352,1,110
27,262,11987,2,0,L|17:204,2,55,2|0|0,0:0|0:0|0:0,0:0:0:0:
126,260,12618,2,0,P|137:206|127:152,1,110,0|2,0:0|0:0,0:0:0:0:
50,89,13250,5,4,0:0:0:0:
127,27,13566,2,0,P|179:10|233:12,1,110,2|0,0:0|0:0,0:0:0:0:
327,44,14197,1,2,0:0:0:0:
279,130,14513,1,0,0:0:0:0:
361,184,14829,2,0,P|415:186|467:169,1,110,2|0,0:0|0:0,0:0:0:0:
506,261,15460,1,2,0:0:0:0:
469,353,15776,5,0,0:0:0:0:
370,339,16092,2,0,L|260:346,1,110,2|0,0:0|0:0,0:0:0:0:
170,305,16723,1,2,0:0:0:0:
76,337,17039,1,0,0:0:0:0:
24,258,17355,2,0,L|16:148,1,110,2|0,0:0|0:0,0:0:0:0:
52,56,17986,1,2,0:0:0:0:
136,107,18302,5,4,0:0:0:0:
211,43,18618,2,0,L|320:33,1,110,2|0,0:0|0:0,0:0:0:0:
397,96,19249,1,2,0:0:0:0:
481,44,19565,1,0,0:0:0:0:
486,142,19881,2,0,L|495:251,1,110,4|0,0:0|0:0,0:0:0:0:
449,339,20512,1,4,0:0:0:0:
369,279,20828,5,4,0:0:0:0:
272,301,21144,2,0,L|262:191,1,110,2|0,0:0|0:0,0:0:0:0:
170,156,21775,1,2,0:0:0:0:
125,244,22091,2,0,L|134:353,1,110,8|8,0:0|0:0,0:0:0:0:
34,354,22722,1,8,0:0:0:0:
20,255,23038,1,2,0:0:0:0:
33,153,23354,5,4,0:0:0:0:
91,73,23670,2,0,P|143:56|197:59,1,110,2|0,0:0|0:0,0:0:0:0:
279,115,24301,1,2,0:0:0:0:
365,66,24617,1,0,0:0:0:0:
461,88,24933,2,0,L|469:197,1,110,2|0,0:0|0:0,0:0:0:0:
501,291,25564,1,2,0:0:0:0:
426,356,25880,5,0,0:0:0:0:
351,290,26196,2,0,L|342:180,1,110,2|0,0:0|0:0,0:0:0:0:
323,83,26827,1,2,0:0:0:0:
239,29,27143,1,0,0:0:0:0:
161,94,27459,2,0,L|169:203,1,110,2|0,0:0|0:0,0:0:0:0:
222,287,28090,1,2,0:0:0:0:
173,373,28406,5,4,0:0:0:0:
74,361,28722,2,0,L|65:251,1,110,2|0,0:0|0:0,0:0:0:0:
26,159,29353,1,2,0:0:0:0:
43,61,29669,1,8,0:0:0:0:
137,32,29985,2,0,L|246:23,1,110,4|8,0:0|0:0,0:0:0:0:
336,65,30616,1,4,0:0:0:0:
433,44,30932,5,4,0:0:0:0:
479,128,31248,2,0,B|473:252,1,110,2|8,0:0|0:0,0:0:0:0:
499,333,31879,1,2,0:0:0:0:
405,366,32195,2,0,L|334:356,1,55,2|0,0:0|0:0,0:0:0:0:
314,323,32511,2,0,L|259:326,1,55,8|0,0:0|0:0,0:0:0:0:
225,289,32827,1,2,0:0:0:0:
176,199,33142,1,2,0:0:0:0:
193,99,33458,6,0,B|179:63|179:63|162:40|162:40|118:24,1,110,4|0,0:0|0:0,0:0:0:0:
72,21,33932,1,0,0:0:0:0:
27,41,34090,2,0,L|37:150,1,110,4|0,0:0|0:0,0:0:0:0:
22,248,34721,2,0,L|32:357,1,110,4|0,0:0|0:0,0:0:0:0:
80,369,35195,1,0,0:0:0:0:
127,356,35353,2,0,B|179:347|179:347|217:304,1,110,4|0,0:0|0:0,0:0:0:0:
274,222,35984,6,0,P|326:236|368:271,1,110,2|0,0:0|0:0,0:0:0:0:
438,341,36616,2,0,P|460:291|459:236,1,110
439,191,37089,1,0,0:0:0:0:
401,158,37247,1,0,0:0:0:0:
334,84,37563,2,0,P|382:60|458:71,2,110
262,154,38510,6,0,P|197:202|116:210,1,165,4|0,0:0|0:0,0:0:0:0:
70,190,39142,2,0,P|48:111|69:32,1,165,4|0,0:0|0:0,0:0:0:0:
119,30,39773,6,0,B|161:63|161:63|215:46,1,110,6|0,0:0|0:0,0:0:0:0:
264,55,40247,1,0,0:0:0:0:
312,63,40405,2,0,B|349:102|349:102|338:157,1,110,6|0,0:0|0:0,0:0:0:0:
324,204,40878,1,0,0:0:0:0:
291,241,41036,5,4,0:0:0:0:
134,362,41668,1,4,0:0:0:0:
20,199,42299,1,4,0:0:0:0:
158,57,42931,1,4,0:0:0:0:
354,57,43562,5,4,0:0:0:0:
492,199,44194,1,4,0:0:0:0:
354,327,44825,1,4,0:0:0:0:
158,327,45457,1,4,0:0:0:0:
35,171,46088,2,0,B|61:158|61:158|97:170|97:170|152:150|152:150,1,110,2|2,0:0|0:0,0:0:0:0:
194,78,46720,5,4,0:0:0:0:
285,40,47036,1,2,0:0:0:0:
383,46,47351,1,0,0:0:0:0:
460,107,47667,2,0,L|472:216,1,110,2|0,0:0|0:0,0:0:0:0:
439,310,48299,1,2,0:0:0:0:
360,370,48614,6,0,L|250:360,1,110,0|2,0:0|0:0,0:0:0:0:
151,358,49245,1,4,0:0:0:0:
59,316,49562,1,2,0:0:0:0:
25,222,49877,1,0,0:0:0:0:
108,169,50193,2,0,L|128:277,1,110,2|8,0:0|0:0,0:0:0:0:
227,280,50825,1,2,0:0:0:0:
320,310,51140,6,0,L|309:201,1,110,8|2,0:0|0:0,0:0:0:0:
339,105,51772,1,4,0:0:0:0:
315,11,52088,1,2,0:0:0:0:
216,15,52404,1,8,0:0:0:0:
126,57,52719,2,0,B|102:85|102:85|32:106,1,110,2|8,0:0|0:0,0:0:0:0:
20,204,53351,1,2,0:0:0:0:
114,173,53667,5,8,0:0:0:0:
211,189,53982,1,2,0:0:0:0:
305,159,54298,2,0,L|310:104,2,55,4|0|2,0:0|0:0|0:0,0:0:0:0:
396,197,54930,1,0,0:0:0:0:
492,176,55245,1,2,0:0:0:0:
467,271,55561,2,0,B|462:311|462:311|397:336,1,110
299,346,56193,2,0,P|255:312|236:262,1,110,0|2,0:0|0:0,0:0:0:0:
245,163,56824,5,4,0:0:0:0:
221,66,57140,1,2,0:0:0:0:
131,23,57456,1,0,0:0:0:0:
39,60,57771,2,0,L|29:169,1,110,2|0,0:0|0:0,0:0:0:0:
70,260,58403,1,2,0:0:0:0:
44,355,58719,1,0,0:0:0:0:
141,338,59034,2,0,L|249:318,1,110,2|4,0:0|0:0,0:0:0:0:
345,343,59666,1,2,0:0:0:0:
436,304,59982,5,0,0:0:0:0:
485,218,60297,2,0,L|470:108,1,110,2|0,0:0|0:0,0:0:0:0:
421,22,60929,1,2,0:0:0:0:
322,25,61245,1,0,0:0:0:0:
265,106,61560,2,0,L|406:109,1,110,2|4,0:0|0:0,0:0:0:0:
396,205,62192,1,2,0:0:0:0:
334,282,62508,5,0,0:0:0:0:
241,316,62823,2,0,P|192:292|161:247,1,110,2|0,0:0|0:0,0:0:0:0:
144,149,63455,1,2,0:0:0:0:
107,56,63771,1,0,0:0:0:0:
27,114,64087,2,0,B|13:192|13:192|23:220,1,110,2|4,0:0|0:0,0:0:0:0:
83,300,64718,1,2,0:0:0:0:
159,363,65034,6,0,B|211:346|211:346|289:350,1,110,0|2,0:0|0:0,0:0:0:0:
362,327,65665,2,0,L|352:272,2,55,0|0|8,0:0|0:0|0:0,0:0:0:0:
455,360,66297,2,0,B|470:251,1,110,4|2,0:0|0:0,0:0:0:0:
488,153,66928,5,4,0:0:0:0:
478,54,67244,1,2,0:0:0:0:
383,24,67560,2,0,L|273:33,1,110,8|2,0:0|0:0,0:0:0:0:
177,56,68191,2,0,L|67:65,1,110,0|2,0:0|0:0,0:0:0:0:
25,155,68823,2,0,L|134:145,1,110,8|2,0:0|0:0,0:0:0:0:
228,177,69454,6,0,L|282:170,1,55,4|0,0:0|0:0,0:0:0:0:
327,149,69770,1,2,0:0:0:0:
404,86,70086,2,0,L|410:31,2,55,8|0|2,0:0|0:0|0:0,0:0:0:0:
477,152,70717,2,0,L|483:97,2,55,4|0|0,0:0|0:0|0:0,0:0:0:0:
453,248,71349,6,0,P|436:299|392:332,2,110,2|2|4,0:0|0:0|0:0,0:0:0:0:
354,238,72296,1,2,0:0:0:0:
262,274,72612,2,0,L|251:164,1,110,8|2,0:0|0:0,0:0:0:0:
216,71,73243,2,0,L|106:81,1,110,0|2,0:0|0:0,0:0:0:0:
59,168,73875,6,0,L|168:157,1,110,8|2,0:0|0:0,0:0:0:0:
124,246,74506,2,0,L|62:252,2,55,4|0|2,0:0|0:0|0:0,0:0:0:0:
217,279,75138,2,0,L|278:272,2,55,8|0|2,0:0|0:0|0:0,0:0:0:0:
169,365,75769,2,0,L|333:348,1,165,4|0,0:0|0:0,0:0:0:0:
379,333,76401,6,0,P|412:289|418:235,1,110
381,143,77033,1,4,0:0:0:0:
308,75,77348,1,2,0:0:0:0:
215,109,77664,1,8,0:0:0:0:
140,44,77980,2,0,B|91:26|91:26|33:33,1,110,2|8,0:0|0:0,0:0:0:0:
21,130,78611,1,2,0:0:0:0:
61,220,78927,5,8,0:0:0:0:
151,180,79243,1,2,0:0:0:0:
245,214,79559,2,0,L|297:198,2,55,4|0|2,0:0|0:0|0:0,0:0:0:0:
166,274,80190,2,0,L|113:289,2,55,8|0|2,0:0|0:0|0:0,0:0:0:0:
261,299,80822,2,0,L|313:283,2,55,4|0|0,0:0|0:0|0:0,0:0:0:0:
327,371,81453,6,0,P|375:344|400:296,1,110,8|0,0:0|0:0,0:0:0:0:
390,198,82085,1,4,0:0:0:0:
322,125,82400,2,0,P|274:98|253:49,1,110,2|8,0:0|0:0,0:0:0:0:
158,17,83032,2,0,P|131:64|82:85,1,110,2|8,0:0|0:0,0:0:0:0:
30,170,83663,2,0,B|67:211|67:211|121:219,1,110,2|8,0:0|0:0,0:0:0:0:
211,178,84294,1,2,0:0:0:0:
256,192,84611,12,4,87137,0:0:0:0:
