osu file format v9

[General]
AudioFilename: Sarina Paris - Look At Us (Daddy DJ Mix).mp3
AudioLeadIn: 1500
PreviewTime: 44764
Countdown: 0
SampleSet: Soft
StackLeniency: 0.7
Mode: 0
LetterboxInBreaks: 0

[Editor]
DistanceSpacing: 1.2
BeatDivisor: 4
GridSize: 4

[Metadata]
Title:Look At Us (Daddy DJ Mix)
Artist:Sarina Paris
Creator:[Te][Amo]
Version:Hard
Source:Dance Dance Revolution 7thMIX
Tags:k_o_g_u_r_e Pereira006 mancusojuanmattos kogure konami ddrmax2

[Difficulty]
HPDrainRate:5
CircleSize:4
OverallDifficulty:5
ApproachRate:7
SliderMultiplier:1.4
SliderTickRate:2

[Events]
//Background and Video events
0,0,"BG.jpg"
//Break Periods
//Storyboard Layer 0 (Background)
//Storyboard Layer 1 (Fail)
//Storyboard Layer 2 (Pass)
//Storyboard Layer 3 (Foreground)
//Storyboard Sound Samples
//Background Colour Transformations
3,100,163,162,255

[TimingPoints]
1984,444.444444444444,4,2,1,50,1,0
9105,445.599702933531,4,2,1,50,1,0
14464,445.599702933531,4,2,1,70,1,0
44764,-100,4,2,1,70,0,1
57241,-100,4,2,1,70,0,0
73283,-100,4,2,1,70,0,1
77293,-100,4,2,2,70,0,1
77404,-100,4,2,1,70,0,1
87542,-100,4,2,1,10,0,0

[Colours]
Combo1 : 253,124,102
Combo2 : 255,128,192
Combo3 : 176,98,255

[HitObjects]
376,64,1984,2,0,B|304:64|256:136,1,140,4|0
192,176,2650,2,0,B|216:208|256:216,1,70,0|2
328,192,3095,2,0,B|336:232|312:264,1,70
240,296,3539,1,0
168,336,3761,2,0,B|152:296|168:264|168:264|136:248|120:216,1,140,2|0
48,260,4428,6,0,B|24:220|40:156|88:140,1,140,2|0
40,72,5095,2,0,B|80:32|152:56|160:104,1,140,2|0
192,176,5761,1,2
352,136,6206,6,0,B|408:192|408:192|384:216|384:248,1,140,2|0
464,256,6872,2,0,B|464:288|440:328|392:336|364:326,1,140,0|2
112,288,7984,5,0
128,208,8206,1,2
192,256,8428,1,0
232,328,8650,2,0,B|264:304|272:272,1,70
352,240,9105,6,0,B|384:176|352:104,1,140,2|0
300,40,9773,1,0
212,40,9996,1,2
256,112,10218,1,0
220,188,10441,2,0,B|252:204|292:188,2,70,0|0|2
224,16,11332,5,0
160,56,11555,2,0,B|112:64|88:120|104:168,1,140,2|0
128,248,12224,2,0,B|176:240|200:184|184:136,1,140,2|0
256,96,12892,1,2
416,144,13338,6,0,B|448:192|392:240|424:280,1,140,2|0
334,278,14006,2,0,B|304:240|360:176|328:144,1,140,2|0
120,288,15132,5,0
88,208,15355,1,2
165,178,15577,1,0
200,256,15800,2,0,B|232:320,2,70,2|0|4
128,104,16691,5,8
296,88,17137,1,0
256,16,17360,1,0
216,88,17583,1,8
384,104,18028,1,0
256,208,18474,5,8
176,224,18697,2,0,B|160:304|216:352,1,140
297,351,19365,2,0,B|352:304|336:224,2,140,8|0|8
256,280,20479,2,0,B|256:136,1,140
315,80,21147,2,0,B|296:48|256:32|216:48|199:76,2,140,8|0|8
168,160,22484,6,0,B|168:232,1,70
160,312,22930,2,0,B|192:312|224:288,1,70,8|0
264,216,23375,2,0,B|296:232|304:272|304:272|376:296,2,140,0|8|0
296,136,24489,2,0,B|328:144|352:176,2,70,0|8|0
336,60,25158,2,0,B|286:29|224:63|217:104,1,140,0|8
152,152,25826,6,0,B|152:204|200:240|248:224,1,140
247,308,26495,2,0,B|179:320|120:264,1,140,8|0
72,196,27163,1,0
88,112,27386,2,0,B|96:72,3,35,8|0|0|0
128,48,27831,2,0,B|168:40,3,35
208,40,28277,2,0,B|248:48,3,35,8|0|0|0
256,88,28723,1,4
128,320,29614,5,0
176,256,29837,1,0
256,288,30059,1,2
336,256,30282,1,0
384,328,30505,6,0,B|416:312|424:272,1,70,4|0
336,256,30951,2,0,B|304:192|304:120,1,140,8|0
256,48,31619,1,0
207,121,31842,2,0,B|208:192|176:256,2,140,8|2|8
56,192,33179,5,0
72,272,33401,1,0
128,328,33624,2,0,B|160:344|200:336,1,70,8|0
256,272,34070,1,4
315,336,34293,2,0,B|352:344|384:328,1,70,0|8
440,272,34738,1,0
456,192,34961,2,0,B|432:120|360:96,2,140,0|8|2
296,128,36298,1,8
128,128,36743,6,0,B|96:104|96:64,2,70,0|0|8
184,192,37412,1,0
128,256,37635,6,0,B|96:280|96:320,1,70,4|0
187,326,38080,2,0,B|256:334|256:334|328:328,1,140,8|0
415,315,38749,2,0,B|416:280|384:256,1,70,0|8
328,192,39194,1,0
304,112,39417,2,0,B|296:72|256:48|216:72|208:112,2,140,2|8|0
328,192,40531,6,0,B|328:232|296:256,1,70,0|8
212,253,40977,2,0,B|184:232|184:192,2,70
256,184,41645,1,8
424,152,42091,5,0
392,72,42313,1,0
312,40,42536,1,8
152,80,42982,6,0,B|136:48|80:72|72:136|112:152,1,140,2|8
184,192,43650,1,0
152,304,43873,2,0,B|136:336|80:312|72:248|112:232,1,140,0|8
184,192,44541,1,0
240,256,44764,6,0,B|272:232|272:192|272:152|239:134,1,140,4|8
400,96,45655,1,0
464,152,45878,2,0,B|472:192|464:224,1,70,0|8
400,280,46324,1,0
320,264,46547,2,0,B|352:192|320:128,1,140,2|8
160,72,47438,5,0
80,96,47661,1,0
136,152,47883,1,8
128,232,48106,2,0,B|168:232|192:208,1,70,0|2
256,56,48775,1,8
256,224,49220,5,0
216,296,49443,1,0
296,296,49666,1,8
336,224,49889,1,0
376,296,50111,2,0,B|418:277|430:204|392:168,1,140,2|8
256,128,51003,5,0
256,48,51225,1,0
256,128,51448,1,8
256,208,51671,1,0
176,208,51894,6,0,B|112:152|48:208,1,140,4|8
112,264,52562,1,0
48,320,52785,2,0,B|112:376|176:320,1,140,0|8
256,304,53453,1,0
338,321,53676,6,0,B|400:376|464:320,1,140,2|8
400,264,54345,1,0
461,206,54567,2,0,B|400:152|336:208,2,140,0|8|2
312,112,55904,6,0,B|296:72,3,35,8|0|0|0
270,49,56350,2,0,B|230:49,3,35
208,77,56795,2,0,B|192:109,3,35,8|0|0|0
193,106,57241,6,0,B|185:178|217:210|217:210|217:242,1,140,4|4
256,320,57909,1,0
295,240,58132,2,0,B|296:208|296:208|328:176|320:104,1,140,4|4
392,80,58801,2,0,B|392:40,2,35,0|0|4
440,240,59469,5,8
304,344,59915,1,0
344,272,60137,1,0
256,272,60360,1,8
208,344,60583,1,0
168,272,60806,1,0
96,120,61251,5,8
136,48,61474,2,0,B|184:80|176:136|176:136|216:144,1,140
299,143,62143,2,0,B|336:136|336:136|328:80|376:48,1,140,8|0
416,120,62811,1,0
416,120,63034,1,8
456,192,63257,6,0,B|480:239|454:297|412:305,1,140
376,224,63925,1,8
256,104,64371,1,0
256,272,64816,1,8
184,312,65039,2,0,B|168:272|184:240,2,70
112,352,65707,2,0,B|88:280|112:208,1,140,8|4
192,72,66599,5,8
336,152,67044,1,0
256,128,67267,1,0
176,152,67490,1,8
320,72,67935,1,0
424,208,68381,6,0,B|424:280|424:280|384:288|376:328,2,140,8|0|8
256,200,69718,1,0
135,323,70163,2,0,B|128:288|88:280|88:280|88:208,2,140,8|0|8
256,192,71500,12,4,73283
256,192,73728,5,8
416,232,74174,2,0,B|424:192|416:160,2,70,0|0|8
344,192,74842,1,0
344,272,75065,2,0,B|364:320|428:336|464:304,2,140,2|8|0
256,272,76179,1,0
168,272,76402,2,0,B|148:320|84:336|48:304,1,140,8|2
96,232,77070,6,0,B|152:192|40:160|96:112,1,140
140,39,77739,1,0
216,80,77961,1,0
216,168,78184,2,0,B|224:208|256:224|256:224|288:208|296:168,2,140,8|2|8
360,80,79521,5,0
440,48,79744,2,0,B|456:80|440:120,1,70,0|8
456,200,80189,2,0,B|416:208|392:184,1,70,0|4
256,288,80858,5,8
184,320,81081,2,0,B|168:288|184:248,1,70
152,176,81526,2,0,B|184:160|224:176,2,70,0|8|0
120,96,82195,2,0,B|188:80|260:104,1,140,2|8
236,20,82863,6,0,B|308:28|356:84,1,140
440,104,83531,2,0,B|440:144|416:171|375:183|341:168,1,140,8|2
256,184,84200,1,0
171,168,84423,1,8
72,104,84645,2,0,B|72:144|96:171|137:183|171:168,1,140
216,96,85314,2,0,B|216:56|192:29|151:17|117:32,2,140,8|4|8
356,192,86651,5,0
312,288,86873,1,0
200,288,87096,1,8
156,192,87319,1,0
256,192,87542,12,2,88879
