osu file format v9

[General]
AudioFilename: Sarina Paris - Look At Us (Daddy DJ Mix).mp3
AudioLeadIn: 1500
PreviewTime: 44764
Countdown: 0
SampleSet: Soft
StackLeniency: 0.7
Mode: 0
LetterboxInBreaks: 0

[Editor]
DistanceSpacing: 1
BeatDivisor: 4
GridSize: 4

[Metadata]
Title:Look At Us (Daddy DJ Mix)
Artist:Sarina Paris
Creator:[Te][Amo]
Version:Easy
Source:Dance Dance Revolution 7thMIX
Tags:k_o_g_u_r_e Pereira006 mancusojuanmattos kogure konami ddrmax2

[Difficulty]
HPDrainRate:2
CircleSize:3
OverallDifficulty:2
ApproachRate:2
SliderMultiplier:0.8
SliderTickRate:2

[Events]
//Background and Video events
0,0,"BG.jpg"
//Break Periods
//Storyboard Layer 0 (Background)
//Storyboard Layer 1 (Fail)
//Storyboard Layer 2 (Pass)
//Storyboard Layer 3 (Foreground)
//Storyboard Sound Samples
//Background Colour Transformations
3,100,163,162,255

[TimingPoints]
1984,444.444444444444,4,2,1,50,1,0
9105,445.599702933531,4,2,1,50,1,0
14464,445.599702933531,4,2,1,70,1,0
16691,-100,4,2,2,70,0,0
16747,-100,4,2,1,70,0,0
19365,-100,4,2,2,70,0,0
19421,-100,4,2,1,70,0,0
21147,-100,4,2,2,70,0,0
21203,-100,4,2,1,70,0,0
25603,-100,4,2,2,70,0,0
25659,-100,4,2,1,70,0,0
26495,-100,4,2,2,70,0,0
26550,-100,4,2,1,70,0,0
33624,-100,4,2,2,70,0,0
33680,-100,4,2,1,70,0,0
40754,-100,4,2,2,70,0,0
40810,-100,4,2,1,70,0,0
43427,-100,4,2,2,70,0,0
43483,-100,4,2,1,70,0,0
44764,-100,4,2,1,70,0,1
45210,-100,4,2,2,70,0,1
45266,-100,4,2,1,70,0,1
46992,-100,4,2,2,70,0,1
47048,-100,4,2,1,70,0,1
48775,-100,4,2,2,70,0,1
48830,-100,4,2,1,70,0,1
50557,-100,4,2,2,70,0,1
50613,-100,4,2,1,70,0,1
52339,-100,4,2,2,70,0,1
52395,-100,4,2,1,70,0,1
54122,-100,4,2,2,70,0,1
54178,-100,4,2,1,70,0,1
57241,-100,4,2,1,70,0,0
59469,-100,4,2,2,70,0,0
59525,-100,4,2,1,70,0,0
61251,-100,4,2,2,70,0,0
61307,-100,4,2,1,70,0,0
63034,-100,4,2,2,70,0,0
63090,-100,4,2,1,70,0,0
63925,-100,4,2,2,70,0,0
63981,-100,4,2,1,70,0,0
66599,-100,4,2,2,70,0,0
66654,-100,4,2,1,70,0,0
68381,-100,4,2,2,70,0,0
68437,-100,4,2,1,70,0,0
69272,-100,4,2,2,70,0,0
69328,-100,4,2,1,70,0,0
73283,-100,4,2,1,70,0,1
73728,-100,4,2,2,70,0,1
73784,-100,4,2,1,70,0,1
75511,-100,4,2,2,70,0,1
75566,-100,4,2,1,70,0,1
83531,-100,4,2,2,70,0,1
83587,-100,4,2,1,70,0,1
87542,-100,4,2,1,10,0,0

[Colours]
Combo1 : 253,124,102
Combo2 : 255,128,192
Combo3 : 176,98,255

[HitObjects]
152,192,1984,2,0,B|152:272|216:336,1,160,4|0
256,264,3317,1,0
297,334,3761,2,0,B|360:272|360:192,1,160,2|0
208,144,5539,6,0,B|168:88|208:32,2,120,2|0|0
272,88,7317,1,2
128,152,8206,1,0
128,232,8650,1,0
180,293,9105,6,0,B|220:317|256:296|256:296|292:317|334:296,1,160,2|0
296,224,10441,1,0
216,224,10887,2,0,B|176:216|160:160|176:104|216:96,1,160,2|0
256,32,12224,1,0
300,96,12669,6,0,B|336:103|352:159|336:215|300:223,1,160,2|0
256,288,14006,1,0
256,288,14464,1,2
408,216,15355,2,0,B|400:256|364:281,1,80
320,344,16246,6,0,B|280:328|256:296|256:296|232:328|192:344,1,160,4|0
147,280,17583,2,0,B|112:256|104:216,2,80,8|0|8
184,208,18919,6,0,B|176:160|136:144|136:144|200:104,1,160,0|0
256,48,20256,1,8
311,103,20702,2,0,B|376:144|376:144|336:160|328:208,1,160,0|2
192,296,22484,2,0,B|168:264|120:264,2,80,0|8|4
256,248,23821,5,8
320,296,24267,2,0,B|344:264|392:264,1,80,0|8
436,200,25158,2,0,B|456:180|460:144|460:144|456:100|412:60,2,160,2|0|0
376,144,27386,6,0,B|352:104|321:86,1,80,8|0
256,40,28277,1,8
190,86,28723,2,0,B|160:104|136:144,1,80,4|0
56,120,29614,2,0,B|48:160|64:208|104:232|144:224,1,160,0|4
160,304,30951,6,0,B|200:288|219:249,1,80,8|0
294,251,31842,2,0,B|312:288|352:304,2,80,8|2|8
368,224,33179,2,0,B|408:232|448:208|464:160|456:120,1,160,0|0
472,40,34515,6,0,B|432:32|400:64|400:64|352:64|328:96,1,160,8|8
256,128,35852,1,2
183,95,36298,2,0,B|160:64|112:64|112:64|88:32|40:40,1,160,8|8
55,120,37635,5,4
104,184,38080,2,0,B|144:168|176:208|176:208|176:288,1,160,8|8
216,352,39417,2,0,B|256:368|296:352,1,80,2|8
336,288,40308,2,0,B|336:210|336:210|368:170|408:186,1,160
446,116,41645,6,0,B|360:80|296:136,1,160,8|8
215,135,42982,2,0,B|152:80|65:115,1,160,2|0
74,193,44319,1,8
88,272,44764,6,0,B|96:312|144:320|144:320|208:272,1,160,4|0
256,208,46101,1,8
302,271,46547,2,0,B|368:320|368:320|416:312|424:272,1,160,2|0
376,208,47883,1,8
448,168,48329,6,0,B|432:120|384:128|320:136|320:96,1,160,2|0
256,48,49666,1,8
192,95,50111,2,0,B|192:136|128:128|80:120|64:168,1,160,2|0
136,208,51448,1,8
80,268,51894,6,0,B|104:292|160:300|189:268|189:268|216:300,1,160,4|0
256,224,53231,1,8
296,299,53676,2,0,B|324:268|324:268|352:300|408:292|432:268,1,160
376,208,55013,2,0,B|376:160|408:136,2,80,8|2|8
304,168,56350,5,0
256,104,56795,1,8
208,168,57241,1,4
136,208,57687,2,0,B|136:168|104:136,2,80,4|4|4
88,272,59023,6,0,B|128:296|168:280|168:280|216:344,1,160,4|0
256,268,60360,1,8
297,341,60806,2,0,B|344:280|344:280|384:296|424:272,1,160
376,208,62143,1,8
312,160,62588,6,0,B|280:136|257:198|257:198|232:136|200:160,2,160
330,82,64816,2,0,B|298:58|256:82|256:82|218:58|178:82,1,160,8|8
121,136,66153,6,0,B|103:175|108:224|139:257|180:260,1,160
256,288,67490,1,8
332,260,67935,2,0,B|372:257|403:224|408:175|390:136,2,160
312,176,70163,6,0,B|272:176|240:160|240:136|256:112|272:136|272:160|240:176|200:176,2,160,8|8|8
328,96,72391,1,0
256,56,72837,1,8
184,96,73283,6,0,B|120:112|80:200|160:280|216:248,1,240,4|8
232,328,75065,2,0,B|296:312|336:224|256:144|200:176,1,240,2|8
184,96,76847,6,0,B|224:88|264:96,1,80,2|8
331,138,77739,2,0,B|355:162|371:210,1,80,0|8
368,288,78630,1,2
288,300,79075,1,8
208,288,79521,6,0,B|128:288,2,80,0|8|4
256,224,80858,1,8
192,176,81303,2,0,B|192:136|216:96,1,80,0|8
298,99,82195,2,0,B|320:136|320:176,1,80,2|8
320,256,83086,6,0,B|344:272|328:336|256:304|256:304|184:336|168:272|192:256,1,240,0|8
120,224,84868,2,0,B|96:256|107:303,2,80,0|8|4
48,184,86205,1,8
120,144,86651,2,0,B|96:112|107:65,1,80,0|8
256,192,87542,12,2,88879
