osu file format v12

[General]
AudioFilename: Sara - Qing An Jing De Wang Ji Wo.mp3
AudioLeadIn: 0
PreviewTime: 111981
Countdown: 0
SampleSet: Soft
StackLeniency: 0.7
Mode: 0
LetterboxInBreaks: 1
WidescreenStoryboard: 1

[Editor]
Bookmarks: 18704,57977,95068
DistanceSpacing: 0.6
BeatDivisor: 4
GridSize: 4

[Metadata]
Title:Qing An Jing De Wang Ji Wo
TitleUnicode:请安静的忘记我
Artist:Sara
ArtistUnicode:Sara
Creator:CET 6
Version:Shore
Source:
Tags:Sun Zi Han lkx_Shore
BeatmapID:291385
BeatmapSetID:107262

[Difficulty]
HPDrainRate:7
CircleSize:4
OverallDifficulty:7
ApproachRate:8
SliderMultiplier:2.2
SliderTickRate:1

[Events]
//Background and Video events
0,0,"BG.jpg",0,0
//Break Periods
//Storyboard Layer 0 (Background)
//Storyboard Layer 1 (Fail)
//Storyboard Layer 2 (Pass)
//Storyboard Layer 3 (Foreground)
//Storyboard Sound Samples
//Background Colour Transformations
3,100,163,162,255

[TimingPoints]
1250,545.454545454546,4,2,0,70,1,0
51977,-100,4,2,0,40,0,0
52250,-100,4,2,0,55,0,0
52522,-100,4,2,0,70,0,0
53068,-100,4,2,0,55,0,0
53886,-100,4,2,0,70,0,0
112522,-100,4,2,0,70,0,1
125886,-100,4,2,0,55,0,1
126159,-100,4,2,0,70,0,1
126431,-100,4,2,0,55,0,1
126704,-100,4,2,0,60,0,1
127250,-100,4,2,0,45,0,1
127522,-100,4,2,0,70,0,1
129977,-100,4,2,0,70,0,0

[Colours]
Combo1 : 170,213,255
Combo2 : 255,255,162
Combo3 : 181,255,181

[HitObjects]
256,192,18704,12,2,20340,0:0:0:0:
336,96,20613,5,0,0:0:0:0:
336,96,20886,2,0,B|376:100|396:68|396:68|456:128|416:204,1,220,4|8,1:2|0:0,0:0:0:0:
360,304,21704,1,0,1:0:0:0:
360,304,21977,2,0,P|312:336|260:336,1,110,0|2,1:0|0:0,0:0:0:0:
60,296,22522,2,0,L|172:276,1,110,8|0,0:0|0:0,0:0:0:0:
256,136,23068,5,0,1:0:0:0:
160,80,23340,1,2,0:0:0:0:
128,72,23477,1,0,0:0:0:0:
96,84,23613,1,8,0:0:0:0:
160,188,23886,1,0,1:0:0:0:
256,136,24159,2,0,B|328:152|356:80|356:80|380:116,1,165,0|0,1:0|0:0,0:0:0:0:
396,144,24704,2,0,L|448:248,1,110,8|2,0:0|0:0,0:0:0:0:
492,336,25250,6,0,B|456:356|404:340|404:340|332:320|280:368,1,220,4|8,1:2|0:0,0:0:0:0:
84,208,26068,1,0,1:0:0:0:
84,208,26340,2,0,P|148:212|180:248,1,110,0|2,1:0|0:0,0:0:0:0:
24,268,26886,2,0,P|-4:210|10:164,1,110,8|0,0:0|0:0,0:0:0:0:
80,124,27431,6,0,P|160:128|256:228,1,220,4|8,1:2|0:0,0:0:0:0:
376,292,28250,1,0,1:0:0:0:
376,292,28522,2,0,L|356:184,1,110,0|2,1:0|0:0,0:0:0:0:
348,140,28931,1,0,0:0:0:0:
340,96,29068,1,8,0:0:0:0:
464,192,29340,1,2,0:0:0:0:
272,276,29613,6,0,B|220:308|220:308|180:260|120:276,1,165,4|0,1:2|0:0,0:0:0:0:
84,288,30159,1,8,0:0:0:0:
144,376,30431,1,0,1:0:0:0:
216,212,30704,2,0,P|224:160|196:108,1,110,0|2,1:0|0:0,0:0:0:0:
120,176,31250,1,8,0:0:0:0:
288,280,31522,2,0,B|324:336|384:312|384:312|396:252|456:236,2,220,2|2|0,0:0|0:0|1:0,0:0:0:0:
140,204,32886,5,0,1:0:0:0:
228,120,33159,1,2,0:0:0:0:
228,120,33295,1,0,0:0:0:0:
228,120,33431,2,0,P|280:108|332:132,1,110,8|0,0:0|0:0,0:0:0:0:
464,116,33977,6,0,P|404:164|408:248,1,165,4|0,1:2|0:0,0:0:0:0:
432,276,34522,1,8,0:0:0:0:
432,276,34795,1,0,1:0:0:0:
348,348,35068,2,0,L|240:324,1,110,0|2,1:0|0:0,0:0:0:0:
60,276,35613,2,0,L|168:252,1,110,8|0,0:0|0:0,0:0:0:0:
388,144,36159,6,0,B|360:152|336:128|336:128|296:176|320:232,1,165,4|0,1:2|0:0,0:0:0:0:
340,260,36704,1,8,0:0:0:0:
502,218,36977,1,0,1:0:0:0:
385,98,37250,1,8,0:0:0:0:
212,52,37522,2,0,L|156:72,1,55,8|8,0:0|0:0,0:0:0:0:
92,124,37795,5,0,1:0:0:0:
108,144,37931,1,8,0:0:0:0:
136,152,38068,1,0,1:0:0:0:
164,152,38204,1,8,0:0:0:0:
192,148,38340,6,0,P|228:200|208:296,1,165,12|2,1:2|0:0,0:0:0:0:
148,336,38886,1,8,0:0:0:0:
288,144,39159,1,0,1:0:0:0:
288,144,39431,2,0,L|332:252,1,110,0|2,1:0|0:0,0:0:0:0:
440,56,39977,2,0,L|396:164,1,110,8|0,0:0|0:0,0:0:0:0:
208,76,40522,6,0,P|132:80|100:204,1,220,4|8,1:2|0:0,0:0:0:0:
208,328,41340,1,0,1:0:0:0:
208,328,41613,2,0,L|244:224,1,110,0|2,1:0|0:0,0:0:0:0:
280,208,42022,1,0,0:0:0:0:
316,196,42159,2,0,L|352:92,1,110,8|0,0:0|0:0,0:0:0:0:
448,308,42704,6,0,B|412:348|328:332|304:284|304:284|276:332,1,220,4|8,1:2|0:0,0:0:0:0:
392,228,43522,1,0,1:0:0:0:
392,228,43795,2,0,P|420:184|408:128,1,110,0|2,1:0|0:0,0:0:0:0:
220,16,44340,2,0,P|192:60|204:116,1,110,8|0,0:0|0:0,0:0:0:0:
272,196,44886,6,0,L|112:244,1,165,0|0,1:0|0:0,0:0:0:0:
76,256,45431,1,8,0:0:0:0:
172,328,45704,1,0,1:0:0:0:
208,340,45840,1,0,0:0:0:0:
244,328,45977,1,0,1:0:0:0:
344,284,46250,1,2,0:0:0:0:
380,272,46387,1,0,0:0:0:0:
416,284,46523,1,8,0:0:0:0:
316,360,46795,1,2,0:0:0:0:
192,252,47068,6,0,B|144:220|160:156|160:156|224:140|256:188,1,165,4|0,1:2|0:0,0:0:0:0:
248,176,47613,1,8,0:0:0:0:
136,328,47886,1,0,1:0:0:0:
60,152,48159,2,0,B|48:96|88:60|88:60|156:52,1,165,0|0,1:0|0:0,0:0:0:0:
180,52,48704,1,8,0:0:0:0:
296,104,48977,2,0,B|356:104|392:156|392:156|424:104|480:104,2,220,2|2|0,0:0|0:0|1:0,0:0:0:0:
296,104,50204,5,0,0:0:0:0:
296,104,50340,1,0,1:0:0:0:
184,172,50613,1,2,0:0:0:0:
300,232,50886,1,8,0:0:0:0:
172,48,51159,1,2,0:0:0:0:
76,256,51431,6,0,P|112:292|168:300,1,110,4|0,1:2|0:0,0:0:0:0:
296,104,51977,1,8,0:0:0:0:
184,172,52250,1,4,1:2:0:0:
336,316,52522,2,0,P|408:264|400:140,2,220,4|2|4,1:2|0:0|0:0,0:0:0:0:
176,316,53886,5,8,0:0:0:0:
200,116,54159,1,0,1:0:0:0:
240,148,54295,1,8,0:0:0:0:
288,148,54431,1,8,0:0:0:0:
328,116,54568,1,8,0:0:0:0:
336,68,54704,1,8,0:0:0:0:
124,60,54977,5,0,1:0:0:0:
84,97,55113,1,8,0:0:0:0:
74,150,55249,1,0,1:0:0:0:
95,199,55386,1,0,1:0:0:0:
140,236,55522,2,0,L|192:252,1,55,8|0,2:0|0:0,0:0:0:0:
272,272,55795,1,6,0:0:0:0:
412,120,57431,5,2,0:0:0:0:
412,120,57704,1,2,0:0:0:0:
412,120,57977,2,0,P|360:152|352:208,1,110,4|0,0:0|0:0,0:0:0:0:
384,344,58522,2,0,P|436:312|444:256,1,110,8|0,0:0|3:0,0:0:0:0:
256,192,59068,1,0,3:0:0:0:
168,236,59340,1,0,0:0:0:0:
84,184,59613,1,8,0:0:0:0:
0,236,59886,1,0,0:0:0:0:
176,136,60159,6,0,B|212:120|220:80|220:80|316:64|332:144,1,220,2|8,0:0|0:0,0:0:0:0:
372,276,60977,1,0,3:0:0:0:
372,276,61250,2,0,L|440:184,1,110,0|0,3:0|0:0,0:0:0:0:
368,64,61795,1,8,0:0:0:0:
224,64,62068,1,0,0:0:0:0:
224,64,62204,1,0,0:0:0:0:
224,64,62340,6,0,P|168:80|140:124,1,110,2|0,0:0|0:0,0:0:0:0:
260,334,62886,1,8,0:0:0:0:
367,312,63159,1,0,3:0:0:0:
220,148,63431,1,0,3:0:0:0:
186,252,63704,1,0,0:0:0:0:
401,206,63977,1,8,0:0:0:0:
328,124,64250,1,0,0:0:0:0:
152,356,64522,6,0,B|128:312|72:312|72:312|56:244|108:200,1,220,2|8,0:0|0:0,0:0:0:0:
256,240,65340,1,0,3:0:0:0:
256,240,65613,2,0,P|312:240|348:280,1,110,0|0,3:0|0:0,0:0:0:0:
404,176,66159,2,0,L|452:64,1,110,8|0,0:0|0:0,0:0:0:0:
447,74,66568,1,0,0:0:0:0:
447,74,66704,6,0,P|392:96|340:84,1,110,2|0,0:0|0:0,0:0:0:0:
144,40,67250,2,0,P|199:18|251:30,1,110,8|0,0:0|3:0,0:0:0:0:
168,208,67795,1,0,3:0:0:0:
204,112,68068,1,0,0:0:0:0:
240,284,68340,1,8,0:0:0:0:
276,188,68613,1,0,0:0:0:0:
128,304,68886,6,0,P|80:256|108:120,1,220,2|8,0:0|0:0,0:0:0:0:
240,284,69704,1,0,3:0:0:0:
240,284,69977,2,0,L|348:320,1,110,0|0,3:0|0:0,3:0:0:0:
376,296,70386,1,0,0:0:0:0:
408,276,70522,2,0,L|516:312,1,110,8|0,0:0|0:0,0:0:0:0:
420,52,71068,6,0,P|374:89|364:139,1,110,2|0,0:0|0:0,0:0:0:0:
408,276,71613,2,0,L|316:212,1,110,8|0,0:0|3:0,0:0:0:0:
288,40,72159,1,0,3:0:0:0:
243,154,72431,1,0,0:0:0:0:
136,208,72704,1,8,0:0:0:0:
16,208,72977,1,0,0:0:0:0:
76,104,73250,6,0,L|76:340,1,220,2|8,0:0|0:0,0:0:0:0:
76,324,74068,1,0,3:0:0:0:
180,288,74340,2,0,P|272:292|312:332,1,110,0|0,3:0|0:0,0:0:0:0:
304,328,74750,1,0,0:0:0:0:
328,352,74886,2,0,P|340:359|432:363,1,110,8|0,0:0|0:0,0:0:0:0:
408,136,75431,6,0,L|396:248,1,110,4|0,0:0|0:0,0:0:0:0:
492,112,75977,2,0,P|460:64|408:52,1,110,8|0,0:0|3:0,0:0:0:0:
220,116,76522,1,0,3:0:0:0:
336,88,76795,1,0,0:0:0:0:
220,116,77068,2,0,L|112:140,1,110,8|0,0:0|0:0,0:0:0:0:
112,139,77477,1,0,0:0:0:0:
112,140,77613,6,0,P|80:192|80:240,1,110,2|0,0:0|0:0,0:0:0:0:
200,320,78159,1,8,0:0:0:0:
184,216,78431,1,0,3:0:0:0:
280,260,78704,2,0,B|308:296|348:288|348:288|372:212|312:160,1,220,0|8,3:0|0:0,0:0:0:0:
420,352,79522,1,0,0:0:0:0:
420,352,79659,1,0,0:0:0:0:
420,352,79795,6,0,L|472:244,1,110,2|0,0:0|0:0,0:0:0:0:
420,64,80340,1,8,0:0:0:0:
340,156,80613,1,0,3:0:0:0:
228,108,80886,1,0,3:0:0:0:
308,16,81159,1,0,0:0:0:0:
340,156,81431,1,8,0:0:0:0:
252,240,81704,1,0,0:0:0:0:
140,196,81977,6,0,B|84:208|84:208|24:200|16:128,1,165,2|0,0:0|0:0,0:0:0:0:
140,196,82522,2,0,L|123:308,2,110,8|0|0,0:0|3:0|3:0,0:0:0:0:
88,96,83340,1,0,0:0:0:0:
204,108,83613,1,8,0:0:0:0:
232,136,83750,1,0,0:0:0:0:
244,172,83886,1,0,0:0:0:0:
228,208,84022,1,0,0:0:0:0:
200,232,84159,6,0,P|264:280|344:264,1,165,2|0,0:0|0:0,0:0:0:0:
380,244,84704,2,0,B|404:296|404:296|384:344,1,110,8|0,0:0|3:0,0:0:0:0:
328,168,85250,2,0,L|364:64,1,110,0|0,3:0|0:0,0:0:0:0:
392,40,85659,1,0,0:0:0:0:
432,44,85795,1,8,0:0:0:0:
328,168,86068,1,0,0:0:0:0:
59,63,86340,5,2,0:0:0:0:
137,223,86613,1,2,0:0:0:0:
168,48,86886,1,8,0:0:0:0:
40,172,87159,1,2,0:0:0:0:
216,147,87431,2,0,P|272:156|300:200,1,110,2|0,0:0|3:0,0:0:0:0:
308,312,87977,2,0,L|428:260,1,110,8|0,0:0|0:0,0:0:0:0:
448,248,88386,1,0,0:0:0:0:
448,248,88522,6,0,P|476:204|464:148,1,110,2|2,0:0|0:0,0:0:0:0:
233,49,89068,2,0,P|205:93|217:149,1,110,8|0,0:0|3:0,0:0:0:0:
152,248,89613,2,0,L|60:48,1,220,0|8,3:0|0:0,0:0:0:0:
40,232,90431,1,0,0:0:0:0:
152,248,90704,6,0,L|260:264,1,110,2|0,0:0|0:0,0:0:0:0:
288,292,91113,1,0,0:0:0:0:
312,320,91250,2,0,L|420:336,1,110,8|0,0:0|3:0,0:0:0:0:
452,148,91795,1,0,3:0:0:0:
384,244,92068,1,0,0:0:0:0:
320,80,92340,2,0,B|288:64|288:64|216:88,1,110,8|0,0:0|0:0,0:0:0:0:
184,232,92886,5,4,0:0:0:0:
76,104,93159,1,0,1:0:0:0:
184,232,93431,1,8,0:0:0:0:
220,248,93568,1,0,1:0:0:0:
256,236,93704,1,0,1:0:0:0:
420,56,93977,1,8,1:3:0:0:
420,56,94522,2,0,P|384:104|388:152,1,110,2|2,0:0|0:0,0:0:0:0:
280,88,95068,6,0,P|204:56|132:88,1,165,4|0,1:2|0:0,0:0:0:0:
108,116,95613,1,8,0:0:0:0:
208,180,95886,1,0,1:0:0:0:
308,248,96159,2,0,P|360:268|412:252,1,110,0|0,1:0|0:0,0:0:0:0:
256,320,96704,2,0,P|204:300|152:316,1,110,8|2,0:0|0:0,0:0:0:0:
153,314,97113,1,0,0:0:0:0:
153,314,97250,5,0,1:0:0:0:
68,232,97522,1,2,0:0:0:0:
68,232,97659,1,0,0:0:0:0:
68,232,97795,1,8,0:0:0:0:
100,104,98068,1,0,1:0:0:0:
184,192,98340,1,0,1:0:0:0:
216,212,98477,1,0,0:0:0:0:
256,212,98613,1,2,0:0:0:0:
288,192,98750,1,2,0:0:0:0:
308,160,98886,1,10,0:0:0:0:
468,224,99159,1,2,0:0:0:0:
340,340,99431,6,0,L|176:320,1,165,4|0,1:2|0:0,0:0:0:0:
128,336,99977,2,0,P|160:292|152:236,1,110,8|0,0:0|1:0,0:0:0:0:
80,36,100522,2,0,P|48:80|56:136,1,110,0|2,1:0|0:0,0:0:0:0:
76,164,100931,1,0,0:0:0:0:
112,176,101068,2,0,L|228:144,1,110,8|0,0:0|0:0,0:0:0:0:
416,176,101613,6,0,L|260:228,1,165,4|0,1:2|0:0,0:0:0:0:
224,244,102159,1,8,0:0:0:0:
380,292,102431,1,0,1:0:0:0:
268,104,102704,1,0,1:0:0:0:
64,180,102977,1,2,0:0:0:0:
56,216,103113,1,0,0:0:0:0:
68,252,103250,1,8,0:0:0:0:
108,256,103386,1,0,0:0:0:0:
140,276,103522,1,2,0:0:0:0:
152,312,103659,1,0,0:0:0:0:
144,348,103795,6,0,L|308:312,1,165,4|0,1:2|0:0,0:0:0:0:
340,328,104340,2,0,P|320:284|336:224,1,110,8|0,0:0|1:0,0:0:0:0:
404,144,104886,2,0,P|352:192|224:136,1,220,0|8,1:0|0:0,0:0:0:0:
168,28,105704,2,0,L|128:248,1,220,2|2,0:0|0:0,0:0:0:0:
128,244,106386,5,0,0:0:0:0:
128,244,106522,1,8,0:0:0:0:
256,332,106795,1,0,1:0:0:0:
383,244,107068,1,0,1:0:0:0:
256,172,107340,1,2,0:0:0:0:
344,328,107613,2,0,P|400:336|448:312,1,110,8|0,0:0|0:0,0:0:0:0:
204,260,108159,6,0,P|124:244|60:304,1,165,4|0,1:2|0:0,0:0:0:0:
136,352,108704,2,0,P|124:312|64:293,1,110,8|0,0:0|1:0,0:0:0:0:
36,180,109250,2,0,L|112:96,1,110,0|2,1:0|0:0,0:0:0:0:
464,144,109795,2,0,P|424:176|368:176,1,110,8|0,0:0|0:0,0:0:0:0:
256,32,110340,5,4,1:2:0:0:
248,72,110477,1,0,0:0:0:0:
256,112,110613,1,2,0:0:0:0:
264,148,110750,1,0,0:0:0:0:
256,184,110886,1,8,0:0:0:0:
248,220,111022,1,0,0:0:0:0:
256,260,111159,1,0,1:0:0:0:
380,328,111431,5,8,0:0:0:0:
257,260,111704,2,0,P|205:284|202:286,1,55,8|8,0:0|0:0,0:0:0:0:
137,356,111977,2,0,L|113:288,1,55,0|8,1:0|0:0,0:0:0:0:
74,220,112250,2,0,L|32:256,1,55,0|8,1:0|0:0,0:0:0:0:
16,96,112522,6,0,B|56:140|56:140|100:100|160:124,1,165,4|0,1:0|0:0,0:0:0:0:
192,164,113068,2,0,L|304:140,1,110,8|0,0:0|1:0,0:0:0:0:
424,312,113613,2,0,P|392:284|388:220,1,110,0|2,1:0|0:0,0:0:0:0:
408,188,114022,1,0,0:0:0:0:
432,160,114159,2,0,P|428:96|396:68,1,110,8|0,0:0|0:0,0:0:0:0:
256,192,114704,6,0,L|100:280,1,165,4|0,1:2|0:0,0:0:0:0:
80,292,115250,1,8,0:0:0:0:
256,320,115522,1,0,1:0:0:0:
136,88,115795,2,0,P|100:136|100:184,1,110,0|0,1:0|0:0,0:0:0:0:
336,252,116340,1,8,0:0:0:0:
292,104,116613,1,2,0:0:0:0:
336,252,116886,6,0,L|372:356,1,110,4|2,1:2|0:0,0:0:0:0:
424,152,117431,2,0,L|388:48,1,110,8|0,0:0|1:0,0:0:0:0:
148,112,117977,2,0,P|204:160|284:136,1,165,0|0,1:0|0:0,0:0:0:0:
320,120,118522,2,0,L|276:224,1,110,8|0,0:0|0:0,0:0:0:0:
480,320,119068,6,0,P|424:272|344:296,1,165,4|0,1:2|0:0,0:0:0:0:
320,328,119613,1,8,0:0:0:0:
152,352,119886,1,0,1:0:0:0:
208,188,120159,1,0,1:0:0:0:
232,284,120431,1,2,0:0:0:0:
232,284,120568,1,0,0:0:0:0:
232,284,120704,1,8,0:0:0:0:
92,176,120977,1,0,0:0:0:0:
272,48,121250,6,0,P|328:52|376:140,1,165,4|2,1:2|0:0,0:0:0:0:
372,168,121795,1,8,0:0:0:0:
232,284,122068,1,0,1:0:0:0:
372,168,122340,2,0,P|416:127|424:80,1,110,0|2,1:0|0:0,0:0:0:0:
256,40,122886,1,8,0:0:0:0:
112,76,123159,2,0,B|80:124|112:176|112:176|140:224|112:288,1,220,2|2,0:0|0:0,0:0:0:0:
88,312,123840,5,0,0:0:0:0:
48,308,123977,1,8,0:0:0:0:
212,252,124250,1,0,1:0:0:0:
212,252,124522,2,0,P|268:256|304:300,1,110,0|2,1:0|0:0,0:0:0:0:
312,324,124931,1,0,0:0:0:0:
316,356,125068,2,0,P|360:332|380:276,1,110,8|0,0:0|0:0,0:0:0:0:
145,210,125613,5,6,1:2:0:0:
185,19,125886,1,2,0:0:0:0:
265,197,126159,1,8,0:0:0:0:
96,100,126431,1,4,1:2:0:0:
290,79,126704,2,0,B|336:88|356:56|356:56|416:40|444:64,1,165,4|0,1:2|0:0,0:0:0:0:
464,96,127250,1,12,0:0:0:0:
436,244,127522,1,2,0:0:0:0:
428,260,127659,1,0,0:0:0:0:
420,276,127795,6,0,L|308:276,1,110,4|8,1:2|0:0,0:0:0:0:
144,312,128340,1,0,1:0:0:0:
91,295,128477,1,8,0:0:0:0:
91,240,128613,1,8,0:0:0:0:
144,223,128750,1,8,0:0:0:0:
176,267,128886,1,8,0:0:0:0:
80,120,129159,5,0,1:0:0:0:
129,96,129295,1,0,0:0:0:0:
183,101,129431,1,0,1:0:0:0:
227,133,129568,1,0,1:0:0:0:
248,184,129704,2,0,L|280:232,1,55,8|0,2:0|0:0,0:0:0:0:
328,296,129977,1,4,0:0:0:0:
