osu file format v12

[General]
AudioFilename: Sara - Qing An Jing De Wang Ji Wo.mp3
AudioLeadIn: 0
PreviewTime: 111981
Countdown: 0
SampleSet: Soft
StackLeniency: 0.7
Mode: 0
LetterboxInBreaks: 1
WidescreenStoryboard: 1

[Editor]
DistanceSpacing: 1.4
BeatDivisor: 4
GridSize: 4

[Metadata]
Title:Qing An Jing De Wang Ji Wo
TitleUnicode:请安静的忘记我
Artist:Sara
ArtistUnicode:Sara
Creator:CET 6
Version:Hard
Source:
Tags:Sun Zi Han lkx_Shore
BeatmapID:281152
BeatmapSetID:107262

[Difficulty]
HPDrainRate:5
CircleSize:4
OverallDifficulty:5
ApproachRate:7
SliderMultiplier:1.4
SliderTickRate:1

[Events]
//Background and Video events
0,0,"BG.jpg",0,0
//Break Periods
//Storyboard Layer 0 (Background)
//Storyboard Layer 1 (Fail)
//Storyboard Layer 2 (Pass)
//Storyboard Layer 3 (Foreground)
//Storyboard Sound Samples
//Background Colour Transformations
3,100,163,162,255

[TimingPoints]
1250,545.454545454546,4,2,1,60,1,0
18704,-100,4,2,1,5,0,0
20340,-100,4,2,1,60,0,0
32068,-133.333333333333,4,2,1,60,0,0
33159,-100,4,2,1,60,0,0
53750,-100,4,2,1,5,0,0
55795,-100,4,2,1,50,0,0
57431,-100,4,2,1,50,0,0
92886,-100,4,2,1,5,0,0
93977,-100,4,2,1,50,0,0
94522,-100,4,2,1,60,0,0
95613,-100,4,2,1,70,0,0
110340,-100,4,2,1,50,0,0
110613,-100,4,2,1,70,0,0
111432,-83.3333333333333,4,2,1,70,0,0
112522,-83.3333333333333,4,2,1,50,0,1
112795,-83.3333333333333,4,2,1,70,0,1
126705,-100,4,2,1,70,0,1
127795,-100,4,2,1,50,0,1
128068,-100,4,2,1,10,0,1
129977,-100,4,2,1,40,0,0

[Colours]
Combo1 : 170,213,255
Combo2 : 255,255,162
Combo3 : 181,255,181

[HitObjects]
256,192,18704,12,0,19795,0:0:0:0:
256,60,20340,5,0,0:0:0:0:
164,60,20613,1,0,0:0:0:0:
76,84,20886,2,0,P|88:136|72:192,1,105,4|0,1:0|0:0,0:0:0:0:
96,216,21431,2,0,L|176:232,1,70,0|0,1:0|0:0,0:0:0:0:
180,320,21977,2,0,L|30:290,2,140,8|0|8,0:0|1:0|0:0,0:0:0:0:
272,328,23340,5,0,3:0:0:0:
364,320,23613,2,0,L|432:306,2,70,0|10|8,1:0|3:2|0:0,0:0:0:0:
272,328,24431,1,0,0:0:0:0:
312,240,24704,5,0,1:0:0:0:
392,200,24977,1,0,0:0:0:0:
484,176,25250,2,0,P|452:128|412:104,1,105,8|0,0:0|0:0,0:0:0:0:
384,80,25795,2,0,P|340:84|308:76,1,70,0|8,1:0|0:0,0:0:0:0:
224,60,26340,2,0,P|152:44|72:67,2,140,8|0|8,0:0|1:0|0:0,0:0:0:0:
156,132,27704,5,0,3:0:0:0:
92,200,27977,2,0,P|60:208|8:188,1,70,0|8,1:0|3:2,0:0:0:0:
220,200,28522,2,0,P|256:192|304:212,1,70,8|0,0:0|0:2,0:0:0:0:
156,272,29068,6,0,L|156:356,1,70,0|0,1:0|0:0,0:0:0:0:
252,308,29613,2,0,P|318:327|385:311,2,140,8|0|8,0:0|1:0|0:0,0:0:0:0:
385,311,30977,1,0,0:0:0:0:
457,241,31250,2,0,P|477:177|437:101,1,140,0|8,1:0|0:0,0:0:0:0:
385,181,32068,6,0,P|309:193|217:177,1,157.500006008148,0|8,1:0|1:2,0:0:0:0:
305,89,33159,1,0,0:0:0:0:
205,89,33431,6,0,L|105:89,1,70
51,141,33977,2,0,P|43:177|59:225,1,70,8|0,1:2|0:0,0:0:0:0:
201,177,34522,2,0,L|131:177,1,70,0|8,0:0|0:0,0:0:0:0:
169,269,35068,2,0,P|209:337|281:353,2,140,8|0|4,1:2|1:0|1:0,0:0:0:0:
269,253,36431,5,8,1:2:0:0:
269,253,36704,2,0,L|357:253,1,70,2|8,0:0|1:2,0:0:0:0:
425,197,37250,2,0,P|429:165|417:109,1,70,10|10,1:2|1:2,0:0:0:0:
417,93,37659,2,0,L|285:93,1,105,0|10,1:0|1:2,0:0:0:0:
210,90,38340,6,0,P|141:77|73:90,1,140,4|0,1:0|1:0,0:0:0:0:
210,91,39159,1,0,0:0:0:0:
145,160,39431,2,0,P|132:229|146:297,2,140,10|0|8,0:0|1:0|0:0,0:0:0:0:
217,229,40795,1,0,3:0:0:0:
217,229,41068,2,0,L|287:229,2,70,0|0|8,1:0|3:0|0:0,0:0:0:0:
117,229,41886,1,0,0:0:0:0:
30,279,42159,6,0,P|22:327|42:371,1,70,0|0,1:0|0:0,0:0:0:0:
117,317,42704,2,0,P|193:333|265:313,1,140,8|0,0:0|1:0,0:0:0:0:
341,273,43522,1,0,0:0:0:0:
341,273,43795,2,0,L|341:185,1,70,8|0,0:0|0:0,0:0:0:0:
341,105,44340,2,0,P|409:91|476:107,2,140,0|8|0,1:0|0:0|1:0,0:0:0:0:
257,157,45704,2,0,L|181:157,2,70,0|8|0,3:0|0:0|3:0,0:0:0:0:
217,65,46522,6,0,L|141:57,2,70,0|0|8,1:0|0:0|0:0,0:0:0:0:
217,249,47613,2,0,L|141:257,2,70,0|0|8,1:0|0:0|0:0,0:0:0:0:
377,157,48704,2,0,B|431:130|484:155|484:155|525:141,2,140,0|8|0,1:0|0:0|1:0,0:0:0:0:
433,241,50068,2,0,L|433:333,2,70,0|8|0,3:0|0:0|3:0,0:0:0:0:
341,277,50886,6,0,L|241:277,1,70,0|0,1:0|0:0,0:0:0:0:
173,277,51431,1,8,0:0:0:0:
137,185,51704,2,0,L|233:185,1,70,0|0,0:0|1:0,0:0:0:0:
305,185,52250,1,0,0:0:0:0:
373,105,52522,2,0,P|305:90|221:110,2,140,8|0|4,0:0|1:0|1:0,0:0:0:0:
256,192,53750,12,0,55795,0:0:0:0:
256,88,57431,6,0,L|256:164,1,70
168,202,57977,2,0,L|168:132,1,70,8|0,0:0|0:0,0:0:0:0:
256,156,58522,1,0,0:0:0:0:
168,132,58795,1,0,0:0:0:0:
80,160,59068,2,0,P|72:208|84:232,1,70,8|0,0:0|0:0,0:0:0:0:
136,296,59613,2,0,P|154:303|202:295,2,70,0|0|10,0:0|0:0|0:0,0:0:0:0:
376,296,60704,2,0,P|357:303|309:295,2,70,0|8|10,0:0|0:0|0:0,0:0:0:0:
344,152,61795,6,0,L|414:152,1,70
456,68,62341,2,0,L|386:68,1,70,8|0,0:0|0:0,0:0:0:0:
344,152,62886,1,0,0:0:0:0:
292,68,63159,1,0,0:0:0:0:
292,68,63432,6,0,P|244:60|225:67,1,70,8|0,0:0|0:0,0:0:0:0:
260,156,63977,2,0,P|252:174|260:222,2,70,0|0|10,0:0|0:0|0:0,0:0:0:0:
348,188,64795,1,0,0:0:0:0:
348,188,65068,2,0,L|444:188,1,70,0|8,0:0|0:0,0:0:0:0:
460,276,65613,2,0,L|384:276,1,70,10|0,0:0|0:0,0:0:0:0:
354,368,66159,6,0,L|424:368,1,70
460,276,66704,2,0,L|390:276,1,70,8|0,0:0|0:0,0:0:0:0:
312,212,67250,1,0,0:0:0:0:
245,280,67522,1,0,0:0:0:0:
148,280,67795,2,0,P|112:288|64:268,1,70,8|0,0:0|0:0,0:0:0:0:
48,184,68340,2,0,P|115:165|182:184,2,140,0|10|0,0:0|0:0|0:0,0:0:0:0:
182,184,69704,2,0,L|252:184,1,70,8|10,0:0|0:0,0:0:0:0:
220,96,70250,1,0,0:0:0:0:
220,96,70522,6,0,L|220:20,1,70
308,64,71068,2,0,L|408:64,1,70,8|0,0:0|0:0,0:0:0:0:
346,152,71613,2,0,L|346:236,1,70
442,236,72159,1,8,0:0:0:0:
442,140,72431,1,0,0:0:0:0:
354,188,72704,2,0,B|284:204|284:172|215:188,2,140,0|10|0,0:0|0:0|0:0,0:0:0:0:
442,236,74068,1,8,0:0:0:0:
354,280,74340,2,0,L|354:350,1,70,10|0,0:0|0:0,0:0:0:0:
258,316,74886,6,0,L|162:316,1,70
86,316,75431,1,8,0:0:0:0:
38,236,75704,1,0,0:0:0:0:
134,236,75977,1,0,0:0:0:0:
38,236,76250,1,0,0:0:0:0:
86,148,76522,6,0,L|6:148,1,70,8|0,0:0|0:0,0:0:0:0:
54,60,77068,2,0,B|120:60|120:60|160:48|192:59,2,140,0|10|0,0:0|0:0|0:0,0:0:0:0:
193,60,78431,2,0,L|193:130,1,70,8|10,0:0|0:0,0:0:0:0:
284,96,78977,1,0,0:0:0:0:
374,60,79250,6,0,L|466:60,1,70
494,152,79795,2,0,L|402:152,1,70,8|0,0:0|0:0,0:0:0:0:
446,60,80340,1,0,0:0:0:0:
494,152,80613,1,0,0:0:0:0:
446,244,80886,2,0,L|376:244,1,70,8|0,0:0|0:0,0:0:0:0:
328,153,81431,2,0,B|278:184|274:244|274:244|231:256,1,140,0|10,0:0|0:0,0:0:0:0:
185,335,82250,5,0,0:0:0:0:
102,276,82522,2,0,L|18:256,1,70,0|8,0:0|0:0,0:0:0:0:
33,116,83068,2,0,L|102:100,1,70,10|0,0:0|0:0,0:0:0:0:
151,188,83613,6,0,L|81:188,1,70
229,188,84159,2,0,B|298:172|298:204|368:188,2,140,10|0|10,0:0|0:0|0:0,0:0:0:0:
438,188,85795,1,0,0:0:0:0:
410,100,86068,2,0,L|478:116,1,70,0|10,0:0|0:0,0:0:0:0:
478,259,86614,2,0,L|410:276,1,70
358,188,87159,2,0,L|282:188,1,70,0|10,0:0|0:0,0:0:0:0:
262,40,87977,5,0,0:0:0:0:
262,40,88250,1,0,0:0:0:0:
178,76,88522,2,0,L|182:156,1,70,10|0,0:0|0:0,0:0:0:0:
342,145,89068,2,0,L|345:75,1,70,0|0,0:0|0:0,0:0:0:0:
262,152,89613,2,0,L|262:308,1,140,10|0,0:0|0:0,0:0:0:0:
190,228,90431,6,0,L|118:208,1,70,0|10,0:0|0:0,0:0:0:0:
334,228,90977,1,0,3:0:0:0:
334,228,91250,2,0,L|406:208,1,70,0|0,0:0|3:0,0:0:0:0:
298,308,91795,2,0,P|262:316|226:304,1,70,10|0,0:0|3:0,0:0:0:0:
226,148,92340,2,0,P|262:140|298:152,1,70,0|0,0:0|3:0,0:0:0:0:
256,192,92886,12,8,93977,3:0:0:0:
316,192,94522,6,0,L|228:192,1,70,0|0,0:0|0:0,0:0:0:0:
216,104,95068,2,0,P|164:96|112:104,1,105,4|0,1:0|0:0,0:0:0:0:
88,132,95613,2,0,L|88:224,1,70,0|0,1:0|0:0,0:0:0:0:
88,336,96159,2,0,P|155:351|223:336,2,140,8|0|8,0:0|1:0|0:0,0:0:0:0:
224,336,97522,1,0,3:0:0:0:
336,336,97795,2,0,L|420:336,2,70,0|8|8,1:0|3:2|3:2,0:0:0:0:
224,336,98613,1,0,0:0:0:0:
278,248,98886,6,0,L|278:160,1,70,0|0,1:0|0:0,0:0:0:0:
312,79,99432,2,0,P|363:71|416:82,1,105,8|0,0:0|0:0,0:0:0:0:
440,108,99977,2,0,L|440:200,1,70,0|8,1:0|0:0,0:0:0:0:
440,311,100523,2,0,P|373:331|306:312,2,140,8|0|8,0:0|1:0|0:0,0:0:0:0:
307,312,101886,1,0,3:0:0:0:
192,312,102159,2,0,L|108:312,2,70,0|8|8,1:0|3:2|3:2,0:0:0:0:
308,312,102977,1,0,0:0:0:0:
284,208,103250,6,0,L|192:208,1,70,0|0,1:0|0:0,0:0:0:0:
108,208,103795,2,0,P|96:128|124:48,1,140,8|0,0:0|1:0,0:0:0:0:
184,140,104613,1,8,0:0:0:0:
108,208,104886,1,8,0:0:0:0:
228,44,105431,22,0,P|320:36|392:56,1,140,0|8,1:0|0:0,0:0:0:0:
365,149,106250,22,0,P|296:159|228:147,1,140,0|0,1:0|1:0,0:0:0:0:
366,149,107068,1,8,1:2:0:0:
378,268,107340,1,0,0:0:0:0:
272,324,107613,6,0,L|176:336,1,70,0|0,1:0|0:0,0:0:0:0:
124,264,108159,2,0,L|54:272,1,70,8|0,0:0|0:0,0:0:0:0:
228,248,108704,2,0,L|297:239,1,70,0|0,1:0|0:0,0:0:0:0:
160,180,109250,2,0,P|108:140|100:48,2,140,8|0|4,0:0|1:0|1:0,0:0:0:0:
192,84,110613,5,8,1:2:0:0:
192,84,110886,2,0,L|272:68,1,70,2|8,0:0|1:2,0:0:0:0:
400,84,111431,2,0,L|320:68,1,70,10|8,1:2|1:2,0:0:0:0:
305,96,111840,1,0,1:0:0:0:
304,132,111977,2,0,L|304:252,1,83.9999974365235,0|10,0:0|1:2,0:0:0:0:
400,176,112522,6,0,L|492:176,1,83.9999974365235,4|0,1:0|0:0,0:0:0:0:
400,176,113068,1,0,1:2:0:0:
305,96,113340,1,8,0:0:0:0:
180,116,113613,2,0,P|224:192|328:220,2,167.999994873047,8|0|8,0:0|1:2|1:2,0:0:0:0:
80,56,114977,1,0,3:0:0:0:
40,180,115250,2,0,L|64:100,1,83.9999974365235,8|0,1:2|3:0,0:0:0:0:
132,188,115795,2,0,L|107:268,1,83.9999974365235,8|0,1:2|0:0,0:0:0:0:
212,232,116340,6,0,L|237:148,1,83.9999974365235,0|0,1:2|0:0,0:0:0:0:
320,228,116886,2,0,B|332:196|332:196|384:276|464:248,1,167.999994873047,8|0,0:0|1:0,0:0:0:0:
432,140,117704,1,8,0:0:0:0:
356,56,117977,2,0,P|277:29|197:50,2,167.999994873047,8|0|8,0:0|1:0|1:2,0:0:0:0:
274,132,119340,1,0,3:0:0:0:
274,132,119613,2,0,L|274:236,1,83.9999974365235,8|0,1:2|3:2,0:0:0:0:
164,180,120159,2,0,L|80:180,1,83.9999974365235,8|0,1:2|0:0,0:0:0:0:
124,280,120704,6,0,P|168:288|208:280,2,83.9999974365235,0|0|8,1:2|0:0|0:0,0:0:0:0:
388,280,121795,2,0,P|347:271|305:279,2,83.9999974365235,0|0|8,1:2|0:0|0:0,0:0:0:0:
247,31,122886,6,0,P|230:112|256:192,1,167.999994873047,0|8,1:2|0:0,0:0:0:0:
264,352,123704,2,0,P|281:271|256:192,1,167.999994873047,0|0,1:0|1:0,0:0:0:0:
144,192,124522,2,0,L|144:300,1,83.9999974365235,8|0,0:0|0:0,0:0:0:0:
368,192,125068,6,0,L|368:96,1,83.9999974365235,0|0,1:2|0:0,0:0:0:0:
256,192,125613,2,0,L|256:276,1,83.9999974365235,8|0,0:0|0:0,0:0:0:0:
144,192,126159,2,0,P|100:200|52:188,1,83.9999974365235,0|0,1:2|0:0,0:0:0:0:
108,80,126704,2,0,P|192:64|284:84,2,167.999994873047,8|0|4,0:0|1:2|1:0,0:0:0:0:
256,192,128068,12,4,129977,0:1:0:0:
