osu file format v14

[General]
AudioFilename: natuiro.mp3
AudioLeadIn: 0
PreviewTime: 56332
Countdown: 0
SampleSet: Normal
StackLeniency: 0.7
Mode: 1
LetterboxInBreaks: 0
WidescreenStoryboard: 0

[Editor]
DistanceSpacing: 0.8
BeatDivisor: 4
GridSize: 32
TimelineZoom: 2.3

[Metadata]
Title:Natsuiro Present o BPM180 ni Shitemita
TitleUnicode:夏色プレゼントをBPM180にしてみた
Artist:Sara
ArtistUnicode:皿
Creator:snowball112
Version:Oni
Source:ヤマノススメ セカンドシーズン
Tags:yama no susume encouragement of climb opening theme second season remix
BeatmapID:1112375
BeatmapSetID:524050

[Difficulty]
HPDrainRate:5
CircleSize:2
OverallDifficulty:5
ApproachRate:0
SliderMultiplier:1.4
SliderTickRate:1

[Events]
//Background and Video events
0,0,"natsu bg.jpg",0,55
//Break Periods
//Storyboard Layer 0 (Background)
//Storyboard Layer 1 (Fail)
//Storyboard Layer 2 (Pass)
//Storyboard Layer 3 (Foreground)
//Storyboard Sound Samples

[TimingPoints]
333,333.333333333333,4,1,0,80,1,0
1666,-100,4,1,0,90,0,0
45666,-100,4,1,0,100,0,1
66999,-100,4,1,0,90,0,0
92332,-100,4,1,0,80,0,0
92666,-100,4,1,0,70,0,0
92999,-100,4,1,0,60,0,0
93332,-100,4,1,0,50,0,0

[HitObjects]
256,192,333,5,0,0:0:0:0:
256,192,666,1,8,0:0:0:0:
256,192,999,1,0,0:0:0:0:
256,192,1082,1,0,0:0:0:0:
256,192,1166,1,0,0:0:0:0:
256,192,1332,5,12,0:0:0:0:
256,192,1666,1,4,0:0:0:0:
256,192,1832,1,8,0:0:0:0:
256,192,1999,1,8,0:0:0:0:
256,192,2332,1,0,0:0:0:0:
256,192,2416,1,0,0:0:0:0:
256,192,2499,1,0,0:0:0:0:
256,192,2666,1,8,0:0:0:0:
256,192,2832,1,0,0:0:0:0:
256,192,3166,1,0,0:0:0:0:
256,192,3332,1,8,0:0:0:0:
256,192,3666,1,0,0:0:0:0:
256,192,3832,1,8,0:0:0:0:
256,192,3999,1,0,0:0:0:0:
256,192,4166,1,8,0:0:0:0:
256,192,4249,1,8,0:0:0:0:
256,192,4332,1,0,0:0:0:0:
256,192,4499,1,0,0:0:0:0:
256,192,4666,1,8,0:0:0:0:
256,192,4999,1,0,0:0:0:0:
256,192,5082,1,0,0:0:0:0:
256,192,5166,1,8,0:0:0:0:
256,192,5332,1,8,0:0:0:0:
256,192,5499,1,0,0:0:0:0:
256,192,5832,1,0,0:0:0:0:
256,192,5999,1,8,0:0:0:0:
256,192,6166,1,0,0:0:0:0:
256,192,6332,1,12,0:0:0:0:
256,192,6666,1,12,0:0:0:0:
256,192,6999,1,4,0:0:0:0:
256,192,7166,1,0,0:0:0:0:
256,192,7332,1,8,0:0:0:0:
256,192,7666,1,0,0:0:0:0:
256,192,7749,1,0,0:0:0:0:
256,192,7832,1,8,0:0:0:0:
256,192,7999,1,8,0:0:0:0:
256,192,8166,1,0,0:0:0:0:
256,192,8499,1,0,0:0:0:0:
256,192,8666,1,8,0:0:0:0:
256,192,8999,1,0,0:0:0:0:
256,192,9166,1,8,0:0:0:0:
256,192,9332,1,0,0:0:0:0:
256,192,9499,1,8,0:0:0:0:
256,192,9582,1,8,0:0:0:0:
256,192,9666,1,0,0:0:0:0:
256,192,9832,1,0,0:0:0:0:
256,192,9999,1,8,0:0:0:0:
256,192,10332,1,0,0:0:0:0:
256,192,10416,1,0,0:0:0:0:
256,192,10499,1,8,0:0:0:0:
256,192,10666,1,8,0:0:0:0:
256,192,10832,1,0,0:0:0:0:
256,192,11166,1,0,0:0:0:0:
256,192,11332,1,8,0:0:0:0:
256,192,11666,1,0,0:0:0:0:
256,192,11832,1,8,0:0:0:0:
256,192,11999,1,0,0:0:0:0:
256,192,12332,1,8,0:0:0:0:
256,192,12499,1,8,0:0:0:0:
256,192,12666,1,8,0:0:0:0:
256,192,12832,1,8,0:0:0:0:
256,192,12916,1,8,0:0:0:0:
256,192,12999,1,0,0:0:0:0:
256,192,13082,1,0,0:0:0:0:
256,192,13166,1,8,0:0:0:0:
256,192,13332,1,12,0:0:0:0:
256,192,13666,1,0,0:0:0:0:
256,192,13999,1,8,0:0:0:0:
256,192,14332,1,0,0:0:0:0:
256,192,14499,1,8,0:0:0:0:
256,192,14582,1,8,0:0:0:0:
256,192,14832,1,8,0:0:0:0:
256,192,14999,1,0,0:0:0:0:
256,192,15332,1,8,0:0:0:0:
256,192,15666,1,0,0:0:0:0:
256,192,15832,1,0,0:0:0:0:
256,192,15916,1,0,0:0:0:0:
256,192,16166,1,0,0:0:0:0:
256,192,16332,1,0,0:0:0:0:
256,192,16666,1,8,0:0:0:0:
256,192,16999,1,0,0:0:0:0:
256,192,17166,1,8,0:0:0:0:
256,192,17249,1,8,0:0:0:0:
256,192,17499,1,8,0:0:0:0:
256,192,17666,1,0,0:0:0:0:
256,192,17916,1,0,0:0:0:0:
256,192,18166,1,0,0:0:0:0:
256,192,18249,1,0,0:0:0:0:
256,192,18332,1,0,0:0:0:0:
256,192,18499,1,0,0:0:0:0:
256,192,18582,1,8,0:0:0:0:
256,192,18749,1,8,0:0:0:0:
256,192,18832,1,8,0:0:0:0:
256,192,18999,1,4,0:0:0:0:
256,192,19332,1,8,0:0:0:0:
256,192,19666,1,0,0:0:0:0:
256,192,19832,1,8,0:0:0:0:
256,192,19916,1,8,0:0:0:0:
256,192,20166,1,8,0:0:0:0:
256,192,20332,1,0,0:0:0:0:
256,192,20666,1,8,0:0:0:0:
256,192,20999,1,0,0:0:0:0:
256,192,21166,1,0,0:0:0:0:
256,192,21249,1,0,0:0:0:0:
256,192,21499,1,0,0:0:0:0:
256,192,21666,1,0,0:0:0:0:
256,192,21999,1,8,0:0:0:0:
256,192,22332,1,0,0:0:0:0:
256,192,22499,1,8,0:0:0:0:
256,192,22582,1,8,0:0:0:0:
256,192,22832,1,8,0:0:0:0:
256,192,22999,1,0,0:0:0:0:
256,192,23082,1,0,0:0:0:0:
256,192,23166,1,0,0:0:0:0:
256,192,23332,1,8,0:0:0:0:
256,192,23416,1,8,0:0:0:0:
256,192,23499,1,8,0:0:0:0:
256,192,23666,1,8,0:0:0:0:
256,192,23832,1,0,0:0:0:0:
256,192,23999,1,8,0:0:0:0:
256,192,24332,1,4,0:0:0:0:
256,192,24666,1,8,0:0:0:0:
256,192,24999,1,0,0:0:0:0:
256,192,25166,1,8,0:0:0:0:
256,192,25332,1,8,0:0:0:0:
256,192,25499,1,0,0:0:0:0:
256,192,25582,1,0,0:0:0:0:
256,192,25666,1,0,0:0:0:0:
256,192,25999,1,8,0:0:0:0:
256,192,26332,1,0,0:0:0:0:
256,192,26499,1,8,0:0:0:0:
256,192,26666,1,8,0:0:0:0:
256,192,26832,1,8,0:0:0:0:
256,192,26999,1,0,0:0:0:0:
256,192,27332,1,8,0:0:0:0:
256,192,27666,1,0,0:0:0:0:
256,192,27832,1,8,0:0:0:0:
256,192,27999,1,8,0:0:0:0:
256,192,28166,1,8,0:0:0:0:
256,192,28332,1,0,0:0:0:0:
256,192,28666,1,8,0:0:0:0:
256,192,28749,1,8,0:0:0:0:
256,192,28832,1,8,0:0:0:0:
256,192,28999,1,8,0:0:0:0:
256,192,29166,1,8,0:0:0:0:
256,192,29249,1,8,0:0:0:0:
256,192,29332,1,0,0:0:0:0:
256,192,29499,1,8,0:0:0:0:
256,192,29666,1,4,0:0:0:0:
256,192,29999,1,8,0:0:0:0:
256,192,30332,1,0,0:0:0:0:
256,192,30499,1,8,0:0:0:0:
256,192,30666,1,8,0:0:0:0:
256,192,30832,1,0,0:0:0:0:
256,192,30916,1,0,0:0:0:0:
256,192,30999,1,0,0:0:0:0:
256,192,31332,1,8,0:0:0:0:
256,192,31666,1,0,0:0:0:0:
256,192,31832,1,8,0:0:0:0:
256,192,31999,1,8,0:0:0:0:
256,192,32166,1,8,0:0:0:0:
256,192,32332,5,0,0:0:0:0:
256,192,32666,1,8,0:0:0:0:
256,192,32999,1,0,0:0:0:0:
256,192,33166,1,8,0:0:0:0:
256,192,33332,1,0,0:0:0:0:
256,192,33666,1,0,0:0:0:0:
256,192,33749,1,0,0:0:0:0:
256,192,33832,1,8,0:0:0:0:
256,192,33916,1,8,0:0:0:0:
256,192,33999,1,0,0:0:0:0:
256,192,34166,1,8,0:0:0:0:
256,192,34332,1,0,0:0:0:0:
256,192,34499,1,8,0:0:0:0:
256,192,34999,5,4,0:0:0:0:
256,192,35332,1,8,0:0:0:0:
256,192,35499,1,0,0:0:0:0:
256,192,35582,1,0,0:0:0:0:
256,192,35666,1,8,0:0:0:0:
256,192,35832,1,0,0:0:0:0:
256,192,35999,1,8,0:0:0:0:
256,192,36332,1,0,0:0:0:0:
256,192,36499,1,0,0:0:0:0:
256,192,36666,1,8,0:0:0:0:
256,192,36832,1,0,0:0:0:0:
256,192,37166,1,8,0:0:0:0:
256,192,37332,1,0,0:0:0:0:
256,192,37416,1,0,0:0:0:0:
256,192,37499,1,0,0:0:0:0:
256,192,37582,1,0,0:0:0:0:
256,192,37666,1,8,0:0:0:0:
256,192,37999,1,8,0:0:0:0:
256,192,38332,5,0,0:0:0:0:
256,192,38499,1,0,0:0:0:0:
256,192,38666,1,8,0:0:0:0:
256,192,38749,1,8,0:0:0:0:
256,192,38832,1,8,0:0:0:0:
256,192,38999,1,0,0:0:0:0:
256,192,39332,1,8,0:0:0:0:
256,192,39666,1,0,0:0:0:0:
256,192,39832,1,8,0:0:0:0:
256,192,39999,1,0,0:0:0:0:
256,192,40166,1,8,0:0:0:0:
256,192,40332,5,4,0:0:0:0:
256,192,40666,1,8,0:0:0:0:
256,192,40999,1,0,0:0:0:0:
256,192,41166,1,8,0:0:0:0:
256,192,41332,1,0,0:0:0:0:
256,192,41416,1,0,0:0:0:0:
256,192,41499,1,8,0:0:0:0:
256,192,41666,1,0,0:0:0:0:
256,192,41999,1,8,0:0:0:0:
256,192,42166,1,0,0:0:0:0:
256,192,42332,1,8,0:0:0:0:
256,192,42416,1,8,0:0:0:0:
256,192,42499,1,0,0:0:0:0:
256,192,42666,1,8,0:0:0:0:
256,192,42999,1,8,0:0:0:0:
256,192,43249,1,8,0:0:0:0:
256,192,43332,1,8,0:0:0:0:
256,192,43499,1,8,0:0:0:0:
256,192,43666,1,0,0:0:0:0:
256,192,43916,1,8,0:0:0:0:
256,192,43999,1,8,0:0:0:0:
256,192,44166,1,8,0:0:0:0:
256,192,44332,1,0,0:0:0:0:
256,192,44499,1,0,0:0:0:0:
256,192,44582,1,0,0:0:0:0:
256,192,44666,1,0,0:0:0:0:
256,192,44832,1,0,0:0:0:0:
256,192,44999,1,8,0:0:0:0:
256,192,45332,1,0,0:0:0:0:
256,192,45666,1,12,0:0:0:0:
256,192,45999,1,4,0:0:0:0:
256,192,46332,1,4,0:0:0:0:
256,192,46582,1,4,0:0:0:0:
256,192,46832,1,8,0:0:0:0:
256,192,46999,1,0,0:0:0:0:
256,192,47166,1,8,0:0:0:0:
256,192,47332,1,0,0:0:0:0:
256,192,47499,1,0,0:0:0:0:
256,192,47582,1,0,0:0:0:0:
256,192,47666,1,8,0:0:0:0:
256,192,47916,1,8,0:0:0:0:
256,192,48166,1,8,0:0:0:0:
256,192,48249,1,8,0:0:0:0:
256,192,48332,1,0,0:0:0:0:
256,192,48499,1,8,0:0:0:0:
256,192,48666,1,0,0:0:0:0:
256,192,48832,1,8,0:0:0:0:
256,192,48999,1,0,0:0:0:0:
256,192,49166,1,8,0:0:0:0:
256,192,49249,1,0,0:0:0:0:
256,192,49499,1,8,0:0:0:0:
256,192,49666,1,0,0:0:0:0:
256,192,49999,1,0,0:0:0:0:
256,192,50332,1,8,0:0:0:0:
256,192,50499,1,0,0:0:0:0:
256,192,50582,1,0,0:0:0:0:
256,192,50666,1,8,0:0:0:0:
256,192,50749,1,8,0:0:0:0:
256,192,50832,1,0,0:0:0:0:
256,192,50999,1,0,0:0:0:0:
256,192,51332,1,8,0:0:0:0:
256,192,51666,1,0,0:0:0:0:
256,192,51832,1,8,0:0:0:0:
256,192,51916,1,0,0:0:0:0:
256,192,52082,1,8,0:0:0:0:
256,192,52166,1,0,0:0:0:0:
256,192,52332,1,0,0:0:0:0:
256,192,52666,1,0,0:0:0:0:
256,192,52999,1,8,0:0:0:0:
256,192,53166,1,0,0:0:0:0:
256,192,53249,1,8,0:0:0:0:
256,192,53416,1,0,0:0:0:0:
256,192,53499,1,8,0:0:0:0:
256,192,53666,1,0,0:0:0:0:
256,192,53999,1,0,0:0:0:0:
256,192,54166,1,8,0:0:0:0:
256,192,54332,1,0,0:0:0:0:
256,192,54582,1,0,0:0:0:0:
256,192,54832,1,0,0:0:0:0:
256,192,54999,1,0,0:0:0:0:
256,192,55166,1,8,0:0:0:0:
256,192,55332,1,0,0:0:0:0:
256,192,55499,1,8,0:0:0:0:
256,192,55666,1,0,0:0:0:0:
256,192,55916,1,0,0:0:0:0:
256,192,55999,1,0,0:0:0:0:
256,192,56166,1,0,0:0:0:0:
256,192,56332,1,12,0:0:0:0:
256,192,56666,1,8,0:0:0:0:
256,192,56832,1,8,0:0:0:0:
256,192,56999,1,0,0:0:0:0:
256,192,57166,1,8,0:0:0:0:
256,192,57249,1,8,0:0:0:0:
256,192,57332,1,0,0:0:0:0:
256,192,57499,1,8,0:0:0:0:
256,192,57666,1,0,0:0:0:0:
256,192,57832,1,8,0:0:0:0:
256,192,57999,1,8,0:0:0:0:
256,192,58166,1,0,0:0:0:0:
256,192,58249,1,0,0:0:0:0:
256,192,58332,1,8,0:0:0:0:
256,192,58499,1,0,0:0:0:0:
256,192,58582,1,8,0:0:0:0:
256,192,58832,1,8,0:0:0:0:
256,192,58916,1,8,0:0:0:0:
256,192,58999,1,0,0:0:0:0:
256,192,59499,1,0,0:0:0:0:
256,192,59582,1,0,0:0:0:0:
256,192,59666,1,0,0:0:0:0:
256,192,59832,1,0,0:0:0:0:
256,192,59999,1,8,0:0:0:0:
256,192,60332,1,0,0:0:0:0:
256,192,60499,1,8,0:0:0:0:
256,192,60666,1,0,0:0:0:0:
256,192,60832,1,8,0:0:0:0:
256,192,60999,1,0,0:0:0:0:
256,192,61166,1,8,0:0:0:0:
256,192,61249,1,8,0:0:0:0:
256,192,61333,1,0,0:0:0:0:
256,192,61416,1,0,0:0:0:0:
256,192,61499,1,8,0:0:0:0:
256,192,61666,1,0,0:0:0:0:
256,192,61999,1,8,0:0:0:0:
256,192,62166,1,0,0:0:0:0:
256,192,62332,5,0,0:0:0:0:
256,192,62416,1,0,0:0:0:0:
256,192,62499,1,8,0:0:0:0:
256,192,62582,1,0,0:0:0:0:
256,192,62666,1,8,0:0:0:0:
256,192,62832,1,8,0:0:0:0:
256,192,62999,1,0,0:0:0:0:
256,192,63332,1,8,0:0:0:0:
256,192,63499,1,0,0:0:0:0:
256,192,63666,1,0,0:0:0:0:
256,192,63749,1,8,0:0:0:0:
256,192,63832,1,8,0:0:0:0:
256,192,63916,1,8,0:0:0:0:
256,192,63999,1,0,0:0:0:0:
256,192,64166,1,8,0:0:0:0:
256,192,64332,5,0,0:0:0:0:
256,192,64666,1,8,0:0:0:0:
256,192,64832,1,0,0:0:0:0:
256,192,64999,5,0,0:0:0:0:
256,192,65082,1,0,0:0:0:0:
256,192,65166,1,8,0:0:0:0:
256,192,65249,1,8,0:0:0:0:
256,192,65332,1,0,0:0:0:0:
256,192,65499,1,8,0:0:0:0:
256,192,65666,1,0,0:0:0:0:
256,192,65832,1,8,0:0:0:0:
256,192,65999,1,0,0:0:0:0:
256,192,66166,1,8,0:0:0:0:
256,192,66332,1,0,0:0:0:0:
256,192,66416,1,0,0:0:0:0:
256,192,66499,1,8,0:0:0:0:
256,192,66582,1,8,0:0:0:0:
256,192,66999,5,4,0:0:0:0:
256,192,67332,1,8,0:0:0:0:
256,192,67666,1,0,0:0:0:0:
256,192,67832,1,0,0:0:0:0:
256,192,67916,1,0,0:0:0:0:
256,192,68166,1,8,0:0:0:0:
256,192,68332,1,0,0:0:0:0:
256,192,68666,1,8,0:0:0:0:
256,192,68999,1,0,0:0:0:0:
256,192,69166,1,8,0:0:0:0:
256,192,69249,1,8,0:0:0:0:
256,192,69499,1,8,0:0:0:0:
256,192,69666,1,0,0:0:0:0:
256,192,69999,1,8,0:0:0:0:
256,192,70332,1,0,0:0:0:0:
256,192,70499,1,0,0:0:0:0:
256,192,70582,1,0,0:0:0:0:
256,192,70832,1,8,0:0:0:0:
256,192,70999,1,0,0:0:0:0:
256,192,71166,1,0,0:0:0:0:
256,192,71249,1,0,0:0:0:0:
256,192,71499,1,0,0:0:0:0:
256,192,71666,1,0,0:0:0:0:
256,192,71832,1,0,0:0:0:0:
256,192,71916,1,8,0:0:0:0:
256,192,72166,1,8,0:0:0:0:
256,192,72332,1,0,0:0:0:0:
256,192,72666,1,8,0:0:0:0:
256,192,72999,1,0,0:0:0:0:
256,192,73166,1,8,0:0:0:0:
256,192,73249,1,8,0:0:0:0:
256,192,73499,1,8,0:0:0:0:
256,192,73666,1,0,0:0:0:0:
256,192,73999,1,8,0:0:0:0:
256,192,74332,1,0,0:0:0:0:
256,192,74499,1,0,0:0:0:0:
256,192,74582,1,0,0:0:0:0:
256,192,74832,1,8,0:0:0:0:
256,192,74999,1,0,0:0:0:0:
256,192,75332,1,8,0:0:0:0:
256,192,75666,1,0,0:0:0:0:
256,192,75832,1,8,0:0:0:0:
256,192,75916,1,8,0:0:0:0:
256,192,76166,1,8,0:0:0:0:
256,192,76332,1,0,0:0:0:0:
256,192,76416,1,0,0:0:0:0:
256,192,76499,1,0,0:0:0:0:
256,192,76666,1,8,0:0:0:0:
256,192,76749,1,8,0:0:0:0:
256,192,76832,1,0,0:0:0:0:
256,192,76999,1,0,0:0:0:0:
256,192,77166,1,0,0:0:0:0:
256,192,77249,1,8,0:0:0:0:
256,192,77499,1,8,0:0:0:0:
256,192,77666,1,0,0:0:0:0:
256,192,77999,1,0,0:0:0:0:
256,192,78166,1,8,0:0:0:0:
256,192,78332,1,0,0:0:0:0:
256,192,78499,1,0,0:0:0:0:
256,192,78582,1,0,0:0:0:0:
256,192,78832,1,8,0:0:0:0:
256,192,78999,1,0,0:0:0:0:
256,192,79332,1,0,0:0:0:0:
256,192,79499,1,8,0:0:0:0:
256,192,79666,1,0,0:0:0:0:
256,192,79832,1,8,0:0:0:0:
256,192,79916,1,8,0:0:0:0:
256,192,80166,1,8,0:0:0:0:
256,192,80332,1,0,0:0:0:0:
256,192,80666,1,0,0:0:0:0:
256,192,80832,1,8,0:0:0:0:
256,192,80999,1,0,0:0:0:0:
256,192,81166,1,0,0:0:0:0:
256,192,81249,1,0,0:0:0:0:
256,192,81499,1,8,0:0:0:0:
256,192,81666,1,0,0:0:0:0:
256,192,81999,1,0,0:0:0:0:
256,192,82166,1,8,0:0:0:0:
256,192,82332,1,0,0:0:0:0:
256,192,82499,1,8,0:0:0:0:
256,192,82582,1,0,0:0:0:0:
256,192,82832,1,8,0:0:0:0:
256,192,82999,1,4,0:0:0:0:
256,192,83332,1,0,0:0:0:0:
256,192,83499,1,8,0:0:0:0:
256,192,83666,1,0,0:0:0:0:
256,192,83832,1,0,0:0:0:0:
256,192,83916,1,0,0:0:0:0:
256,192,84166,1,8,0:0:0:0:
256,192,84332,1,0,0:0:0:0:
256,192,84666,1,0,0:0:0:0:
256,192,84832,1,8,0:0:0:0:
256,192,84999,1,0,0:0:0:0:
256,192,85166,1,8,0:0:0:0:
256,192,85249,1,8,0:0:0:0:
256,192,85499,1,8,0:0:0:0:
256,192,85666,1,0,0:0:0:0:
256,192,85999,1,0,0:0:0:0:
256,192,86166,1,8,0:0:0:0:
256,192,86332,1,0,0:0:0:0:
256,192,86499,1,0,0:0:0:0:
256,192,86582,1,0,0:0:0:0:
256,192,86832,1,8,0:0:0:0:
256,192,86999,1,0,0:0:0:0:
256,192,87249,1,0,0:0:0:0:
256,192,87332,1,8,0:0:0:0:
256,192,87499,1,8,0:0:0:0:
256,192,87666,1,0,0:0:0:0:
256,192,87832,1,8,0:0:0:0:
256,192,87999,1,0,0:0:0:0:
256,192,88332,5,4,0:0:0:0:
256,192,88499,1,0,0:0:0:0:
256,192,88666,1,8,0:0:0:0:
256,192,88999,1,8,0:0:0:0:
256,192,89082,1,8,0:0:0:0:
256,192,89166,1,0,0:0:0:0:
256,192,89332,1,8,0:0:0:0:
256,192,89499,1,0,0:0:0:0:
256,192,89832,1,0,0:0:0:0:
256,192,89999,1,8,0:0:0:0:
256,192,90332,1,0,0:0:0:0:
256,192,90666,1,12,0:0:0:0:
256,192,90999,1,0,0:0:0:0:
256,192,91110,1,0,0:0:0:0:
256,192,91221,1,0,0:0:0:0:
256,192,91332,1,0,0:0:0:0:
256,192,91444,1,0,0:0:0:0:
256,192,91555,1,0,0:0:0:0:
256,192,91666,1,0,0:0:0:0:
256,192,91999,1,12,0:0:0:0:
256,192,92332,12,0,93666,0:0:0:0:
