osu file format v14

[General]
AudioFilename: natuiro.mp3
AudioLeadIn: 0
PreviewTime: 56332
Countdown: 0
SampleSet: Normal
StackLeniency: 0.7
Mode: 1
LetterboxInBreaks: 0
WidescreenStoryboard: 0

[Editor]
DistanceSpacing: 0.8
BeatDivisor: 4
GridSize: 32
TimelineZoom: 2.2

[Metadata]
Title:Natsuiro Present o BPM180 ni Shitemita
TitleUnicode:夏色プレゼントをBPM180にしてみた
Artist:Sara
ArtistUnicode:皿
Creator:snowball112
Version:Kantan
Source:ヤマノススメ セカンドシーズン
Tags:yama no susume encouragement of climb opening theme second season remix
BeatmapID:1112373
BeatmapSetID:524050

[Difficulty]
HPDrainRate:7
CircleSize:2
OverallDifficulty:3
ApproachRate:0
SliderMultiplier:1.4
SliderTickRate:1

[Events]
//Background and Video events
0,0,"natsu bg.jpg",0,55
//Break Periods
//Storyboard Layer 0 (Background)
//Storyboard Layer 1 (Fail)
//Storyboard Layer 2 (Pass)
//Storyboard Layer 3 (Foreground)
//Storyboard Sound Samples

[TimingPoints]
333,333.333333333333,4,1,0,90,1,0
45666,-100,4,1,0,100,0,1
66999,-100,4,1,0,90,0,0
92332,-100,4,1,0,80,0,0
92666,-100,4,1,0,70,0,0
92999,-100,4,1,0,60,0,0
93332,-100,4,1,0,50,0,0

[HitObjects]
256,192,1666,5,4,0:0:0:0:
256,192,2332,1,0,0:0:0:0:
256,192,2999,1,0,0:0:0:0:
256,192,3332,1,0,0:0:0:0:
256,192,3666,1,0,0:0:0:0:
256,192,4332,1,8,0:0:0:0:
256,192,4999,1,8,0:0:0:0:
256,192,5666,1,0,0:0:0:0:
256,192,6999,1,4,0:0:0:0:
256,192,7666,1,8,0:0:0:0:
256,192,8332,1,0,0:0:0:0:
256,192,8666,1,0,0:0:0:0:
256,192,8999,1,0,0:0:0:0:
256,192,9666,1,8,0:0:0:0:
256,192,10332,1,8,0:0:0:0:
256,192,10999,1,0,0:0:0:0:
256,192,12332,1,8,0:0:0:0:
256,192,12999,1,8,0:0:0:0:
256,192,13666,1,0,0:0:0:0:
256,192,14999,1,0,0:0:0:0:
256,192,15666,1,8,0:0:0:0:
256,192,16332,1,0,0:0:0:0:
256,192,17666,1,8,0:0:0:0:
256,192,18332,1,8,0:0:0:0:
256,192,18999,1,4,0:0:0:0:
256,192,20332,1,0,0:0:0:0:
256,192,20999,1,8,0:0:0:0:
256,192,21666,1,0,0:0:0:0:
256,192,22999,1,8,0:0:0:0:
256,192,23666,1,8,0:0:0:0:
256,192,24332,1,4,0:0:0:0:
256,192,25666,1,0,0:0:0:0:
256,192,26999,1,0,0:0:0:0:
256,192,27666,1,0,0:0:0:0:
256,192,28332,1,8,0:0:0:0:
256,192,28999,1,8,0:0:0:0:
256,192,29666,1,4,0:0:0:0:
256,192,30666,1,8,0:0:0:0:
256,192,30999,1,0,0:0:0:0:
256,192,31999,1,8,0:0:0:0:
256,192,32332,5,0,0:0:0:0:
256,192,32999,1,0,0:0:0:0:
256,192,33666,1,8,0:0:0:0:
256,192,34332,1,8,0:0:0:0:
256,192,34999,5,4,0:0:0:0:
256,192,35999,1,8,0:0:0:0:
256,192,36332,1,0,0:0:0:0:
256,192,37332,1,0,0:0:0:0:
256,192,37666,1,8,0:0:0:0:
256,192,38332,5,0,0:0:0:0:
256,192,38999,1,0,0:0:0:0:
256,192,39666,1,8,0:0:0:0:
256,192,40332,5,4,0:0:0:0:
256,192,41666,1,8,0:0:0:0:
256,192,42999,1,8,0:0:0:0:
256,192,43666,1,8,0:0:0:0:
256,192,44332,1,0,0:0:0:0:
256,192,44666,1,0,0:0:0:0:
256,192,44999,1,8,0:0:0:0:
256,192,45666,1,12,0:0:0:0:
256,192,46332,1,4,0:0:0:0:
256,192,46999,1,0,0:0:0:0:
256,192,47332,1,0,0:0:0:0:
256,192,47666,1,8,0:0:0:0:
256,192,48332,1,0,0:0:0:0:
256,192,49666,1,0,0:0:0:0:
256,192,49999,1,0,0:0:0:0:
256,192,50332,1,8,0:0:0:0:
256,192,50666,1,8,0:0:0:0:
256,192,50999,1,0,0:0:0:0:
256,192,51666,1,0,0:0:0:0:
256,192,52332,1,0,0:0:0:0:
256,192,52666,1,0,0:0:0:0:
256,192,52999,1,8,0:0:0:0:
256,192,53666,1,0,0:0:0:0:
256,192,54999,1,8,0:0:0:0:
256,192,55332,1,8,0:0:0:0:
256,192,55666,1,8,0:0:0:0:
256,192,56332,1,12,0:0:0:0:
256,192,56999,1,0,0:0:0:0:
256,192,57666,1,0,0:0:0:0:
256,192,57999,1,8,0:0:0:0:
256,192,58332,1,0,0:0:0:0:
256,192,58999,1,0,0:0:0:0:
256,192,60332,1,0,0:0:0:0:
256,192,60666,1,0,0:0:0:0:
256,192,60999,1,8,0:0:0:0:
256,192,61332,1,8,0:0:0:0:
256,192,61666,1,0,0:0:0:0:
256,192,62332,5,8,0:0:0:0:
256,192,62999,1,0,0:0:0:0:
256,192,63332,1,0,0:0:0:0:
256,192,63666,1,8,0:0:0:0:
256,192,64332,5,0,0:0:0:0:
256,192,65666,1,8,0:0:0:0:
256,192,65999,1,8,0:0:0:0:
256,192,66332,1,8,0:0:0:0:
256,192,66999,5,4,0:0:0:0:
256,192,68332,1,0,0:0:0:0:
256,192,68999,1,8,0:0:0:0:
256,192,69666,1,0,0:0:0:0:
256,192,70999,1,8,0:0:0:0:
256,192,71666,1,8,0:0:0:0:
256,192,72332,1,0,0:0:0:0:
256,192,73666,1,0,0:0:0:0:
256,192,74332,1,8,0:0:0:0:
256,192,74999,1,0,0:0:0:0:
256,192,76332,1,8,0:0:0:0:
256,192,76999,1,8,0:0:0:0:
256,192,77666,1,0,0:0:0:0:
256,192,78999,1,0,0:0:0:0:
256,192,79332,1,0,0:0:0:0:
256,192,79666,1,0,0:0:0:0:
256,192,80332,1,8,0:0:0:0:
256,192,80666,1,8,0:0:0:0:
256,192,80999,1,8,0:0:0:0:
256,192,81666,1,0,0:0:0:0:
256,192,82332,1,8,0:0:0:0:
256,192,82999,1,4,0:0:0:0:
256,192,84332,1,8,0:0:0:0:
256,192,84666,1,8,0:0:0:0:
256,192,84999,1,8,0:0:0:0:
256,192,85666,1,0,0:0:0:0:
256,192,85999,1,0,0:0:0:0:
256,192,86332,1,0,0:0:0:0:
256,192,86999,1,0,0:0:0:0:
256,192,87666,1,8,0:0:0:0:
256,192,88332,5,4,0:0:0:0:
256,192,89666,1,0,0:0:0:0:
256,192,89999,1,8,0:0:0:0:
256,192,90332,1,0,0:0:0:0:
256,192,90999,1,0,0:0:0:0:
256,192,91999,1,12,0:0:0:0:
256,192,92332,12,0,93666,0:0:0:0:
