osu file format v14

[General]
AudioFilename: saosin collapse.mp3
AudioLeadIn: 0
PreviewTime: 10906
Countdown: 0
SampleSet: Normal
StackLeniency: 0.7
Mode: 0
LetterboxInBreaks: 0
WidescreenStoryboard: 0

[Editor]
Bookmarks: 10496,31160,62976,73308,83804,117425,118245,122673,123493,125871,127921,128741,133169,133989
DistanceSpacing: 0.9
BeatDivisor: 4
GridSize: 4
TimelineZoom: 1.9

[Metadata]
Title:Collapse
TitleUnicode:Collapse
Artist:Saosin
ArtistUnicode:Saosin
Creator:pishifat
Version:Extra
Source:
Tags:metal punk burnout paradise mx_vs_atv capitol post hardcore alternative
BeatmapID:733550
BeatmapSetID:331082

[Difficulty]
HPDrainRate:7
CircleSize:4.2
OverallDifficulty:8.6
ApproachRate:9.2
SliderMultiplier:1.8
SliderTickRate:1

[Events]
//Background and Video events
0,0,"o.jpg",0,0
//Break Periods
//Storyboard Layer 0 (Background)
//Storyboard Layer 1 (Fail)
//Storyboard Layer 2 (Pass)
//Storyboard Layer 3 (Foreground)
//Storyboard Sound Samples

[TimingPoints]
1312,328.0032800328,4,1,1,60,1,0
1312,-133.333333333333,4,1,1,60,0,0
1968,-117.647058823529,4,1,1,60,0,0
2296,-133.333333333333,4,1,1,60,0,0
3280,-117.647058823529,4,1,1,60,0,0
3608,-133.333333333333,4,1,1,60,0,0
4264,-117.647058823529,4,1,1,60,0,0
4920,-133.333333333333,4,1,1,60,0,0
5412,-117.647058823529,4,1,1,60,0,0
6560,-105.263157894737,4,1,1,70,0,0
7872,-95.2380952380954,4,1,1,70,0,0
8200,-105.263157894737,4,1,1,70,0,0
8528,-95.2380952380954,4,1,1,70,0,0
8856,-105.263157894737,4,1,1,70,0,0
10332,-105.263157894737,4,1,1,55,0,0
11808,-113.636363636364,4,1,1,60,0,0
12464,-102.040816326531,4,1,1,60,0,0
12792,-113.636363636364,4,1,1,60,0,0
15088,-102.040816326531,4,1,1,60,0,0
15416,-113.636363636364,4,1,1,60,0,0
16400,-100,4,1,1,60,0,0
16728,-113.636363636364,4,1,1,60,0,0
20008,-100,4,1,1,60,0,0
20664,-113.636363636364,4,1,1,60,0,0
22960,-102.040816326531,4,1,1,60,0,0
23288,-113.636363636364,4,1,1,60,0,0
24272,-100,4,1,1,60,0,0
24600,-113.636363636364,4,1,1,60,0,0
25584,-102.040816326531,4,1,1,60,0,0
25912,-113.636363636364,4,1,1,60,0,0
26896,-100,4,1,1,60,0,0
27224,-113.636363636364,4,1,1,60,0,0
31160,-113.636363636364,4,1,1,50,0,0
31816,-113.636363636364,4,1,1,60,0,0
33456,-102.040816326531,4,1,1,60,0,0
33784,-113.636363636364,4,1,1,60,0,0
36080,-102.040816326531,4,1,1,60,0,0
36408,-113.636363636364,4,1,1,60,0,0
41000,-105.263157894737,4,1,1,60,0,0
41656,-113.636363636364,4,1,1,60,0,0
42148,-128.205128205129,4,1,1,60,0,0
43296,-103.092783505155,4,1,1,70,0,1
48216,-93.4579439252339,4,1,1,70,0,1
48544,-103.092783505155,4,1,1,70,0,1
59040,-113.636363636364,4,1,1,70,0,1
62976,-105.263157894737,4,1,1,55,0,1
64288,-113.636363636364,4,1,1,60,0,0
64780,-102.040816326531,4,1,1,60,0,0
65108,-113.636363636364,4,1,1,60,0,0
66256,-100,4,1,1,60,0,0
66584,-113.636363636364,4,1,1,60,0,0
71504,-100,4,1,1,60,0,0
71832,-113.636363636364,4,1,1,60,0,0
73472,-105.263157894737,4,1,1,50,0,0
74784,-113.636363636364,4,1,1,60,0,0
75276,-102.040816326531,4,1,1,60,0,0
75604,-113.636363636364,4,1,1,60,0,0
76752,-100,4,1,1,60,0,0
77080,-113.636363636364,4,1,1,60,0,0
82000,-100,4,1,1,60,0,0
82328,-113.636363636364,4,1,1,60,0,0
83968,-105.263157894737,4,1,1,50,0,0
85280,-113.636363636364,4,1,1,60,0,0
95120,-149.253731343284,4,1,1,60,0,0
95776,-103.092783505155,4,1,1,70,0,1
100696,-93.4579439252339,4,1,1,70,0,1
101024,-103.092783505155,4,1,1,70,0,1
111521,-113.636363636364,4,1,1,70,0,1
116769,-120.481927710843,4,1,1,60,0,0
117261,-107.52688172043,4,1,1,60,0,0
117425,-120.481927710843,4,1,1,45,0,0
117671,-120.481927710843,4,1,1,60,0,0
118409,-120.481927710843,4,1,1,50,0,0
119065,-120.481927710843,4,1,1,60,0,0
119721,-136.986301369862,4,1,1,60,0,0
120705,-120.481927710843,4,1,1,60,0,0
122509,-107.52688172043,4,1,1,60,0,0
122673,-120.481927710843,4,1,1,45,0,0
122919,-120.481927710843,4,1,1,60,0,0
123657,-120.481927710843,4,1,1,50,0,0
124313,-120.481927710843,4,1,1,60,0,0
124969,-136.986301369862,4,1,1,60,0,0
125953,-105.263157894737,4,1,1,50,0,0
127265,-120.481927710843,4,1,1,60,0,0
127757,-107.52688172043,4,1,1,60,0,0
127921,-120.481927710843,4,1,1,45,0,0
128167,-120.481927710843,4,1,1,60,0,0
128905,-120.481927710843,4,1,1,50,0,0
129561,-120.481927710843,4,1,1,60,0,0
130217,-136.986301369862,4,1,1,60,0,0
131201,-120.481927710843,4,1,1,60,0,0
133005,-107.52688172043,4,1,1,60,0,0
133169,-120.481927710843,4,1,1,45,0,0
133415,-120.481927710843,4,1,1,60,0,0
134153,-120.481927710843,4,1,1,50,0,0
134809,-120.481927710843,4,1,1,60,0,0
135465,-136.986301369862,4,1,1,60,0,0
136449,-120.481927710843,4,1,1,60,0,0
137105,-103.092783505155,4,1,1,60,0,0
138007,-103.092783505155,4,2,1,5,0,0

[Colours]
Combo1 : 190,190,190
Combo2 : 164,164,147
Combo3 : 139,160,169
Combo4 : 137,156,122
SliderBorder : 90,95,120
SliderTrackOverride : 20,20,20

[HitObjects]
211,120,1312,5,6,0:0:0:0:
247,226,1476,1,2,0:0:0:0:
319,54,1640,1,2,0:0:0:0:
257,240,1804,1,2,0:0:0:0:
124,88,1968,6,0,L|28:82,1,76.5000014591217,8|2,0:0|0:0,0:0:0:0:
139,182,2296,2,0,P|105:188|73:198,1,67.5000025749208
164,306,2624,6,0,L|240:314,2,67.5000025749208
71,343,3116,1,2,0:0:0:0:
236,210,3280,2,0,P|297:200|334:201,1,76.5000014591217,8|2,0:0|0:0,0:0:0:0:
296,114,3608,2,0,L|371:123,1,67.5000025749208
290,285,3936,5,2,0:0:0:0:
168,37,4100,1,2,0:0:0:0:
376,131,4264,2,0,L|469:124,1,76.5000014591217,8|2,0:0|0:0,0:0:0:0:
178,51,4592,2,0,L|85:44,1,76.5000014591217,8|2,0:0|0:0,0:0:0:0:
186,135,4920,2,0,P|149:144|116:158,1,67.5000025749208
66,356,5248,5,2,0:0:0:0:
66,356,5412,2,0,L|169:351,1,76.5000014591217,8|2,0:0|0:0,0:0:0:0:
265,215,5740,1,0,0:2:0:0:
83,269,5904,1,8,0:0:0:0:
56,264,5986,1,8,0:0:0:0:
29,261,6068,1,2,0:0:0:0:
243,305,6232,1,8,0:0:0:0:
273,301,6314,1,8,0:0:0:0:
303,297,6396,1,2,0:0:0:0:
147,186,6560,6,0,B|140:120|140:120|150:84|150:84|141:11,1,170.999995433807,6|0,0:0|0:0,0:0:0:0:
35,78,7052,1,2,0:0:0:0:
158,198,7216,2,0,P|196:208|247:209,1,85.4999977169037
374,101,7544,1,2,0:0:0:0:
374,101,7708,1,2,0:0:0:0:
281,331,7872,6,0,L|177:335,1,94.499997116089,8|0,0:0|0:0,0:0:0:0:
315,168,8200,1,2,0:0:0:0:
332,175,8282,1,0,0:0:0:0:
347,186,8364,1,0,0:0:0:0:
359,200,8446,1,0,0:0:0:0:
368,216,8528,2,0,B|405:221|405:221|470:208,1,94.499997116089,8|0,0:0|0:0,0:0:0:0:
251,43,8856,1,0,0:0:0:0:
292,246,9020,1,8,0:0:0:0:
253,264,9102,1,8,0:0:0:0:
210,268,9184,6,0,B|176:260|176:260|98:251,1,85.4999977169037,2|0,0:0|0:0,0:0:0:0:
279,355,9512,1,2,0:0:0:0:
224,182,9676,1,8,0:0:0:0:
184,384,9840,1,0,0:0:0:0:
364,319,10004,1,2,0:0:0:0:
125,254,10168,1,8,0:0:0:0:
277,121,10332,1,2,0:0:0:0:
300,125,10414,1,2,0:0:0:0:
319,134,10496,5,8,0:3:0:0:
350,156,10578,1,8,0:3:0:0:
388,160,10660,1,8,0:3:0:0:
424,148,10742,1,8,0:3:0:0:
444,121,10824,5,4,0:3:0:0:
453,88,10906,1,4,0:3:0:0:
447,54,10988,1,4,0:3:0:0:
425,27,11070,1,4,0:3:0:0:
385,11,11152,5,8,0:3:0:0:
352,39,11234,1,8,0:3:0:0:
366,79,11316,1,8,0:3:0:0:
397,107,11398,1,8,0:3:0:0:
424,148,11480,5,8,0:0:0:0:
416,194,11562,1,8,0:0:0:0:
383,228,11644,1,8,0:0:0:0:
336,232,11726,1,8,0:0:0:0:
291,210,11808,6,0,P|252:206|110:200,1,158.400004833984,6|2,0:0|0:0,0:0:0:0:
48,264,12300,1,0,0:0:0:0:
330,327,12464,2,0,P|298:312|244:297,1,88.1999991925049,8|0,0:0|0:0,0:0:0:0:
132,359,12792,1,2,0:0:0:0:
132,359,12956,1,0,0:0:0:0:
160,149,13120,5,0,0:0:0:0:
333,246,13284,2,0,L|430:250,1,79.2000024169922,2|2,0:0|0:0,0:0:0:0:
222,68,13612,1,0,0:0:0:0:
230,264,13776,1,8,0:0:0:0:
230,264,13940,1,2,0:0:0:0:
393,155,14104,2,0,P|445:145|489:145,1,79.2000024169922,2|0,0:0|0:0,0:0:0:0:
315,329,14432,6,0,L|308:148,1,158.400004833984,2|2,0:0|0:0,0:0:0:0:
231,77,14924,1,0,0:0:0:0:
486,253,15088,2,0,P|451:238|377:224,1,88.1999991925049,8|0,0:0|0:0,0:0:0:0:
262,263,15416,1,2,0:0:0:0:
262,263,15580,1,0,0:0:0:0:
471,144,15744,5,0,0:0:0:0:
410,329,15908,2,0,L|326:339,1,79.2000024169922,2|2,0:0|0:0,0:0:0:0:
504,245,16236,1,0,0:0:0:0:
318,160,16400,2,0,P|269:154|214:150,1,90,8|2,0:0|0:0,0:0:0:0:
485,137,16728,1,2,0:0:0:0:
399,75,16892,1,0,0:0:0:0:
290,269,17056,6,0,P|196:281|107:301,1,158.400004833984,6|2,0:0|0:0,0:0:0:0:
133,294,17548,1,0,0:0:0:0:
239,152,17712,1,8,0:0:0:0:
270,384,17876,1,8,0:0:0:0:
160,208,18040,5,6,0:0:0:0:
362,352,18204,2,0,L|457:357,1,79.2000024169922,2|0,0:0|0:0,0:0:0:0:
243,168,18532,1,8,0:0:0:0:
219,306,18696,1,0,0:0:0:0:
362,261,18860,1,2,0:0:0:0:
205,318,19024,2,0,L|108:310,1,79.2000024169922,2|0,0:0|0:0,0:0:0:0:
33,78,19352,6,0,P|50:158|64:272,1,158.400004833984,6|2,0:0|0:0,0:0:0:0:
31,331,19844,1,0,0:0:0:0:
155,85,20008,2,0,B|196:68|196:68|262:53,1,90,8|0,0:0|0:0,0:0:0:0:
157,224,20336,2,0,B|189:194|189:194|246:157,1,90,8|0,0:0|0:0,0:0:0:0:
411,227,20664,5,2,0:0:0:0:
411,227,20828,2,0,L|317:220,1,79.2000024169922,2|0,0:0|0:0,0:0:0:0:
483,334,21156,1,8,0:0:0:0:
250,293,21320,1,8,0:0:0:0:
250,293,21484,1,2,0:0:0:0:
359,107,21648,5,2,0:0:0:0:
349,316,21812,1,8,0:0:0:0:
260,76,21976,1,8,0:0:0:0:
411,227,22140,1,2,0:0:0:0:
158,244,22304,6,0,P|85:234|-21:229,1,158.400004833984,6|2,0:0|0:0,0:0:0:0:
0,229,22796,1,0,0:0:0:0:
263,142,22960,2,0,P|223:150|164:166,1,88.1999991925049,8|0,0:0|0:0,0:0:0:0:
80,283,23288,1,2,0:0:0:0:
80,283,23452,1,0,0:0:0:0:
92,118,23616,5,0,0:0:0:0:
254,242,23780,2,0,L|362:248,1,79.2000024169922,2|2,0:0|0:0,0:0:0:0:
85,132,24108,1,0,0:0:0:0:
320,71,24272,2,0,P|376:79|428:106,1,90,8|2,0:0|0:0,0:0:0:0:
190,15,24600,2,0,L|105:24,1,79.2000024169922,2|0,0:0|0:0,0:0:0:0:
244,260,24928,6,0,P|238:187|225:80,1,158.400004833984,2|2,0:0|0:0,0:0:0:0:
228,102,25420,1,0,0:0:0:0:
171,342,25584,2,0,P|151:284|133:246,1,88.1999991925049,8|0,0:0|0:0,0:0:0:0:
26,173,25912,1,2,0:0:0:0:
26,173,26076,1,0,0:0:0:0:
74,376,26240,5,0,0:0:0:0:
184,187,26404,2,0,L|289:179,1,79.2000024169922,2|2,0:0|0:0,0:0:0:0:
52,259,26732,1,0,0:0:0:0:
240,91,26896,2,0,P|276:93|350:107,1,90,8|2,0:0|0:0,0:0:0:0:
101,140,27224,1,2,0:0:0:0:
158,48,27388,1,0,0:0:0:0:
325,252,27552,6,0,P|423:237|519:228,1,158.400004833984,6|2,0:0|0:0,0:0:0:0:
481,230,28044,1,0,0:0:0:0:
390,342,28208,1,8,0:0:0:0:
404,133,28372,1,8,0:0:0:0:
375,354,28536,5,6,0:0:0:0:
310,239,28700,2,0,P|250:225|203:223,1,79.2000024169922,2|0,0:0|0:0,0:0:0:0:
68,320,29028,1,8,0:0:0:0:
180,301,29192,1,0,0:0:0:0:
33,185,29356,1,2,0:0:0:0:
201,118,29520,1,2,0:0:0:0:
74,304,29684,1,8,0:0:0:0:
326,231,29848,6,0,B|337:173|337:173|332:140|332:140|346:59,1,158.400004833984,6|2,0:0|0:0,0:0:0:0:
343,74,30340,1,0,0:0:0:0:
264,303,30504,1,8,0:0:0:0:
188,127,30668,1,0,0:0:0:0:
252,317,30832,1,8,0:0:0:0:
341,243,30996,1,0,0:0:0:0:
129,207,31160,5,8,0:0:0:0:
93,212,31242,1,8,0:3:0:0:
57,217,31324,1,4,0:3:0:0:
21,223,31406,1,4,0:3:0:0:
40,179,31488,5,8,0:3:0:0:
76,173,31570,1,8,0:3:0:0:
112,168,31652,1,4,0:3:0:0:
148,163,31734,1,4,0:3:0:0:
176,202,31816,5,8,0:0:0:0:
161,27,31980,1,2,0:3:0:0:
199,310,32144,5,8,0:0:0:0:
288,84,32308,1,8,0:0:0:0:
235,326,32472,1,8,0:0:0:0:
247,95,32636,1,8,0:0:0:0:
354,360,32800,6,0,P|444:368|518:377,1,158.400004833984,6|4,0:0|0:2,0:0:0:0:
511,376,33292,1,0,0:0:0:0:
271,243,33456,2,0,P|320:229|376:222,1,88.1999991925049,8|0,0:0|0:0,0:0:0:0:
496,247,33784,1,2,0:0:0:0:
496,247,33948,1,0,0:0:0:0:
340,92,34112,5,0,0:0:0:0:
256,255,34276,2,0,L|171:262,1,79.2000024169922,2|2,0:0|0:0,0:0:0:0:
379,305,34604,1,0,0:0:0:0:
255,136,34768,1,8,0:0:0:0:
255,136,34932,1,2,0:0:0:0:
96,207,35096,2,0,P|38:201|4:192,1,79.2000024169922,2|0,0:0|0:0,0:0:0:0:
215,359,35424,6,0,P|209:280|201:201,1,158.400004833984,2|2,0:0|0:0,0:0:0:0:
134,119,35916,1,0,0:0:0:0:
310,262,36080,2,0,P|320:206|321:170,1,88.1999991925049,8|0,0:0|0:0,0:0:0:0:
304,51,36408,1,2,0:0:0:0:
304,51,36572,1,0,0:0:0:0:
415,217,36736,5,0,0:0:0:0:
220,137,36900,2,0,L|106:132,1,79.2000024169922,2|2,0:0|0:0,0:0:0:0:
304,51,37228,1,0,0:0:0:0:
310,262,37392,1,8,0:0:0:0:
366,141,37556,1,2,0:0:0:0:
295,274,37720,2,0,P|260:279|207:281,1,79.2000024169922,2|0,0:0|0:0,0:0:0:0:
94,94,38048,6,0,P|181:105|260:122,1,158.400004833984,6|0,0:0|0:0,0:0:0:0:
329,346,38540,2,0,B|309:291|309:291|319:188,1,158.400004833984,2|0,0:0|0:0,0:0:0:0:
439,82,39032,1,2,0:0:0:0:
342,99,39196,1,2,0:0:0:0:
502,275,39360,6,0,P|442:268|324:264,1,158.400004833984,12|2,0:0|0:0,0:0:0:0:
330,272,39770,1,0,0:0:0:0:
316,280,39852,1,0,0:0:0:0:
301,287,39934,1,0,0:0:0:0:
287,295,40016,2,0,B|242:306|242:306|113:286,1,158.400004833984,8|0,0:0|0:0,0:0:0:0:
242,93,40508,1,8,0:0:0:0:
242,93,40590,1,8,0:0:0:0:
242,93,40672,6,0,P|160:78|129:77,1,79.2000024169922,6|0,0:0|0:0,0:0:0:0:
23,165,41000,2,0,L|120:158,1,85.4999977169037,8|0,0:0|0:0,0:0:0:0:
293,203,41328,2,0,L|200:209,1,85.4999977169037,8|0,0:0|0:0,0:0:0:0:
70,69,41656,1,2,0:0:0:0:
70,69,41820,1,2,0:0:0:0:
52,248,41984,5,0,0:0:0:0:
242,93,42148,2,0,P|309:85|407:85,1,140.400004713135,8|2,0:0|0:0,0:0:0:0:
512,234,42640,1,8,0:0:0:0:
473,229,42722,1,8,0:0:0:0:
434,224,42804,1,2,0:0:0:0:
269,350,42968,1,8,0:0:0:0:
302,371,43050,1,8,0:0:0:0:
341,373,43132,1,2,0:0:0:0:
378,362,43214,1,2,0:0:0:0:
403,332,43296,6,0,B|407:276|407:276|392:224|392:224|395:159,1,174.600004129486,6|0,0:0|0:0,0:0:0:0:
395,159,43788,1,2,0:0:0:0:
325,291,43952,1,8,0:0:0:0:
482,207,44116,1,2,0:0:0:0:
337,97,44280,2,0,P|295:83|238:80,1,87.3000020647431,0|2,0:0|0:0,0:0:0:0:
143,228,44608,6,0,L|147:315,1,87.3000020647431,2|2,0:0|0:0,0:0:0:0:
52,105,44936,2,0,L|57:18,1,87.3000020647431,0|2,0:0|0:0,0:0:0:0:
243,184,45264,1,8,0:0:0:0:
272,71,45428,1,2,0:0:0:0:
130,213,45592,2,0,P|71:220|22:219,1,87.3000020647431,0|2,0:0|0:0,0:0:0:0:
262,85,45920,6,0,P|346:93|445:113,1,174.600004129486,2|0,0:0|0:0,0:0:0:0:
475,213,46412,1,2,0:0:0:0:
352,0,46576,1,8,0:0:0:0:
352,0,46740,1,2,0:0:0:0:
376,196,46904,2,0,L|380:299,1,87.3000020647431,0|2,0:0|0:0,0:0:0:0:
188,254,47232,6,0,P|192:216|214:161,1,87.3000020647431,2|2,0:0|0:0,0:0:0:0:
258,365,47560,2,0,B|222:375|222:375|136:366,1,87.3000020647431,0|2,0:0|0:0,0:0:0:0:
0,221,47888,1,8,0:0:0:0:
43,347,48052,1,2,0:0:0:0:
95,140,48216,2,0,L|86:25,1,96.2999970611573,0|2,0:0|0:0,0:0:0:0:
196,239,48544,6,0,P|311:217|384:212,1,174.600004129486,6|2,0:0|0:0,0:0:0:0:
475,287,49036,1,2,0:0:0:0:
313,87,49200,1,8,0:0:0:0:
275,193,49364,1,2,0:0:0:0:
429,75,49528,2,0,L|537:66,1,87.3000020647431,0|2,0:0|0:0,0:0:0:0:
258,203,49856,6,0,P|214:195|160:164,1,87.3000020647431,2|2,0:0|0:0,0:0:0:0:
444,213,50184,2,0,P|459:262|456:331,1,87.3000020647431,0|2,0:0|0:0,0:0:0:0:
383,64,50512,1,8,0:0:0:0:
383,64,50676,1,2,0:0:0:0:
335,276,50840,2,0,L|213:287,1,87.3000020647431,0|2,0:0|0:0,0:0:0:0:
8,201,51168,6,0,P|76:157|195:180,1,174.600004129486,2|0,0:0|0:0,0:0:0:0:
166,163,51660,1,2,0:0:0:0:
10,67,51824,1,8,0:0:0:0:
105,242,51988,2,0,B|168:256|168:256|214:246|214:246|288:261,1,174.600004129486,2|2,0:0|0:0,0:0:0:0:
30,306,52480,5,2,0:0:0:0:
170,167,52644,2,0,P|243:156|385:153,1,174.600004129486,2|2,0:0|0:0,0:0:0:0:
510,251,53136,1,8,0:0:0:0:
471,243,53218,1,8,0:0:0:0:
432,234,53300,1,2,0:0:0:0:
298,340,53464,1,8,0:0:0:0:
337,336,53546,1,8,0:0:0:0:
372,319,53628,1,2,0:0:0:0:
129,253,53792,5,6,0:0:0:0:
209,376,53956,2,0,B|226:317|226:317|214:267|214:267|231:181,1,174.600004129486,2|2,0:0|0:0,0:0:0:0:
385,129,54448,1,8,0:0:0:0:
385,129,54612,1,2,0:0:0:0:
243,35,54776,2,0,P|188:25|139:24,1,87.3000020647431,0|2,0:0|0:0,0:0:0:0:
0,153,55104,6,0,L|122:142,1,87.3000020647431,2|2,0:0|0:0,0:0:0:0:
312,214,55432,2,0,L|225:206,1,87.3000020647431,0|2,0:0|0:0,0:0:0:0:
28,249,55760,1,8,0:0:0:0:
102,134,55924,1,2,0:0:0:0:
167,317,56088,2,0,P|205:327|268:326,1,87.3000020647431,0|2,0:0|0:0,0:0:0:0:
393,177,56416,6,0,B|400:108|400:108|384:71|384:71|394:-6,1,174.600004129486,2|0,0:0|0:0,0:0:0:0:
491,120,56908,1,2,0:0:0:0:
270,51,57072,1,8,0:0:0:0:
270,51,57236,1,2,0:0:0:0:
407,187,57400,2,0,P|424:244|425:280,1,87.3000020647431,0|2,0:0|0:0,0:0:0:0:
201,223,57728,6,0,L|210:113,1,87.3000020647431,2|2,0:0|0:0,0:0:0:0:
374,96,58056,1,0,0:0:0:0:
303,174,58220,1,2,0:0:0:0:
216,20,58384,1,8,0:0:0:0:
216,20,58548,1,2,0:0:0:0:
116,116,58712,1,0,0:0:0:0:
288,80,58876,1,2,0:0:0:0:
288,80,58958,1,0,0:0:0:0:
288,80,59040,6,0,P|369:73|465:71,1,158.400004833984,6|2,0:0|0:0,0:0:0:0:
215,171,59532,2,0,P|197:237|258:301,1,158.400004833984,2|0,0:0|0:0,0:0:0:0:
173,66,60024,2,0,L|70:55,1,79.2000024169922,2|2,0:0|0:0,0:0:0:0:
0,256,60352,6,0,B|63:240|63:240|174:250,1,158.400004833984,12|2,0:0|0:0,0:0:0:0:
169,259,60762,1,0,0:0:0:0:
182,267,60844,1,0,0:0:0:0:
195,275,60926,1,0,0:0:0:0:
209,282,61008,2,0,P|218:204|234:117,1,158.400004833984,8|0,0:0|0:0,0:0:0:0:
438,337,61500,1,8,0:0:0:0:
438,337,61582,1,8,0:0:0:0:
438,337,61664,6,0,L|351:346,1,79.2000024169922,6|0,0:0|0:0,0:0:0:0:
114,312,61992,2,0,B|178:314|178:314|303:343,1,158.400004833984,4|0,0:2|0:0,0:0:0:0:
356,44,62648,2,0,P|328:35|251:35,1,79.2000024169922,0|2,0:0|0:0,0:0:0:0:
110,172,62976,5,8,0:3:0:0:
146,184,63058,1,8,0:3:0:0:
184,182,63140,1,8,0:3:0:0:
220,168,63222,1,8,0:3:0:0:
253,159,63304,5,4,0:3:0:0:
287,158,63386,1,4,0:3:0:0:
318,171,63468,1,4,0:3:0:0:
343,193,63550,1,4,0:3:0:0:
357,233,63632,5,8,0:3:0:0:
342,273,63714,1,8,0:3:0:0:
299,280,63796,1,8,0:3:0:0:
271,247,63878,1,8,0:3:0:0:
287,202,63960,5,8,0:0:0:0:
301,157,64042,1,8,0:0:0:0:
298,110,64124,1,8,0:0:0:0:
272,70,64206,1,8,0:0:0:0:
227,56,64288,6,0,B|190:53|190:53|123:71,1,79.2000024169922,6|2,0:0|0:0,0:0:0:0:
99,200,64616,1,2,0:0:0:0:
316,156,64780,2,0,L|406:150,1,88.1999991925049,8|0,0:0|0:0,0:0:0:0:
416,291,65108,5,0,0:0:0:0:
325,284,65272,1,2,0:0:0:0:
236,276,65436,1,2,0:0:0:0:
368,371,65600,5,2,0:0:0:0:
426,278,65764,2,0,P|470:269|509:268,1,79.2000024169922,0|2,0:0|0:0,0:0:0:0:
353,377,66092,1,2,0:0:0:0:
290,172,66256,2,0,P|229:159|173:156,1,90,8|0,0:0|0:0,0:0:0:0:
336,384,66584,1,0,0:0:0:0:
376,140,66748,1,8,0:0:0:0:
376,140,66830,1,8,0:0:0:0:
376,140,66912,5,2,0:0:0:0:
418,295,67076,1,2,0:0:0:0:
262,252,67240,1,0,0:0:0:0:
262,252,67404,2,0,L|256:336,1,79.2000024169922
149,184,67732,1,0,0:0:0:0:
149,184,67896,2,0,L|160:272,1,79.2000024169922
57,34,68224,5,8,0:0:0:0:
39,125,68388,1,2,0:0:0:0:
223,90,68552,1,2,0:0:0:0:
223,90,68716,1,2,0:0:0:0:
373,215,68880,5,8,0:0:0:0:
283,151,69044,1,2,0:0:0:0:
354,296,69208,1,8,0:0:0:0:
368,80,69372,1,8,0:0:0:0:
187,221,69536,5,6,0:0:0:0:
187,221,69618,1,2,0:0:0:0:
187,221,69700,1,2,0:0:0:0:
275,165,69864,1,2,0:0:0:0:
172,311,70028,1,8,0:0:0:0:
97,143,70192,2,0,P|63:127|16:119,1,79.2000024169922
187,221,70520,1,2,0:0:0:0:
187,221,70684,1,2,0:0:0:0:
126,67,70848,5,2,0:0:0:0:
111,158,71012,1,0,0:0:0:0:
201,127,71176,1,2,0:0:0:0:
201,127,71340,1,2,0:0:0:0:
252,283,71504,2,0,P|324:291|357:291,1,90,8|0,0:0|0:0,0:0:0:0:
490,142,71832,1,8,0:0:0:0:
463,117,71914,1,8,0:0:0:0:
429,105,71996,1,8,0:0:0:0:
393,106,72078,1,8,0:0:0:0:
361,122,72160,5,2,0:0:0:0:
386,15,72324,1,2,0:0:0:0:
420,188,72488,2,0,L|424:276,1,79.2000024169922
504,133,72816,1,0,0:0:0:0:
328,207,72980,2,0,P|294:203|223:188,1,79.2000024169922
107,44,73308,1,2,0:0:0:0:
121,35,73390,1,2,0:0:0:0:
138,31,73472,5,8,0:3:0:0:
140,69,73554,1,8,0:3:0:0:
143,107,73636,1,8,0:3:0:0:
146,145,73718,1,8,0:3:0:0:
148,179,73800,5,4,0:3:0:0:
143,212,73882,1,4,0:3:0:0:
122,239,73964,1,4,0:3:0:0:
89,251,74046,1,4,0:3:0:0:
47,240,74128,5,8,0:3:0:0:
23,204,74210,1,8,0:3:0:0:
27,161,74292,1,8,0:3:0:0:
60,134,74374,1,8,0:3:0:0:
107,133,74456,5,8,0:0:0:0:
142,163,74538,1,8,0:0:0:0:
165,203,74620,1,8,0:0:0:0:
206,225,74702,1,8,0:0:0:0:
253,230,74784,6,0,L|359:226,1,79.2000024169922,6|2,0:0|0:0,0:0:0:0:
228,135,75112,1,2,0:0:0:0:
278,326,75276,2,0,P|318:336|384:338,1,88.1999991925049,8|0,0:0|0:0,0:0:0:0:
512,158,75604,5,0,0:0:0:0:
418,144,75768,1,2,0:0:0:0:
325,129,75932,1,2,0:0:0:0:
455,240,76096,5,2,0:0:0:0:
408,129,76260,2,0,L|400:29,1,79.2000024169922,0|2,0:0|0:0,0:0:0:0:
467,253,76588,1,2,0:0:0:0:
312,116,76752,2,0,P|251:105|205:104,1,90,8|0,0:0|0:0,0:0:0:0:
129,195,77080,1,0,0:0:0:0:
352,211,77244,1,8,0:0:0:0:
352,211,77326,1,8,0:0:0:0:
352,211,77408,6,0,L|357:300,1,79.2000024169922,2|2,0:0|0:0,0:0:0:0:
298,103,77736,1,0,0:0:0:0:
235,189,77900,2,0,L|233:274,1,79.2000024169922
238,31,78228,1,0,0:0:0:0:
308,115,78392,2,0,L|399:111,1,79.2000024169922
104,44,78720,5,8,0:0:0:0:
79,143,78884,1,2,0:0:0:0:
212,127,79048,1,2,0:0:0:0:
212,127,79212,1,2,0:0:0:0:
232,277,79376,5,8,0:0:0:0:
137,252,79540,1,2,0:0:0:0:
298,196,79704,1,8,0:0:0:0:
99,357,79868,1,8,0:0:0:0:
341,313,80032,5,6,0:0:0:0:
341,313,80114,1,2,0:0:0:0:
341,313,80196,1,2,0:0:0:0:
310,207,80360,1,2,0:0:0:0:
256,379,80524,1,8,0:0:0:0:
409,235,80688,2,0,P|456:227|499:225,1,79.2000024169922
341,313,81016,1,2,0:0:0:0:
341,313,81180,1,2,0:0:0:0:
380,135,81344,6,0,L|376:42,1,79.2000024169922,2|0,0:0|0:0,0:0:0:0:
413,239,81672,1,2,0:0:0:0:
413,239,81836,1,2,0:0:0:0:
286,115,82000,2,0,P|214:100|176:100,1,90,8|0,0:0|0:0,0:0:0:0:
62,212,82328,1,8,0:0:0:0:
105,207,82410,1,8,0:0:0:0:
148,202,82492,1,8,0:0:0:0:
191,197,82574,1,8,0:0:0:0:
234,191,82656,5,2,0:0:0:0:
116,133,82820,1,2,0:0:0:0:
148,301,82984,2,0,P|224:311|245:310,1,79.2000024169922
346,179,83312,2,0,L|447:172,1,79.2000024169922
277,109,83640,1,0,0:0:0:0:
311,284,83804,1,2,0:0:0:0:
325,293,83886,1,2,0:0:0:0:
339,302,83968,5,8,0:3:0:0:
377,300,84050,1,8,0:3:0:0:
415,298,84132,1,8,0:3:0:0:
453,297,84214,1,8,0:3:0:0:
485,285,84296,5,4,0:3:0:0:
495,252,84378,1,4,0:3:0:0:
468,230,84460,1,4,0:3:0:0:
434,236,84542,1,4,0:3:0:0:
411,272,84624,5,8,0:3:0:0:
408,314,84706,1,8,0:3:0:0:
391,353,84788,1,8,0:3:0:0:
355,376,84870,1,8,0:3:0:0:
308,378,84952,5,8,0:0:0:0:
263,362,85034,1,8,0:0:0:0:
235,325,85116,1,8,0:0:0:0:
226,278,85198,1,8,0:0:0:0:
241,237,85280,6,0,L|246:140,1,79.2000024169922,6|2,0:0|0:0,0:0:0:0:
321,288,85608,1,2,0:0:0:0:
153,170,85772,1,8,0:0:0:0:
279,79,85936,2,0,P|317:74|362:76,1,79.2000024169922
456,146,86264,1,2,0:0:0:0:
456,146,86428,1,2,0:0:0:0:
260,66,86592,6,0,L|78:60,1,158.400004833984,2|2,0:0|0:0,0:0:0:0:
88,68,87002,1,0,0:0:0:0:
74,76,87084,1,0,0:0:0:0:
60,84,87166,1,0,0:0:0:0:
46,92,87248,1,8,0:0:0:0:
331,305,87576,1,8,0:0:0:0:
306,292,87658,1,8,0:0:0:0:
279,285,87740,1,8,0:0:0:0:
251,284,87822,1,8,0:0:0:0:
223,289,87904,6,0,B|189:291|189:291|127:284,1,79.2000024169922,2|2,0:0|0:0,0:0:0:0:
358,164,88232,2,0,L|467:161,1,79.2000024169922
282,114,88560,2,0,P|270:61|271:27,1,79.2000024169922
279,202,88888,2,0,L|176:207,1,79.2000024169922,0|2,0:0|0:0,0:0:0:0:
0,127,89216,5,8,0:0:0:0:
0,127,89380,1,2,0:0:0:0:
47,267,89544,1,2,0:0:0:0:
47,267,89708,1,2,0:0:0:0:
144,107,89872,1,8,0:0:0:0:
170,237,90036,1,2,0:0:0:0:
28,38,90200,1,8,0:0:0:0:
234,135,90364,1,8,0:0:0:0:
51,271,90528,5,6,0:0:0:0:
51,271,90610,1,2,0:0:0:0:
51,271,90692,1,2,0:0:0:0:
84,176,90856,1,2,0:0:0:0:
133,360,91020,1,8,0:0:0:0:
265,239,91184,2,0,P|306:232|369:235,1,79.2000024169922
474,288,91512,1,2,0:0:0:0:
474,288,91676,1,2,0:0:0:0:
366,144,91840,6,0,P|391:75|467:85,1,158.400004833984,2|2,0:0|0:0,0:0:0:0:
469,101,92250,1,0,0:0:0:0:
473,120,92332,1,0,0:0:0:0:
478,139,92414,1,0,0:0:0:0:
483,158,92496,1,8,0:0:0:0:
173,32,92824,1,8,0:0:0:0:
152,56,92906,1,8,0:0:0:0:
141,85,92988,1,8,0:0:0:0:
137,116,93070,1,8,0:0:0:0:
141,147,93152,6,0,L|148:252,1,79.2000024169922,2|2,0:0|0:0,0:0:0:0:
256,319,93480,2,0,L|261:216,1,79.2000024169922
220,110,93808,1,0,0:0:0:0:
302,154,93972,1,0,0:0:0:0:
146,226,94136,1,0,0:0:0:0:
146,226,94300,1,2,0:0:0:0:
361,260,94464,5,8,0:0:0:0:
308,136,94628,1,2,0:0:0:0:
195,331,94792,1,8,0:3:0:0:
156,338,94874,1,8,0:3:0:0:
116,335,94956,1,4,0:3:0:0:
80,318,95038,1,4,0:3:0:0:
55,287,95120,6,0,P|30:281|-13:275,1,60.2999971476747,14|0,0:0|0:0,0:0:0:0:
146,226,95448,2,0,P|116:210|81:202,1,60.2999971476747
354,363,95776,6,0,B|361:300|361:300|348:254|348:254|356:191,1,174.600004129486,6|0,0:0|0:0,0:0:0:0:
432,106,96268,1,2,0:0:0:0:
511,323,96432,1,8,0:0:0:0:
511,323,96596,1,2,0:0:0:0:
348,172,96760,2,0,P|305:165|239:163,1,87.3000020647431,0|2,0:0|0:0,0:0:0:0:
92,220,97088,6,0,L|188:212,1,87.3000020647431,2|2,0:0|0:0,0:0:0:0:
320,52,97416,2,0,P|276:60|212:84,1,87.3000020647431,0|2,0:0|0:0,0:0:0:0:
168,312,97744,1,8,0:0:0:0:
168,312,97908,1,2,0:0:0:0:
342,270,98072,2,0,B|345:234|345:234|334:174,1,87.3000020647431,0|2,0:0|0:0,0:0:0:0:
51,92,98400,6,0,L|243:84,1,174.600004129486,6|0,0:0|0:0,0:0:0:0:
334,42,98892,1,2,0:0:0:0:
203,204,99056,1,8,0:0:0:0:
149,114,99220,1,2,0:0:0:0:
358,175,99384,2,0,P|363:215|353:263,1,87.3000020647431,0|2,0:0|0:0,0:0:0:0:
176,368,99712,6,0,L|171:258,1,87.3000020647431,2|2,0:0|0:0,0:0:0:0:
287,102,100040,2,0,L|275:222,1,87.3000020647431,0|2,0:0|0:0,0:0:0:0:
280,350,100368,1,8,0:0:0:0:
192,188,100532,1,2,0:0:0:0:
294,358,100696,2,0,B|342:362|342:362|394:347,1,96.2999970611573,0|2,0:0|0:0,0:0:0:0:
474,79,101024,6,0,P|428:80|298:95,1,174.600004129486,6|0,0:0|0:0,0:0:0:0:
201,173,101516,1,2,0:0:0:0:
337,0,101680,1,8,0:0:0:0:
337,0,101844,1,2,0:0:0:0:
392,122,102008,2,0,L|387:231,1,87.3000020647431,0|2,0:0|0:0,0:0:0:0:
185,267,102337,6,0,P|229:252|297:246,1,87.3000020647431,2|2,0:0|0:0,0:0:0:0:
512,321,102665,2,0,B|476:326|476:326|388:309,1,87.3000020647431,0|2,0:0|0:0,0:0:0:0:
218,166,102993,1,8,0:0:0:0:
218,166,103157,1,2,0:0:0:0:
254,337,103321,2,0,L|345:343,1,87.3000020647431,0|2,0:0|0:0,0:0:0:0:
303,133,103649,6,0,B|234:119|234:119|195:123|195:123|123:109,1,174.600004129486,6|0,0:0|0:0,0:0:0:0:
92,12,104141,1,2,0:0:0:0:
258,213,104305,1,8,0:0:0:0:
401,112,104469,2,0,P|348:50|227:72,1,174.600004129486,2|2,0:0|0:0,0:0:0:0:
165,190,104961,5,2,0:0:0:0:
288,302,105125,2,0,B|310:251|310:251|302:132,1,174.600004129486,8|2,0:0|0:0,0:0:0:0:
184,301,105617,1,8,0:0:0:0:
184,301,105699,1,0,0:0:0:0:
184,301,105781,2,0,P|190:214|236:251,1,174.600004129486,2|0,0:0|0:0,0:0:0:0:
339,361,106273,6,0,B|404:369|404:369|521:350,1,174.600004129486,6|0,0:0|0:0,0:0:0:0:
512,352,106765,1,2,0:0:0:0:
309,242,106929,1,8,0:0:0:0:
415,184,107093,1,2,0:0:0:0:
330,374,107257,2,0,B|292:373|292:373|243:357,1,87.3000020647431,0|2,0:0|0:0,0:0:0:0:
133,180,107585,6,0,P|82:188|29:209,1,87.3000020647431,2|2,0:0|0:0,0:0:0:0:
254,121,107913,2,0,L|258:28,1,87.3000020647431,0|2,0:0|0:0,0:0:0:0:
290,307,108241,1,8,0:0:0:0:
290,307,108405,1,2,0:0:0:0:
373,147,108569,1,0,0:0:0:0:
264,201,108733,1,2,0:0:0:0:
439,380,108897,6,0,B|448:320|448:320|433:272|433:272|445:170,1,174.600004129486,2|0,0:0|0:0,0:0:0:0:
512,129,109389,1,2,0:0:0:0:
369,329,109553,1,8,0:0:0:0:
512,264,109717,1,2,0:0:0:0:
356,130,109881,2,0,P|316:122|242:121,1,87.3000020647431,0|2,0:0|0:0,0:0:0:0:
160,276,110209,6,0,B|175:243|175:243|186:172,1,87.3000020647431,2|2,0:0|0:0,0:0:0:0:
173,30,110537,1,0,0:0:0:0:
173,30,110701,1,2,0:0:0:0:
252,232,110865,1,8,0:0:0:0:
105,103,111029,1,2,0:0:0:0:
76,301,111193,1,0,0:0:0:0:
176,176,111357,1,2,0:0:0:0:
256,359,111521,6,0,P|313:352|433:349,1,158.400004833984,6|0,0:0|0:0,0:0:0:0:
160,276,112013,2,0,P|87:265|-11:261,1,158.400004833984,2|0,0:0|0:0,0:0:0:0:
274,217,112505,1,2,0:0:0:0:
214,132,112669,1,2,0:0:0:0:
433,269,112833,6,0,B|451:210|451:210|436:95,1,158.400004833984,12|2,0:0|0:0,0:0:0:0:
453,117,113243,1,0,0:0:0:0:
468,120,113325,1,0,0:0:0:0:
483,123,113407,1,0,0:0:0:0:
498,126,113489,2,0,P|419:131|304:145,1,158.400004833984,8|0,0:0|0:0,0:0:0:0:
222,308,113981,1,8,0:0:0:0:
222,308,114063,1,8,0:0:0:0:
222,308,114145,6,0,P|258:313|328:331,1,79.2000024169922,6|0,0:0|0:0,0:0:0:0:
148,211,114473,2,0,L|136:32,2,158.400004833984,4|0|0,0:2|0:0|0:0,0:0:0:0:
104,322,115293,1,2,0:0:0:0:
262,148,115457,5,8,0:0:0:0:
222,308,115621,1,2,0:0:0:0:
380,263,115785,1,2,0:0:0:0:
380,263,115949,1,2,0:0:0:0:
172,203,116113,1,8,0:0:0:0:
310,337,116277,1,2,0:0:0:0:
301,55,116441,1,8,0:0:0:0:
226,289,116605,1,8,0:0:0:0:
464,242,116769,6,0,P|472:204|476:142,1,74.70000108284,6|2,0:0|0:0,0:0:0:0:
457,60,117097,1,2,0:0:0:0:
277,130,117261,2,0,P|318:134|359:142,1,83.7000026181794,8|4,0:0|0:3,0:0:0:0:
359,142,117507,1,4,0:3:0:0:
359,142,117589,1,4,0:3:0:0:
293,37,117753,1,0,0:0:0:0:
316,222,117917,1,8,0:0:0:0:
459,107,118081,5,0,0:0:0:0:
450,244,118245,1,2,0:0:0:0:
448,258,118327,1,2,0:0:0:0:
445,274,118409,5,8,0:3:0:0:
429,303,118491,1,8,0:3:0:0:
400,321,118573,1,8,0:3:0:0:
366,322,118655,1,8,0:3:0:0:
324,304,118737,5,8,0:0:0:0:
279,298,118819,1,8,0:0:0:0:
234,304,118901,1,8,0:0:0:0:
194,325,118983,1,8,0:0:0:0:
164,358,119065,2,0,L|60:369,1,74.70000108284
273,384,119393,5,6,0:0:0:0:
210,197,119557,1,2,0:0:0:0:
55,274,119721,2,0,L|-14:277,1,65.7000018045045
66,183,120049,2,0,L|-11:188,1,65.7000018045045
73,88,120377,2,0,L|-4:93,1,65.7000018045045
222,196,120705,5,8,0:0:0:0:
65,263,120869,1,2,0:0:0:0:
84,80,121033,2,0,P|134:70|178:68,1,74.70000108284,2|2,0:0|0:0,0:0:0:0:
347,188,121361,1,8,0:0:0:0:
319,90,121525,1,2,0:0:0:0:
275,278,121689,1,8,0:0:0:0:
418,112,121853,1,8,0:0:0:0:
209,70,122017,5,4,0:0:0:0:
336,203,122181,1,2,0:0:0:0:
272,0,122345,1,2,0:0:0:0:
145,144,122509,2,0,L|61:150,1,83.7000026181794,8|4,0:0|0:3,0:0:0:0:
61,150,122755,1,4,0:3:0:0:
61,150,122837,1,4,0:3:0:0:
118,54,123001,1,0,0:0:0:0:
101,249,123165,1,8,0:0:0:0:
265,170,123329,5,0,0:0:0:0:
203,315,123493,1,2,0:0:0:0:
206,331,123575,1,2,0:0:0:0:
209,347,123657,5,8,0:3:0:0:
231,371,123739,1,8,0:3:0:0:
264,373,123821,1,8,0:3:0:0:
293,356,123903,1,8,0:3:0:0:
302,312,123985,5,8,0:0:0:0:
292,268,124067,1,8,0:0:0:0:
308,226,124149,1,8,0:0:0:0:
346,202,124231,1,8,0:0:0:0:
390,206,124313,2,0,L|478:213,1,74.70000108284
233,145,124641,5,6,0:0:0:0:
364,275,124805,1,2,0:0:0:0:
324,71,124969,2,0,P|290:60|234:49,1,65.7000018045045
414,47,125297,2,0,P|390:20|347:-17,1,65.7000018045045
502,64,125625,2,0,P|494:29|476:-24,1,65.7000018045045
387,235,125953,5,8,0:3:0:0:
355,256,126035,1,8,0:3:0:0:
316,260,126117,1,8,0:0:0:0:
280,244,126199,1,8,0:3:0:0:
249,229,126281,5,8,0:0:0:0:
214,225,126363,1,8,0:3:0:0:
181,236,126445,1,8,0:3:0:0:
156,259,126527,1,8,0:3:0:0:
145,300,126609,5,8,0:0:0:0:
164,338,126691,1,8,0:0:0:0:
206,342,126773,1,8,0:3:0:0:
234,310,126855,1,8,0:3:0:0:
216,266,126937,5,8,0:0:0:0:
181,236,127019,1,8,0:0:0:0:
174,189,127101,1,8,0:0:0:0:
196,147,127183,1,8,0:0:0:0:
233,131,127265,6,0,L|334:124,1,74.70000108284,6|2,0:0|0:0,0:0:0:0:
162,70,127593,1,2,0:0:0:0:
275,219,127757,2,0,L|359:225,1,83.7000026181794,8|4,0:0|0:3,0:0:0:0:
359,225,128003,1,4,0:3:0:0:
359,225,128085,1,4,0:3:0:0:
307,125,128249,1,0,0:0:0:0:
323,315,128413,1,8,0:0:0:0:
475,204,128577,5,0,0:0:0:0:
401,315,128741,1,2,0:0:0:0:
398,334,128823,1,2,0:0:0:0:
395,354,128905,5,8,0:3:0:0:
424,370,128987,1,8,0:3:0:0:
452,351,129069,1,8,0:3:0:0:
449,317,129151,1,8,0:3:0:0:
405,299,129233,5,8,0:0:0:0:
379,261,129315,1,8,0:0:0:0:
375,216,129397,1,8,0:0:0:0:
389,173,129479,1,8,0:0:0:0:
426,147,129561,2,0,B|433:119|433:119|428:47,1,74.70000108284
238,59,129889,5,6,0:0:0:0:
265,215,130053,1,2,0:0:0:0:
119,161,130217,2,0,L|34:157,1,65.7000018045045
137,250,130545,2,0,L|48:246,1,65.7000018045045
149,343,130873,2,0,L|62:338,1,65.7000018045045
265,215,131201,5,8,0:0:0:0:
248,379,131365,1,2,0:0:0:0:
399,312,131529,2,0,L|403:221,1,74.70000108284,2|2,0:0|0:0,0:0:0:0:
229,115,131857,1,8,0:0:0:0:
251,224,132021,1,2,0:0:0:0:
376,138,132185,2,0,P|388:88|388:52,1,74.70000108284,8|0,0:0|0:0,0:0:0:0:
316,352,132513,5,6,0:0:0:0:
269,149,132677,1,2,0:0:0:0:
123,294,132841,1,2,0:0:0:0:
295,250,133005,2,0,L|381:258,1,83.7000026181794,8|4,0:0|0:3,0:0:0:0:
388,250,133251,1,4,0:3:0:0:
399,243,133333,1,4,0:3:0:0:
401,363,133497,1,0,0:0:0:0:
376,138,133661,1,8,0:0:0:0:
484,284,133825,5,0,0:0:0:0:
470,136,133989,1,2,0:0:0:0:
466,120,134071,1,2,0:0:0:0:
461,106,134153,5,8,0:3:0:0:
442,78,134235,1,8,0:3:0:0:
413,59,134317,1,8,0:3:0:0:
379,52,134399,1,8,0:3:0:0:
334,58,134481,5,8,0:0:0:0:
292,75,134563,1,8,0:0:0:0:
247,77,134645,1,8,0:0:0:0:
203,65,134727,1,8,0:0:0:0:
169,35,134809,2,0,B|139:21|139:21|73:10,1,74.70000108284
227,188,135137,5,6,0:0:0:0:
255,0,135301,1,2,0:0:0:0:
108,106,135465,2,0,P|108:139|115:182,1,65.7000018045045
27,191,135793,2,0,P|44:224|73:259,1,65.7000018045045
0,308,136121,2,0,P|35:334|78:350,1,65.7000018045045
322,253,136449,5,10,0:0:0:0:
154,301,136613,1,2,0:0:0:0:
287,356,136777,2,0,L|374:364,1,74.70000108284
211,152,137105,2,0,B|168:155|168:155|95:179,1,87.3000020647431,8|0,0:0|0:0,0:0:0:0:
309,239,137433,1,8,0:0:0:0:
265,60,137597,1,0,0:0:0:0:
265,60,137679,1,0,0:0:0:0:
265,60,137761,5,4,0:3:0:0:
227,296,137925,1,4,0:3:0:0:
256,192,138007,12,0,143009,0:0:0:0:
