osu file format v7

[General]
AudioFilename: saori sakura feat. ave new - awayuki .mp3
AudioLeadIn: 0
PreviewTime: 11132
Countdown: 1
SampleSet: Normal
StackLeniency: 0.7
Mode: 0
LetterboxInBreaks: 1

[Editor]
DistanceSpacing: 0.800000011920929
BeatDivisor: 4
GridSize: 8

[Metadata]
Title:Awayuki
Artist:Saori Sakura feat. ave;new
Creator:BattorA
Version:Normal
Source:Mashiro Botan
Tags:

[Difficulty]
HPDrainRate:5
CircleSize:3
OverallDifficulty:5
SliderMultiplier:1.4
SliderTickRate:3

[Events]
//Background and Video events
0,0,"background.jpg"
//Break Periods
2,98793,113316
2,166005,189008
//Storyboard Layer 0 (Background)
//Storyboard Layer 1 (Fail)
//Storyboard Layer 2 (Pass)
//Storyboard Layer 3 (Foreground)
//Storyboard Sound Samples
//Background Colour Transformations
3,100,163,162,255

[TimingPoints]
11132,461.538461538462,4,1,0,100,1,0
11189,-200,4,1,0,100,0,0
77542,-100,4,1,0,100,0,0
114458,-200,4,1,0,100,0,0
143305,-100,4,1,0,100,0,0
204285,-100,4,1,0,100,0,1
225978,-100,4,1,0,100,0,0

[Colours]
Combo1 : 209,209,163
Combo2 : 0,118,236
Combo3 : 51,251,96
Combo4 : 255,255,255

[HitObjects]
104,64,11247,2,0,B|104:168|192:184,2,157.5
176,64,13901,2,0,B|200:104|208:144,1,70
232,176,14824,5,0
248,216,15285,1,0
280,280,15747,1,0
240,288,16035,2,0,B|160:272|120:232,1,131.25
120,184,17362,1,0
88,48,18516,5,0
136,80,18978,1,0
184,112,19382,2,0,B|296:88,2,105
224,152,21285,1,0
264,152,21632,1,0
280,216,21978,2,0,B|336:280|336:280|336:280,1,78.75
392,256,23132,1,0
272,80,24055,1,0
272,144,24516,6,0,B|272:96,1,35,0|0
296,216,25208,6,0,B|356:172|284:76|396:92,1,183.75,0|0
384,160,26824,1,0
360,272,27747,1,0
272,208,28670,1,0
200,136,29593,1,0
176,96,31439,5,0
216,96,31785,1,0
256,96,32132,1,0
56,288,33285,6,0,B|64:144,1,140
152,80,35132,2,0,B|136:232,1,140
192,320,36978,2,0,B|224:176,1,140
304,264,38824,5,0
360,272,39055,1,0
408,232,39285,1,0
440,192,39516,1,0
456,144,39747,1,0
304,88,40670,6,0,B|304:168,2,70
320,200,42516,2,0,B|360:264,2,70
232,272,44362,2,0,B|200:336,2,70
256,192,46151,12,0,47535
160,64,48055,6,0,B|104:32|112:112|160:128,1,105
192,152,49208,1,0
232,192,49670,1,0
312,280,50593,6,0,B|424:280,1,105
424,232,51747,1,0
424,152,52439,1,0
376,128,52901,1,0
320,136,53362,2,0,B|280:144|296:208|344:200,3,105
304,272,56132,5,0
360,288,56593,1,0
304,272,57055,2,0,B|192:280|256:264|176:208,1,140
192,136,58670,5,0
240,104,59132,2,0,B|240:184|296:280,1,175
344,272,60747,1,0
400,144,61901,5,8
480,216,62824,6,0,B|472:80|384:80,1,175
344,88,64439,1,0
232,112,65362,2,0,B|208:184,1,70
256,248,66516,1,0
328,288,67208,1,0
416,224,68132,2,0,B|432:88|344:104,1,157.5
232,104,70208,5,0
192,104,70555,1,0
160,128,70901,1,0
152,168,71247,1,0
168,208,71593,1,0
168,264,71997,6,0,B|72:264|96:96|0:88,1,245
160,80,75285,6,0,B|184:120,1,35
344,192,75978,6,0,B|384:216,1,35
88,168,77593,6,0,B|96:320|128:304,1,140
200,232,78458,2,0,B|256:288|296:368,1,140
368,264,79439,1,0
384,152,79901,1,0
272,136,80305,2,0,B|176:80|272:24,2,140
304,240,81689,6,0,B|352:240|368:160|416:120,1,140
360,64,82555,1,0
224,80,83074,1,0
112,208,83766,2,0,B|56:272|128:312|240:360,1,227.5
320,320,84978,5,0
384,224,85439,1,0
448,128,85901,1,0
344,80,86362,1,0
240,120,86824,2,0,B|96:104|176:232|256:248,1,210
264,192,87747,5,0
328,240,88093,1,0
256,192,88382,12,0,89074
112,40,89593,5,0
144,120,89939,1,0
200,184,90285,1,0
248,208,90516,1,0
328,240,90862,2,0,B|312:320|232:344|320:288|328:376,1,140
352,272,91612,6,0,B|456:272,3,70
440,104,92824,1,0
400,64,93285,1,0
256,192,94266,12,0,97035
256,48,97901,5,0
256,216,98593,1,0
128,56,114516,6,0,B|120:184|192:128|176:224,1,175
216,256,116132,1,0
328,256,117055,1,0
352,208,117516,1,0
320,160,117978,2,0,B|280:184,1,35
248,136,118670,5,0
224,152,118901,1,0
184,184,119362,2,0,B|184:280|288:232|240:352,1,192.5
336,328,121439,5,8
424,224,121843,6,0,B|424:56|280:56,1,245
144,184,125132,5,0
152,240,125593,1,0
232,248,126285,1,0
288,256,126689,2,0,B|280:304|352:312,2,87.5
368,240,128593,5,8
368,240,128824,1,8
304,168,129285,2,0,B|312:48|208:48,1,175
184,96,130901,1,0
184,208,131824,1,0
232,240,132285,1,0
272,168,132978,5,0
256,192,133382,12,0,135228
256,48,136208,5,0
304,72,136670,2,0,B|272:200|392:136|368:256,1,210
352,304,138516,6,0,B|288:344,1,70
272,320,139208,1,0
208,232,140132,1,0
120,64,141747,5,0
168,112,141978,1,0
296,72,142439,5,0
344,104,142670,1,0
200,192,143305,6,0,B|152:248,2,70
320,264,143997,2,0,B|432:272|416:88,1,210
256,72,144920,2,0,B|128:72|128:224,1,210
224,200,145843,2,0,B|216:360|360:352,1,210
360,304,146766,1,0
392,160,147170,5,0
368,96,147516,1,0
256,192,147920,12,0,150689
112,56,151439,5,0
160,96,151901,1,0
272,56,152362,5,0
320,88,152824,1,0
160,184,153285,5,0
192,224,153747,1,0
272,304,154208,6,0,B|280:160|336:224|336:288,1,175
416,312,155132,1,0
424,144,155824,5,0
376,112,156055,1,0
304,120,156401,1,0
232,160,156747,1,0
232,160,156978,1,0
168,224,157324,1,0
96,272,157670,1,0
104,136,158074,5,0
56,80,158305,1,0
112,32,158535,1,0
160,88,158766,1,0
328,96,159458,2,0,B|392:152|288:288|288:288,1,210
240,104,160670,5,0
240,104,161016,1,0
152,208,161305,1,0
152,208,161535,1,0
304,216,161882,2,0,B|304:336|376:320|384:312,2,140
256,192,164305,12,0,165805
192,56,190208,6,0,B|40:56|40:208,1,227.5
112,184,191132,2,0,B|104:336|240:320,1,210
216,248,192055,2,0,B|384:248|376:96,1,245
400,200,193901,5,0
256,48,194593,5,0
256,48,194824,1,0
152,96,195112,2,0,B|168:216|256:240,1,175
264,264,196093,1,0
240,192,196439,1,0
304,280,196843,6,0,B|400:280,3,70
448,72,198516,1,0
224,72,199439,5,0
48,208,200362,1,0
240,328,201285,1,0
256,192,203074,12,0,203997
256,56,204978,5,0
256,136,205439,1,0
264,344,205901,5,0
264,264,206362,1,0
472,200,206824,5,0
392,200,207285,1,0
296,200,207747,6,0,B|176:200,2,105
168,128,208670,1,0
208,56,209593,1,0
136,128,210516,1,0
136,128,210862,1,0
136,128,211208,1,0
432,328,212362,6,0,B|416:200|336:272|296:192,1,175
264,200,213285,2,0,B|208:216|216:312|112:288,1,175
88,240,214208,2,0,B|48:144|136:168|96:48,1,175
224,64,215132,1,0
232,168,216055,1,0
256,192,216920,12,0,218535
136,48,219055,5,0
256,200,219285,1,0
400,56,219516,1,0
256,200,219747,1,0
352,184,220439,5,0
376,232,220670,1,0
40,56,221593,5,0
96,104,221882,1,0
160,152,222228,1,0
224,192,222458,1,0
224,192,222805,1,0
288,232,223151,1,0
392,296,223439,1,0
336,264,223785,1,0
400,320,225285,5,0
224,192,225632,5,0
400,104,225978,5,0
