osu file format v5

[General]
AudioFilename: 05 ブックマーク ア・ヘッド Type-5 <第6話 ED>.mp3
AudioLeadIn: 0
PreviewTime: -1
Countdown: 1
SampleSet: Normal
StackLeniency: 0.7
Mode: 0
LetterboxInBreaks: 1

[Metadata]
Title:STRIKE WITCHES Bookmark Ahead
Artist:Sanya V.Litvyak & Erila Ilmatar Juutilainen
Creator:fujisan
Version:Normal
Source:STRIKE WITCHES
Tags:STRIKE WITCHES Bookmark Ahead

[Difficulty]
HPDrainRate:7
CircleSize:5
OverallDifficulty:4
SliderMultiplier:1.2
SliderTickRate:2

[Events]
//Background and Video events
0,0,"www.dotup.org0982.jpg"
//Break Periods
//Storyboard Layer 0 (Background)
//Storyboard Layer 1 (Failing)
//Storyboard Layer 2 (Passing)
//Storyboard Layer 3 (Foreground)
//Storyboard Sound Samples
//Background Colour Transformations
3,100,163,162,255

[TimingPoints]
18,375,4,1,0,100,1

[Colours]
Combo1 : 255,150,0
Combo2 : 5,240,5
Combo3 : 5,5,240
Combo4 : 240,5,5

[HitObjects]
257,189,1564,5,4
257,189,1705,5,4
116,99,3252,5,0
167,97,3627,5,0
216,97,4002,5,0
259,97,4377,5,0
311,98,4752,5,0
361,98,5080,5,0
361,98,5268,5,0
418,100,6158,5,0
417,161,6486,5,0
418,225,6861,5,0
417,285,7189,5,0
355,286,7330,5,0
111,107,8924,6,4,B|458:109,2,330
60,106,11689,6,0,B|59:353,2,240
172,340,13846,6,0,B|172:111,1,225
237,114,16002,6,0,B|336:65|486:142,1,255
313,250,18580,5,0
313,250,19049,5,0
242,249,20455,5,0
242,179,20971,5,0
167,176,21486,5,0
167,176,21674,5,0
167,176,21814,5,0
87,177,22143,5,0
147,257,23033,5,0
214,259,23689,5,0
277,262,24299,5,0
359,261,25002,5,0
359,261,25143,5,0
97,241,27018,6,0,B|98:99,3,135
116,114,29830,6,0,B|250:32|442:144,1,330
456,161,31846,6,0,B|293:246,2,345
411,312,34752,5,0
350,311,35127,5,0
290,310,35455,5,0
230,310,35783,5,0
170,311,36158,5,0
109,311,36533,5,0
48,310,36861,5,0
140,199,37752,5,0
140,131,38502,5,0
140,131,38643,5,0
140,131,38783,5,0
140,131,39018,5,0
213,135,39486,5,0
375,257,40424,6,0,B|376:41,2,210
320,249,42674,6,4,B|196:249,7,120
411,176,45674,5,4
343,176,46330,5,4
268,175,47127,5,4
268,175,47408,5,4
268,175,47830,5,4
201,175,48533,5,4
193,262,49611,5,4
267,266,49893,5,4
109,161,51064,6,0,B|306:73|513:187,1,405
96,256,54064,6,0,B|150:256,9,45
182,190,56221,5,0
249,191,56596,5,0
250,116,56924,6,0,B|197:115,9,45
444,103,59080,6,0,B|444:319,1,210
363,312,61143,6,0,B|362:90,1,210
289,94,62643,6,0,B|289:242,1,135
212,223,63955,6,0,B|104:82,1,165
453,249,65408,5,0
387,248,65783,5,0
311,249,66158,5,0
311,249,66299,5,0
311,249,66674,5,0
243,250,67518,6,0,B|65:249,1,165
75,136,68268,6,0,B|287:136,2,195
103,256,70471,5,0
164,205,70752,5,0
232,141,71127,5,0
284,76,72111,5,0
205,75,72486,5,0
156,77,72674,5,0
114,77,73049,5,0
45,78,73518,5,0
270,145,74033,6,0,B|216:146,10,45
383,247,75721,5,0
309,246,76658,6,0,B|109:247,2,195
249,167,78814,5,0
249,167,79002,5,0
249,167,79189,5,0
249,167,79330,5,0
351,181,79564,5,4
351,181,79705,5,4
291,179,80080,5,4
291,179,80268,5,4
220,186,80596,5,4
220,186,80736,5,4
217,90,81064,5,4
217,90,81299,5,4
300,95,81861,6,4,B|506:95,1,195
443,240,82939,5,4
443,240,83127,5,4
368,239,83408,5,4
368,239,83596,5,4
296,241,83971,5,4
296,241,84111,5,4
223,240,84627,6,4,B|47:50,1,255
160,56,85799,5,4
160,56,85939,5,4
229,59,86314,5,4
229,59,86455,5,4
304,58,86736,5,4
304,58,86971,5,4
256,190,87533,5,0
256,190,87721,5,0
256,190,87861,5,0
256,190,88096,5,0
430,192,90908,5,0
324,105,91143,6,0,B|324:291,1,180
210,194,92127,5,0
120,138,92502,6,0,B|120:275,1,135
20,194,93158,5,0
113,189,93861,5,0
159,189,94049,5,0
194,190,94236,5,0
231,190,94424,5,0
269,190,94611,5,0
384,194,95080,5,0
384,194,95268,5,0
384,194,95596,5,0
391,286,95924,6,0,B|42:42,2,420
386,97,99486,5,0
384,93,99674,5,0
317,96,100518,5,0
262,95,100752,5,0
216,95,100939,5,0
128,97,101314,5,0
44,96,102064,6,0,B|44:148,6,45
177,147,103377,5,0
333,148,104221,5,0
333,148,104408,5,0
401,267,105299,6,0,B|147:268,1,240
90,269,106330,6,0,B|91:207,5,60
288,248,107783,6,0,B|249:248,3,30
298,184,109002,6,0,B|250:185,2,45
307,118,109705,6,0,B|239:118,1,60
322,243,110830,6,0,B|105:249|142:151,3,240
413,154,113736,5,0
365,156,114111,5,0
306,156,114486,5,0
251,156,114814,5,0
192,157,115189,5,0
132,156,115564,5,0
74,154,115893,5,0
15,154,116268,5,0
17,231,116971,5,0
79,232,117674,6,0,B|332:233,1,240
391,233,118705,5,4
441,60,119408,6,4,B|443:240,1,165
353,232,120486,6,4,B|355:55,1,165
237,136,121893,5,4
169,134,122502,5,4
168,202,123252,5,4
237,203,123627,5,4
238,127,123955,5,4
157,127,124330,5,4
76,122,124705,6,4,B|334:122,1,255
386,97,126158,6,4,B|143:269,1,285
151,136,127518,6,4,B|196:136,9,30
186,208,128924,6,4,B|150:209,10,30
261,208,130189,5,4
386,199,131830,5,4
386,199,131971,5,4
326,199,132346,5,4
326,199,132486,5,4
252,199,132861,5,4
252,199,133049,5,4
184,200,133471,6,4,B|26:198,1,150
437,171,136189,6,4,B|430:96|362:88|360:88,1,120
282,158,137408,6,4,B|277:246|371:259,1,150
443,257,138158,5,4
451,174,138486,6,0,B,1,150
256,71,139189,5,0
188,69,139846,5,0
119,70,140596,5,0
119,70,140783,5,0
116,150,141299,5,0
112,227,141627,5,0
112,227,141768,5,0
108,313,142189,5,0
187,314,142705,5,0
438,119,142986,6,0,B|171:117,1,255
184,224,144439,6,0,B|398:101,1,240
393,249,145939,5,0
318,249,146596,5,0
318,249,146736,5,0
319,179,147111,5,0
247,180,147955,6,0,B|214:180,5,30
251,100,148752,5,0
176,100,149080,5,0
97,101,149455,5,0
97,101,149596,5,0
74,177,149971,6,0,B|130:179,4,45
114,264,150861,6,0,B|379:263,1,255
371,186,152643,6,0,B|134:186,1,225
169,106,154049,5,0
238,107,154377,5,0
384,222,156111,5,0
326,222,156439,5,0
252,227,156814,5,0
193,227,157189,5,0
121,227,157893,5,0
53,227,158596,5,0
49,143,159299,5,0
49,143,159439,5,0
49,143,159627,5,0
49,143,159814,5,0
154,148,159955,6,4,B|328:147,1,165
304,232,161080,6,4,B|134:231,1,165
386,138,162393,5,4
333,138,162533,5,4
260,138,162768,5,4
125,139,162861,6,4,B|124:309,1,165
221,310,163518,6,4,B|222:131,1,165
383,224,165111,5,4
383,224,165299,5,4
383,224,165439,5,4
313,219,165627,5,4
221,155,165908,6,4,B|219:325,1,165
139,327,166705,6,4,B|142:149,1,165
236,220,167971,5,4
236,220,168111,5,4
205,221,168299,5,4
224,167,168486,5,4
361,221,169658,5,0
361,221,169799,1,0
296,183,171439,5,8
246,183,171721,5,8
188,184,172002,5,8
146,184,172377,5,8
85,184,172752,5,8
53,184,173080,5,8
53,184,173268,5,8
56,120,174158,5,8
97,120,174486,5,8
146,120,174814,5,8
204,120,175189,5,8
204,120,175377,5,8
386,273,176596,5,8
388,206,177064,5,8
392,141,177721,5,8
393,73,178424,5,8
316,139,178939,5,8
233,263,181564,5,8
233,263,181752,5,8
234,146,184424,5,8
234,146,184611,5,8
273,204,187189,5,4
273,204,187330,5,4
277,124,188596,5,4
221,125,189299,5,4
164,126,190049,5,4
164,126,190236,5,4
416,224,191080,5,4
356,226,191830,5,4
289,224,192533,5,4
226,225,193189,5,4
226,153,193893,5,4
226,153,194596,5,4
155,151,195299,5,4
157,222,196049,5,4
268,179,198721,5,4
268,179,198861,5,4
286,136,199893,5,4
310,97,200643,5,4
232,95,201346,1,0
241,104,202049,5,4
241,104,202705,5,4
247,222,203596,5,4
247,222,204111,5,4
247,222,204486,5,4
247,222,204814,5,4
353,236,206221,5,4
353,236,206408,5,4
347,159,208236,6,4,B|126:157,1,210
105,87,209361,5,4
176,94,210158,6,4,B|320:95,1,135
329,199,210861,5,4
277,201,211143,5,4
223,201,211564,5,4
223,201,211752,5,4
163,204,212080,5,4
426,85,212877,6,0,B|425:246,2,150
367,217,214705,5,0
369,147,215080,5,0
369,147,215314,5,0
300,152,215689,5,0
297,212,216064,5,0
438,221,216439,6,0,B|234:74|8:248,1,450
172,237,218127,5,4
219,237,218455,5,4
263,237,218783,5,4
263,237,218971,5,4
374,132,219299,6,4,B|164:132,3,195
249,213,221361,6,4,B|286:213,5,30
381,138,222111,5,4
323,139,222486,5,4
256,144,222861,5,4
256,144,223049,5,4
188,139,223377,5,4
451,194,224221,6,4,B|233:53|10:197,1,465
14,194,226002,6,4,B|264:303|475:180,1,465
459,124,227736,6,0,B|431:124,29,15
373,126,229518,5,0
310,126,229893,5,0
241,124,230221,5,0
174,121,230596,5,0
111,119,231299,5,0
46,119,232002,5,0
39,196,232658,6,0,B|202:200,1,150
279,201,233455,5,0
279,201,233596,5,0
361,201,233971,5,0
361,201,234111,5,0
320,121,234486,5,0
320,121,234627,5,0
245,122,235002,5,0
245,122,235189,5,0
185,122,235799,5,0
185,122,235939,5,0
185,122,236127,5,0
186,121,236314,5,0
419,145,238611,5,0
369,142,238752,5,0
310,143,238939,5,0
252,142,239127,5,0
365,231,241330,5,4
314,229,241518,5,4
314,229,241705,5,4
242,228,241846,5,4
242,228,241986,5,4
