osu file format v7

[General]
AudioFilename: EternuS.mp3
AudioLeadIn: 1996
PreviewTime: 7912
Countdown: 0
SampleSet: Normal
StackLeniency: 0.7
Mode: 0
LetterboxInBreaks: 0

[Editor]
Bookmarks: 21468
DistanceSpacing: 1
BeatDivisor: 6
GridSize: 8

[Metadata]
Title:EternuS
Artist:Sanxion7
Creator:ouranhshc
Version:Insane
Source:Dance Dance Revolution SuperNOVA 2
Tags:Krisom

[Difficulty]
HPDrainRate:5
CircleSize:4
OverallDifficulty:8
SliderMultiplier:2.2
SliderTickRate:1

[Events]
//Background and Video events
0,0,"Techno_Blue_Wallpaper_by_Bigyro.jpg"
//Break Periods
//Storyboard Layer 0 (Background)
//Storyboard Layer 1 (Fail)
//Storyboard Layer 2 (Pass)
//Storyboard Layer 3 (Foreground)
//Storyboard Sound Samples
//Background Colour Transformations
3,100,3,47,252

[TimingPoints]
1055,428.571428571429,4,2,1,100,1,0
34340,-100,4,2,1,70,0,0
35269,-100,4,2,1,40,0,0
36340,-100,4,2,0,100,0,0
36983,-200,4,1,0,60,0,0
50769,-100,4,1,0,80,0,0
62611,-100,4,1,0,70,0,0
64483,-100,4,1,0,100,0,1
78197,-100,4,2,1,100,0,0
90197,-100,4,1,0,100,0,0
91912,-100,4,1,0,0,0,0

[Colours]
Combo1 : 128,128,192
Combo2 : 0,128,255

[HitObjects]
216,288,1055,2,0,B|160:232,2,73.3333333333333,8|0|0
296,288,1483,2,0,B|352:232,2,73.3333333333333,8|0|0
216,96,1912,6,0,B|160:152,2,73.3333333333333,8|0|0
296,96,2340,2,0,B|352:152,2,73.3333333333333,8|0|0
256,160,2769,5,8
304,216,2912,1,0
296,288,3054,1,0
256,352,3197,1,8
216,288,3340,1,0
208,216,3483,1,0
144,256,3626,6,0,B|80:216,1,73.3333333333333,8|0
64,144,3912,1,0
72,72,4054,1,8
128,24,4197,2,0,B|200:56,1,73.3333333333333
256,96,4483,5,8
256,24,4626,1,0
256,96,4769,1,0
304,152,4912,6,0,B|360:88,2,73.3333333333333,8|0|0
208,152,5340,2,0,B|152:88,2,73.3333333333333,8|0|0
256,208,5769,2,0,B|256:288,2,73.3333333333333,8|0|0
328,224,6197,5,8
328,296,6340,1,0
296,360,6483,1,0
224,360,6626,2,2,B|189:341|176:304|184:208,1,146.666666666667,10|2
184,160,7055,5,8
184,88,7197,1,0
216,24,7340,1,0
288,24,7483,2,2,B|322:42|336:80|328:176,1,146.666666666667,10|2
256,192,7912,6,0,B|296:272|376:240|392:208,1,146.666666666667,8|0
448,256,8340,2,0,B|472:184|424:152|376:144,1,146.666666666667,8|0
312,136,8769,2,0,B|328:56|416:48|464:112,1,146.666666666667,8|0
488,120,9197,5,8
504,192,9340,1,0
496,264,9483,1,0
456,328,9626,2,0,B|376:384|288:296,1,146.666666666667,8|0
264,280,10055,5,8
264,208,10197,1,0
248,136,10340,1,0
192,88,10483,2,0,B|120:56|56:128,1,146.666666666667,8|0
48,192,10912,5,8
72,264,11055,1,0
136,304,11197,1,0
208,288,11340,2,0,B|208:192|112:192,1,146.666666666667,8|0
48,192,11769,5,8
88,128,11912,1,0
160,128,12055,1,0
232,136,12197,2,0,B|304:184|288:272,1,146.666666666667,8|0
312,328,12626,5,8
384,352,12769,1,0
448,320,12912,1,0
448,248,13055,1,8
392,112,13340,5,0
328,144,13483,1,8
264,112,13626,1,0
328,72,13769,1,0
392,40,13912,1,8
480,160,14197,5,0
456,232,14340,1,8
416,296,14483,1,0
352,328,14626,1,0
280,336,14769,1,8
112,344,15055,5,0
48,312,15197,2,0,B|48:232,1,73.3333333333333,8|0
48,168,15483,1,0
112,128,15626,1,8
256,96,15912,6,0,B|256:176,1,73.3333333333333,0|8
288,240,16197,1,0
360,256,16340,1,0
432,232,16483,1,8
480,96,16769,6,0,B|400:96,1,73.3333333333333,0|8
336,96,17055,2,0,B|256:96,1,73.3333333333333
192,96,17340,1,8
80,192,17626,6,0,B|160:192,1,73.3333333333333,0|8
192,256,17912,1,0
120,256,18055,1,0
80,192,18197,1,8
112,48,18483,5,0
184,32,18626,2,0,B|184:112,1,73.3333333333333,8|0
256,104,18912,1,0
256,176,19054,1,8
312,312,19340,6,0,B|392:312,3,73.3333333333333,0|8|0|0
448,272,19912,1,8
328,192,20197,5,0
400,192,20340,2,0,B|400:112,1,73.3333333333333,8|0
400,48,20626,1,0
328,32,20769,1,8
184,32,21054,6,0,B|264:32,1,73.3333333333333,0|8
256,104,21340,1,0
256,176,21483,1,0
256,248,21626,1,8
136,328,21912,5,0
80,280,22054,1,8
80,208,22197,1,0
136,160,22340,1,0
192,208,22483,1,8
256,336,22769,6,0,B|336:336,1,73.3333333333333,0|8
392,304,23054,1,0
432,248,23197,1,0
432,176,23340,1,8
368,48,23626,6,0,B|288:48,2,73.3333333333333,0|8|0
416,104,24054,1,0
360,152,24197,1,8
216,192,24483,5,0
144,168,24626,2,0,B|144:88,1,73.3333333333333,8|0
96,40,24912,1,0
48,96,25054,1,8
24,240,25340,6,0,B|56:312,1,73.3333333333333,0|8
120,344,25626,2,0,B|200:344,1,73.3333333333333
256,304,25912,1,8
392,352,26197,6,0,B|456:304,1,73.3333333333333,0|8
392,264,26483,1,0
344,208,26626,1,0
392,152,26769,1,8
256,96,27054,5,0
208,152,27197,1,8
256,208,27340,1,0
208,264,27483,1,0
160,208,27626,1,8
32,128,27912,5,0
80,72,28054,1,8
152,64,28197,1,0
216,32,28340,1,0
256,96,28483,1,8
384,32,28769,5,0
448,72,28912,1,8
480,136,29054,1,0
472,208,29197,1,0
408,248,29340,1,8
272,192,29626,6,0,B|192:192,3,73.3333333333333,2|10|2|2
128,192,30197,2,0,B|80:256|144:336,1,146.666666666667,8|0
208,344,30626,5,8
256,288,30769,1,0
304,344,30912,1,0
376,336,31054,2,0,B|440:288|448:208,1,146.666666666667,8|0
376,208,31483,5,8
400,136,31626,2,0,B|320:112,1,73.3333333333333
336,40,31912,2,0,B|264:16|192:56,1,146.666666666667,8|0
136,104,32340,6,0,B|96:176,1,73.3333333333333,10|2
104,240,32626,1,0
152,296,32769,1,8
288,344,33054,6,0,B|248:272,1,73.3333333333333,0|8
224,208,33340,1,0
256,144,33483,1,0
304,88,33626,2,0,B|400:96|408:192,1,146.666666666667,8|0
376,248,34054,5,8
304,264,34197,2,0,B|312:184,1,73.3333333333333
368,144,34483,2,0,B|416:80|352:0,1,146.666666666667,10|2
288,8,34912,5,8
216,16,35054,1,0
168,72,35197,1,0
152,144,35340,2,0,B|176:224|240:264,1,146.666666666667,8|0
312,272,35769,5,8
376,240,35912,1,0
416,176,36054,1,0
392,104,36197,1,8
192,192,36626,5,0
256,232,36769,1,0
320,192,36912,1,0
256,120,37055,6,0,B|240:56|176:40,2,110,4|0|0
256,264,38340,2,0,B|272:328|336:344,2,110
344,192,39626,1,0
440,136,40054,6,0,B|416:96|376:80,1,73.3333333333333
352,72,40483,2,0,B|296:40|240:64,1,110
144,96,41340,2,0,B|80:128|72:184,1,110
104,264,42197,5,0
200,312,42626,1,0
312,312,43054,1,0
416,272,43483,1,0
416,232,43626,1,0
416,192,43769,1,0
416,152,43912,6,0,B|416:96|376:48,1,110
272,24,44769,2,0,B|200:24|160:40,1,110
136,64,45340,1,0
128,96,45483,1,0
128,136,45626,6,0,B|128:200|184:232,1,110
256,168,46483,1,0
256,280,46912,2,0,B|336:280,1,73.3333333333333
368,280,47340,6,0,B|424:256|432:192,1,110
400,88,48197,1,0
312,24,48626,1,0
208,56,49055,5,0
192,88,49197,1,0
192,128,49340,1,0
200,160,49483,1,0
224,192,49626,1,0
256,208,49769,1,0
296,208,49912,1,0
328,192,50055,1,0
352,168,50197,1,0
368,136,50340,1,0
376,104,50483,1,0
368,72,50626,1,0
344,48,50769,6,0,B|272:16|200:72,1,146.666666666667,4|0
160,128,51197,2,0,B|136:200|184:272,1,146.666666666667
240,312,51626,1,0
256,240,51769,1,0
256,168,51912,1,0
240,96,52055,2,0,B|296:32|384:40|456:112,1,220
432,240,52769,5,0
416,312,52912,2,0,B|360:376|272:360,1,146.666666666667
216,352,53340,2,0,B|144:304|160:208|232:168,1,220
176,32,54055,1,0
104,56,54197,2,0,B|48:128|88:208,1,146.666666666667,4|0
131,252,54626,1,0
312,296,55055,6,0,B|240:352|152:328|128:240,1,220
296,96,55912,1,0
344,152,56055,1,0
328,224,56197,1,0
264,256,56340,2,0,B|176:264|136:160|216:104,1,220
432,80,57197,5,0
456,152,57340,1,0
448,224,57483,1,0
416,288,57626,2,0,B|360:336|272:336,1,146.666666666667,4|0
208,328,58055,2,0,B|136:296|104:192|160:128,1,220
352,56,58912,5,0
280,32,59055,1,0
208,40,59197,1,0
144,80,59340,2,0,B|96:152|128:232,1,146.666666666667,4|0
152,288,59769,2,0,B|224:352|320:320|352:256,1,220
192,104,60626,6,0,B|256:64|336:96,1,146.666666666667
392,144,61055,2,0,B|408:232|368:288|272:296,1,220,4|0
64,256,61912,1,0
152,56,62340,1,0
256,248,62769,5,0
312,296,62912,1,0
384,280,63055,1,0
440,232,63197,2,0,B|456:160|400:80,1,146.666666666667
344,48,63626,1,0
272,24,63769,1,0
200,32,63912,1,0
152,88,64055,2,0,B|104:168|144:240,1,146.666666666667
176,304,64483,6,0,B|232:360|328:336,1,146.666666666667
368,296,64912,2,0,B|408:232|384:144,1,146.666666666667
344,96,65340,2,0,B|256:24|136:96,1,220
320,224,66197,6,0,B|256:272|176:224,1,146.666666666667
128,280,66626,2,0,B|192:328|272:320,1,146.666666666667
336,304,67055,2,0,B|408:272|448:168|432:96,1,220
224,48,67912,5,0
184,112,68055,1,0
192,184,68197,1,0
208,256,68340,2,0,B|144:320|72:256,1,146.666666666667
24,208,68769,2,0,B|0:136|40:64,1,146.666666666667
104,32,69197,2,0,B|184:16|256:80,1,146.666666666667
288,128,69626,1,0
152,184,69912,2,0,B|192:264|280:280|352:232,1,220
400,200,70483,1,0
344,64,70769,1,0
344,64,70912,1,0
200,56,71197,1,0
200,56,71340,5,0
24,192,71769,1,4
240,224,72197,1,0
144,224,72483,1,0
176,160,72626,2,0,B|240:104|320:160,1,146.666666666667,4|0
368,208,73055,2,0,B|448:224|504:160|480:40,2,220,0|4|0
208,56,74340,2,0,B|120:72|104:160,1,146.666666666667,4|0
96,224,74769,5,0
144,280,74912,1,0
216,304,75055,1,0
288,288,75197,2,0,B|344:232|304:152,1,146.666666666667,4|0
256,96,75626,5,0
184,96,75769,1,0
136,152,75912,1,0
152,224,76055,2,0,B|224:272|288:200,1,146.666666666667,4|0
224,160,76483,5,0
184,96,76626,1,0
208,24,76769,1,0
280,24,76912,2,0,B|322:27|344:64,3,73.3333333333333
368,128,77483,1,0
360,200,77626,1,0
320,264,77769,1,0
248,288,77912,1,0
176,264,78055,1,0
128,208,78197,5,8
192,64,78483,1,0
192,64,78626,1,8
256,32,78769,1,0
320,64,78912,1,0
256,104,79055,1,8
256,248,79340,5,0
256,320,79483,1,8
320,288,79626,1,0
320,216,79769,1,0
256,176,79912,1,8
128,104,80197,6,0,B|48:104,2,73.3333333333333,0|8|0
192,72,80626,1,0
256,40,80769,1,8
392,104,81055,6,0,B|472:104,2,73.3333333333333,0|8|0
328,72,81483,1,0
256,40,81626,1,8
176,160,81912,5,0
176,160,82055,1,8
256,280,82340,1,0
256,280,82483,1,8
336,160,82769,5,0
336,160,82912,1,8
408,176,83055,1,0
440,240,83197,1,0
400,304,83340,1,8
256,344,83626,5,0
256,344,83769,1,8
112,304,84055,1,0
112,304,84197,1,8
184,176,84483,5,0
224,112,84626,1,8
256,48,84769,1,0
288,112,84912,1,0
328,176,85055,1,8
256,304,85340,6,0,B|256:224,1,73.3333333333333,0|8
256,160,85626,1,0
256,88,85769,1,0
256,16,85912,1,8
112,48,86197,6,0,B|56:104,1,73.3333333333333,0|8
56,176,86483,2,0,B|56:256,1,73.3333333333333
112,296,86769,1,8
192,176,87055,5,0
256,136,87197,1,8
320,176,87340,1,0
296,248,87483,1,0
216,248,87626,1,8
320,96,87912,5,0
384,136,88055,2,0,B|464:136,1,73.3333333333333,8|0
488,200,88340,1,0
456,264,88483,1,8
328,344,88769,6,0,B|408:344,2,73.3333333333333,0|8|0
256,328,89197,1,0
256,256,89340,1,8
40,304,89626,5,0
40,304,89769,2,0,B|40:224,2,73.3333333333333,8|0|0
112,328,90197,6,0,B|144:368|184:368,2,73.3333333333333
112,256,90626,2,0,B|136:216|176:216,2,73.3333333333333
176,296,91055,1,0
248,312,91197,1,0
320,288,91340,1,0
352,224,91483,1,0
352,152,91626,1,0
320,88,91769,1,0
256,192,91912,12,0,94447
