osu file format v14

[General]
AudioFilename: Dazzling World M@ster Version.mp3
AudioLeadIn: 0
PreviewTime: 82925
Countdown: 0
SampleSet: Normal
StackLeniency: 0.7
Mode: 1
LetterboxInBreaks: 0
WidescreenStoryboard: 1

[Editor]
Bookmarks: 26675,41675,59984,86455,87557,125499
DistanceSpacing: 1.2
BeatDivisor: 4
GridSize: 4
TimelineZoom: 1.7

[Metadata]
Title:Dazzling World (M@STER VERSION)
TitleUnicode:Dazzling World (M@STER VERSION)
Artist:Sanpei Yuuko
ArtistUnicode:Sanpei Yuuko
Creator:JudgeTheDude
Version:Oni
Source:THE IDOLM@STER
Tags:ryu ryou akizuki okamiratsu 三瓶 由布子
BeatmapID:533300
BeatmapSetID:68423

[Difficulty]
HPDrainRate:4
CircleSize:5
OverallDifficulty:4
ApproachRate:7
SliderMultiplier:2
SliderTickRate:1

[Events]
//Background and Video events
0,0,"BG Hard.jpg",0,0
//Break Periods
//Storyboard Layer 0 (Background)
//Storyboard Layer 1 (Fail)
//Storyboard Layer 2 (Pass)
//Storyboard Layer 3 (Foreground)
//Storyboard Sound Samples

[TimingPoints]
12558,441.176470588235,4,1,0,50,1,0
83146,-100,4,1,0,60,0,1
111381,-100,4,1,0,80,0,0

[Colours]
Combo1 : 0,255,255
Combo2 : 255,255,255
Combo3 : 128,255,0
Combo4 : 255,128,255

[HitObjects]
256,192,12558,5,0,0:0:0:0:
256,192,12778,1,8,0:0:0:0:
256,192,12888,1,0,0:0:0:0:
256,192,12999,1,8,0:0:0:0:
256,192,13219,1,0,0:0:0:0:
256,192,13330,1,0,0:0:0:0:
256,192,13440,1,0,0:0:0:0:
256,192,13660,1,8,0:0:0:0:
256,192,13771,1,0,0:0:0:0:
256,192,13881,1,0,0:0:0:0:
256,192,14102,1,8,0:0:0:0:
256,192,14212,1,8,0:0:0:0:
256,192,14322,1,0,0:0:0:0:
256,192,14543,1,0,0:0:0:0:
256,192,14653,1,0,0:0:0:0:
256,192,14763,1,8,0:0:0:0:
256,192,14874,1,8,0:0:0:0:
256,192,15094,1,8,0:0:0:0:
256,192,15205,1,8,0:0:0:0:
256,192,15425,1,0,0:0:0:0:
256,192,15535,1,0,0:0:0:0:
256,192,15646,1,8,0:0:0:0:
256,192,15866,1,8,0:0:0:0:
256,192,15977,1,0,0:0:0:0:
256,192,16087,1,0,0:0:0:0:
256,192,16528,1,0,0:0:0:0:
256,192,16749,1,0,0:0:0:0:
256,192,16969,1,0,0:0:0:0:
256,192,17080,1,0,0:0:0:0:
256,192,17190,1,0,0:0:0:0:
256,192,17300,1,0,0:0:0:0:
256,192,17410,1,8,0:0:0:0:
256,192,17852,1,0,0:0:0:0:
256,192,18072,1,8,0:0:0:0:
256,192,18293,1,8,0:0:0:0:
256,192,18513,1,0,0:0:0:0:
256,192,18734,1,8,0:0:0:0:
256,192,18844,1,0,0:0:0:0:
256,192,18955,1,0,0:0:0:0:
256,192,19065,1,0,0:0:0:0:
256,192,19175,1,8,0:0:0:0:
256,192,19396,1,0,0:0:0:0:
256,192,19616,1,0,0:0:0:0:
256,192,19837,1,8,0:0:0:0:
256,192,19947,1,0,0:0:0:0:
256,192,20058,1,8,0:0:0:0:
256,192,20499,1,0,0:0:0:0:
256,192,20719,1,0,0:0:0:0:
256,192,20940,1,8,0:0:0:0:
256,192,21381,1,8,0:0:0:0:
256,192,21602,1,0,0:0:0:0:
256,192,21822,1,8,0:0:0:0:
256,192,22043,1,0,0:0:0:0:
256,192,22153,1,0,0:0:0:0:
256,192,22263,1,8,0:0:0:0:
256,192,22705,1,12,0:0:0:0:
256,192,22925,1,0,0:0:0:0:
256,192,23146,1,8,0:0:0:0:
256,192,23366,1,8,0:0:0:0:
256,192,23477,1,0,0:0:0:0:
256,192,23587,1,8,0:0:0:0:
256,192,24028,1,8,0:0:0:0:
256,192,24249,1,0,0:0:0:0:
256,192,24469,1,8,0:0:0:0:
256,192,24690,1,0,0:0:0:0:
256,192,24800,1,0,0:0:0:0:
256,192,24910,1,8,0:0:0:0:
256,192,25352,1,8,0:0:0:0:
256,192,25572,1,8,0:0:0:0:
256,192,25682,1,0,0:0:0:0:
256,192,25793,1,8,0:0:0:0:
256,192,25903,1,0,0:0:0:0:
256,192,26013,1,0,0:0:0:0:
256,192,26124,1,0,0:0:0:0:
256,192,26234,1,12,0:0:0:0:
256,192,26675,1,0,0:0:0:0:
256,192,26896,1,0,0:0:0:0:
256,192,27116,1,8,0:0:0:0:
256,192,27337,1,0,0:0:0:0:
256,192,27557,1,0,0:0:0:0:
256,192,27668,1,8,0:0:0:0:
256,192,27778,1,0,0:0:0:0:
256,192,27999,1,8,0:0:0:0:
256,192,28440,1,0,0:0:0:0:
256,192,28550,1,0,0:0:0:0:
256,192,28660,1,8,0:0:0:0:
256,192,28881,1,8,0:0:0:0:
256,192,29102,1,0,0:0:0:0:
256,192,29322,1,8,0:0:0:0:
256,192,29432,1,8,0:0:0:0:
256,192,29543,1,0,0:0:0:0:
256,192,29763,1,8,0:0:0:0:
256,192,30205,1,0,0:0:0:0:
256,192,30425,1,0,0:0:0:0:
256,192,30646,1,8,0:0:0:0:
256,192,30866,1,0,0:0:0:0:
256,192,31087,1,8,0:0:0:0:
256,192,31307,1,0,0:0:0:0:
256,192,31528,1,8,0:0:0:0:
256,192,31749,1,0,0:0:0:0:
256,192,31859,1,0,0:0:0:0:
256,192,31969,1,8,0:0:0:0:
256,192,32190,1,0,0:0:0:0:
256,192,32410,1,0,0:0:0:0:
256,192,32521,1,0,0:0:0:0:
256,192,32631,1,0,0:0:0:0:
256,192,32741,1,0,0:0:0:0:
256,192,32852,1,8,0:0:0:0:
256,192,33293,1,0,0:0:0:0:
256,192,33734,1,8,0:0:0:0:
256,192,33955,1,0,0:0:0:0:
256,192,34175,1,8,0:0:0:0:
256,192,34616,1,0,0:0:0:0:
256,192,34837,1,0,0:0:0:0:
256,192,34947,1,0,0:0:0:0:
256,192,35057,1,8,0:0:0:0:
256,192,35278,1,8,0:0:0:0:
256,192,35388,1,0,0:0:0:0:
256,192,35499,1,0,0:0:0:0:
256,192,35719,1,0,0:0:0:0:
256,192,35830,1,0,0:0:0:0:
256,192,35940,1,8,0:0:0:0:
256,192,36381,1,8,0:0:0:0:
256,192,36822,1,8,0:0:0:0:
256,192,37263,1,0,0:0:0:0:
256,192,37484,1,0,0:0:0:0:
256,192,37705,1,8,0:0:0:0:
256,192,38146,1,0,0:0:0:0:
256,192,38256,1,0,0:0:0:0:
256,192,38366,1,8,0:0:0:0:
256,192,38477,1,0,0:0:0:0:
256,192,38587,1,8,0:0:0:0:
256,192,38807,1,0,0:0:0:0:
256,192,39028,1,8,0:0:0:0:
256,192,39469,1,0,0:0:0:0:
256,192,39580,1,0,0:0:0:0:
256,192,39690,1,8,0:0:0:0:
256,192,39910,1,0,0:0:0:0:
256,192,40021,1,0,0:0:0:0:
256,192,40131,1,8,0:0:0:0:
256,192,40241,1,8,0:0:0:0:
256,192,40352,1,8,0:0:0:0:
256,192,40572,1,8,0:0:0:0:
256,192,40793,1,8,0:0:0:0:
256,192,40903,1,8,0:0:0:0:
256,192,41013,1,0,0:0:0:0:
256,192,41124,1,8,0:0:0:0:
256,192,41234,1,0,0:0:0:0:
256,192,41675,1,0,0:0:0:0:
256,192,41896,1,0,0:0:0:0:
256,192,42006,1,0,0:0:0:0:
256,192,42116,1,8,0:0:0:0:
256,192,42337,1,0,0:0:0:0:
256,192,42557,1,8,0:0:0:0:
256,192,42778,1,0,0:0:0:0:
256,192,42888,1,0,0:0:0:0:
256,192,42999,1,8,0:0:0:0:
256,192,43219,1,0,0:0:0:0:
256,192,43440,1,8,0:0:0:0:
256,192,43550,1,0,0:0:0:0:
256,192,43660,1,0,0:0:0:0:
256,192,43771,1,0,0:0:0:0:
256,192,43881,1,8,0:0:0:0:
256,192,44102,1,0,0:0:0:0:
256,192,44322,1,0,0:0:0:0:
256,192,44543,1,0,0:0:0:0:
256,192,44653,1,0,0:0:0:0:
256,192,44763,1,8,0:0:0:0:
256,192,44984,1,8,0:0:0:0:
256,192,45094,1,0,0:0:0:0:
256,192,45205,1,0,0:0:0:0:
256,192,45425,1,0,0:0:0:0:
256,192,45535,1,8,0:0:0:0:
256,192,45646,1,8,0:0:0:0:
256,192,45866,1,8,0:0:0:0:
256,192,46087,1,8,0:0:0:0:
256,192,46197,1,0,0:0:0:0:
256,192,46307,1,0,0:0:0:0:
256,192,46528,1,8,0:0:0:0:
256,192,46638,1,0,0:0:0:0:
256,192,46749,1,0,0:0:0:0:
256,192,46969,1,0,0:0:0:0:
256,192,47080,1,0,0:0:0:0:
256,192,47190,1,8,0:0:0:0:
256,192,47410,1,8,0:0:0:0:
256,192,47521,1,0,0:0:0:0:
256,192,47631,1,8,0:0:0:0:
256,192,47852,1,0,0:0:0:0:
256,192,48072,1,0,0:0:0:0:
256,192,48182,1,0,0:0:0:0:
256,192,48293,1,8,0:0:0:0:
256,192,48513,1,0,0:0:0:0:
256,192,48624,1,0,0:0:0:0:
256,192,48734,1,8,0:0:0:0:
256,192,48955,1,8,0:0:0:0:
256,192,49065,1,8,0:0:0:0:
256,192,49175,1,0,0:0:0:0:
256,192,49616,1,0,0:0:0:0:
256,192,49837,1,0,0:0:0:0:
256,192,49947,1,0,0:0:0:0:
256,192,50057,1,8,0:0:0:0:
256,192,50278,1,8,0:0:0:0:
256,192,50388,1,8,0:0:0:0:
256,192,50499,1,0,0:0:0:0:
256,192,50719,1,0,0:0:0:0:
256,192,50830,1,0,0:0:0:0:
256,192,50940,1,8,0:0:0:0:
256,192,51381,1,8,0:0:0:0:
256,192,51602,1,8,0:0:0:0:
256,192,51822,1,0,0:0:0:0:
256,192,52263,1,0,0:0:0:0:
256,192,52705,1,8,0:0:0:0:
256,192,53146,1,0,0:0:0:0:
256,192,53366,1,0,0:0:0:0:
256,192,53587,1,8,0:0:0:0:
256,192,54028,1,8,0:0:0:0:
256,192,54249,1,8,0:0:0:0:
256,192,54469,1,0,0:0:0:0:
256,192,54580,1,0,0:0:0:0:
256,192,54690,1,0,0:0:0:0:
256,192,54800,1,0,0:0:0:0:
256,192,54910,1,8,0:0:0:0:
256,192,55352,5,0,0:0:0:0:
256,192,55793,1,8,0:0:0:0:
256,192,55903,1,0,0:0:0:0:
256,192,56013,1,0,0:0:0:0:
256,192,56124,1,0,0:0:0:0:
256,192,56234,1,8,0:0:0:0:
256,192,56455,1,0,0:0:0:0:
256,192,56675,1,8,0:0:0:0:
256,192,56785,1,0,0:0:0:0:
256,192,56896,1,0,0:0:0:0:
256,192,57006,1,0,0:0:0:0:
256,192,57116,1,8,0:0:0:0:
256,192,57337,1,0,0:0:0:0:
256,192,57557,1,0,0:0:0:0:
256,192,57668,1,8,0:0:0:0:
256,192,57778,1,0,0:0:0:0:
256,192,57888,1,0,0:0:0:0:
256,192,57999,1,8,0:0:0:0:
256,192,58219,1,0,0:0:0:0:
256,192,58440,1,8,0:0:0:0:
256,192,58550,1,0,0:0:0:0:
256,192,58660,1,0,0:0:0:0:
256,192,58771,1,8,0:0:0:0:
256,192,58881,1,8,0:0:0:0:
256,192,59102,1,0,0:0:0:0:
256,192,59322,1,8,0:0:0:0:
256,192,59432,1,8,0:0:0:0:
256,192,59543,1,0,0:0:0:0:
256,192,59653,1,0,0:0:0:0:
256,192,59763,1,8,0:0:0:0:
256,192,59984,1,0,0:0:0:0:
256,192,60205,1,0,0:0:0:0:
256,192,60315,1,0,0:0:0:0:
256,192,60425,1,8,0:0:0:0:
256,192,60646,1,0,0:0:0:0:
256,192,60866,1,8,0:0:0:0:
256,192,60977,1,0,0:0:0:0:
256,192,61087,1,0,0:0:0:0:
256,192,61307,1,0,0:0:0:0:
256,192,61528,1,8,0:0:0:0:
256,192,61638,1,0,0:0:0:0:
256,192,61749,1,0,0:0:0:0:
256,192,61969,1,0,0:0:0:0:
256,192,62190,1,0,0:0:0:0:
256,192,62300,1,0,0:0:0:0:
256,192,62410,1,8,0:0:0:0:
256,192,62631,1,0,0:0:0:0:
256,192,62852,1,0,0:0:0:0:
256,192,63293,1,8,0:0:0:0:
256,192,63513,1,0,0:0:0:0:
256,192,63734,1,8,0:0:0:0:
256,192,63955,1,0,0:0:0:0:
256,192,64175,1,8,0:0:0:0:
256,192,64396,1,0,0:0:0:0:
256,192,64506,1,0,0:0:0:0:
256,192,64616,1,8,0:0:0:0:
256,192,64837,1,8,0:0:0:0:
256,192,65057,1,8,0:0:0:0:
256,192,65168,1,8,0:0:0:0:
256,192,65278,1,8,0:0:0:0:
256,192,65499,1,8,0:0:0:0:
256,192,65719,1,8,0:0:0:0:
256,192,65830,1,8,0:0:0:0:
256,192,65940,1,0,0:0:0:0:
256,192,66160,1,0,0:0:0:0:
256,192,66381,1,0,0:0:0:0:
256,192,66491,1,0,0:0:0:0:
256,192,66602,1,8,0:0:0:0:
256,192,66822,1,8,0:0:0:0:
256,192,67263,1,8,0:0:0:0:
256,192,67374,1,0,0:0:0:0:
256,192,67484,1,0,0:0:0:0:
256,192,67705,1,8,0:0:0:0:
256,192,67815,1,0,0:0:0:0:
256,192,67925,1,0,0:0:0:0:
256,192,68146,1,8,0:0:0:0:
256,192,68256,1,0,0:0:0:0:
256,192,68366,1,8,0:0:0:0:
256,192,68587,5,8,0:0:0:0:
256,192,68807,1,0,0:0:0:0:
256,192,69028,1,0,0:0:0:0:
256,192,69249,1,0,0:0:0:0:
256,192,69469,1,8,0:0:0:0:
256,192,69910,1,0,0:0:0:0:
256,192,70131,1,0,0:0:0:0:
256,192,70352,1,8,0:0:0:0:
256,192,70462,1,0,0:0:0:0:
256,192,70572,1,0,0:0:0:0:
256,192,70793,1,8,0:0:0:0:
256,192,70903,1,0,0:0:0:0:
256,192,71013,1,8,0:0:0:0:
256,192,71234,1,8,0:0:0:0:
256,192,71675,1,8,0:0:0:0:
256,192,71896,1,8,0:0:0:0:
256,192,72116,1,8,0:0:0:0:
256,192,72557,1,0,0:0:0:0:
256,192,72778,1,0,0:0:0:0:
256,192,72999,1,8,0:0:0:0:
256,192,73219,1,0,0:0:0:0:
256,192,73440,1,8,0:0:0:0:
256,192,73881,1,8,0:0:0:0:
256,192,73991,1,0,0:0:0:0:
256,192,74102,1,0,0:0:0:0:
256,192,74322,1,8,0:0:0:0:
256,192,74543,1,8,0:0:0:0:
256,192,74763,1,8,0:0:0:0:
256,192,74874,1,0,0:0:0:0:
256,192,74984,1,0,0:0:0:0:
256,192,75205,1,0,0:0:0:0:
256,192,75425,1,0,0:0:0:0:
256,192,75646,1,8,0:0:0:0:
256,192,75866,1,0,0:0:0:0:
256,192,76087,1,8,0:0:0:0:
256,192,76528,1,8,0:0:0:0:
256,192,76749,1,8,0:0:0:0:
256,192,76969,1,0,0:0:0:0:
256,192,77190,1,0,0:0:0:0:
256,192,77410,1,8,0:0:0:0:
256,192,77852,1,0,0:0:0:0:
256,192,78072,1,0,0:0:0:0:
256,192,78182,1,0,0:0:0:0:
256,192,78293,1,8,0:0:0:0:
256,192,78734,1,8,0:0:0:0:
256,192,78955,1,8,0:0:0:0:
256,192,79065,1,8,0:0:0:0:
256,192,79175,1,0,0:0:0:0:
256,192,79616,1,8,0:0:0:0:
256,192,79837,1,8,0:0:0:0:
256,192,79947,1,8,0:0:0:0:
256,192,80057,1,0,0:0:0:0:
256,192,80499,1,0,0:0:0:0:
256,192,80719,1,0,0:0:0:0:
256,192,80830,1,0,0:0:0:0:
256,192,80940,1,8,0:0:0:0:
256,192,81160,1,0,0:0:0:0:
256,192,81381,1,8,0:0:0:0:
256,192,81602,1,0,0:0:0:0:
256,192,81822,1,8,0:0:0:0:
256,192,82043,1,8,0:0:0:0:
256,192,82263,1,4,0:0:0:0:
256,192,82484,1,8,0:0:0:0:
256,192,82705,1,8,0:0:0:0:
256,192,82925,1,8,0:0:0:0:
256,192,83146,1,4,0:0:0:0:
256,192,83366,1,0,0:0:0:0:
256,192,83477,1,0,0:0:0:0:
256,192,83587,1,8,0:0:0:0:
256,192,83807,1,0,0:0:0:0:
256,192,83918,1,8,0:0:0:0:
256,192,84028,1,0,0:0:0:0:
256,192,84249,1,0,0:0:0:0:
256,192,84359,1,0,0:0:0:0:
256,192,84469,1,8,0:0:0:0:
256,192,84690,1,0,0:0:0:0:
256,192,84800,1,8,0:0:0:0:
256,192,84910,1,0,0:0:0:0:
256,192,85131,1,8,0:0:0:0:
256,192,85241,1,0,0:0:0:0:
256,192,85352,1,8,0:0:0:0:
256,192,85572,1,0,0:0:0:0:
256,192,85793,1,8,0:0:0:0:
256,192,86013,1,0,0:0:0:0:
256,192,86234,1,8,0:0:0:0:
256,192,86675,1,0,0:0:0:0:
256,192,86896,1,8,0:0:0:0:
256,192,87006,1,8,0:0:0:0:
256,192,87116,1,0,0:0:0:0:
256,192,87337,1,0,0:0:0:0:
256,192,87447,1,0,0:0:0:0:
256,192,87557,1,8,0:0:0:0:
256,192,87778,1,0,0:0:0:0:
256,192,87888,1,8,0:0:0:0:
256,192,87999,1,8,0:0:0:0:
256,192,88219,1,0,0:0:0:0:
256,192,88330,1,0,0:0:0:0:
256,192,88440,1,8,0:0:0:0:
256,192,88550,1,8,0:0:0:0:
256,192,88660,1,0,0:0:0:0:
256,192,88881,1,8,0:0:0:0:
256,192,88991,1,8,0:0:0:0:
256,192,89102,1,0,0:0:0:0:
256,192,89212,1,0,0:0:0:0:
256,192,89322,1,8,0:0:0:0:
256,192,89543,1,0,0:0:0:0:
256,192,89763,1,0,0:0:0:0:
256,192,89984,1,0,0:0:0:0:
256,192,90205,1,8,0:0:0:0:
256,192,90425,1,8,0:0:0:0:
256,192,90535,1,8,0:0:0:0:
256,192,90646,1,8,0:0:0:0:
256,192,90866,1,8,0:0:0:0:
256,192,90977,1,8,0:0:0:0:
256,192,91087,1,0,0:0:0:0:
256,192,91307,1,0,0:0:0:0:
256,192,91418,1,0,0:0:0:0:
256,192,91528,1,8,0:0:0:0:
256,192,91749,1,0,0:0:0:0:
256,192,91859,1,8,0:0:0:0:
256,192,91969,1,0,0:0:0:0:
256,192,92190,1,0,0:0:0:0:
256,192,92300,1,0,0:0:0:0:
256,192,92410,1,8,0:0:0:0:
256,192,92521,1,0,0:0:0:0:
256,192,92631,1,0,0:0:0:0:
256,192,92741,1,0,0:0:0:0:
256,192,92852,1,8,0:0:0:0:
256,192,93072,1,0,0:0:0:0:
256,192,93293,1,8,0:0:0:0:
256,192,93513,1,0,0:0:0:0:
256,192,93734,1,0,0:0:0:0:
256,192,93955,1,8,0:0:0:0:
256,192,94065,1,8,0:0:0:0:
256,192,94175,1,8,0:0:0:0:
256,192,94396,1,0,0:0:0:0:
256,192,94506,1,8,0:0:0:0:
256,192,94616,1,8,0:0:0:0:
256,192,94837,1,8,0:0:0:0:
256,192,94947,1,8,0:0:0:0:
256,192,95057,1,8,0:0:0:0:
256,192,95278,1,0,0:0:0:0:
256,192,95499,1,8,0:0:0:0:
256,192,95609,1,8,0:0:0:0:
256,192,95719,1,8,0:0:0:0:
256,192,95940,1,8,0:0:0:0:
256,192,96050,1,0,0:0:0:0:
256,192,96160,1,8,0:0:0:0:
256,192,96381,1,8,0:0:0:0:
256,192,96491,1,8,0:0:0:0:
256,192,96602,1,0,0:0:0:0:
256,192,96822,1,0,0:0:0:0:
256,192,96932,1,0,0:0:0:0:
256,192,97043,1,8,0:0:0:0:
256,192,97263,1,8,0:0:0:0:
256,192,97484,1,8,0:0:0:0:
256,192,97594,1,0,0:0:0:0:
256,192,97705,1,0,0:0:0:0:
256,192,97925,1,0,0:0:0:0:
256,192,98035,1,8,0:0:0:0:
256,192,98146,1,8,0:0:0:0:
256,192,98366,1,0,0:0:0:0:
256,192,98477,1,0,0:0:0:0:
256,192,98587,1,8,0:0:0:0:
256,192,98807,1,8,0:0:0:0:
256,192,98918,1,0,0:0:0:0:
256,192,99028,1,8,0:0:0:0:
256,192,99249,1,8,0:0:0:0:
256,192,99359,1,8,0:0:0:0:
256,192,99469,1,0,0:0:0:0:
256,192,99690,1,0,0:0:0:0:
256,192,99800,1,8,0:0:0:0:
256,192,99910,1,0,0:0:0:0:
256,192,100131,1,8,0:0:0:0:
256,192,100241,1,0,0:0:0:0:
256,192,100352,1,8,0:0:0:0:
256,192,100572,1,0,0:0:0:0:
256,192,100682,1,0,0:0:0:0:
256,192,100793,1,8,0:0:0:0:
256,192,101013,1,0,0:0:0:0:
256,192,101124,1,8,0:0:0:0:
256,192,101234,1,8,0:0:0:0:
256,192,101455,1,8,0:0:0:0:
256,192,101565,1,0,0:0:0:0:
256,192,101675,1,8,0:0:0:0:
256,192,101896,1,0,0:0:0:0:
256,192,102337,1,0,0:0:0:0:
256,192,102557,1,8,0:0:0:0:
256,192,102778,1,0,0:0:0:0:
256,192,102999,1,8,0:0:0:0:
256,192,103219,1,0,0:0:0:0:
256,192,103440,1,0,0:0:0:0:
256,192,103550,1,0,0:0:0:0:
256,192,103660,1,8,0:0:0:0:
256,192,103771,1,0,0:0:0:0:
256,192,103881,1,8,0:0:0:0:
256,192,104322,1,0,0:0:0:0:
256,192,104543,1,0,0:0:0:0:
256,192,104763,1,8,0:0:0:0:
256,192,104874,1,0,0:0:0:0:
256,192,104984,1,0,0:0:0:0:
256,192,105205,1,8,0:0:0:0:
256,192,105315,1,0,0:0:0:0:
256,192,105425,1,8,0:0:0:0:
256,192,105646,1,8,0:0:0:0:
256,192,105756,1,8,0:0:0:0:
256,192,105866,1,0,0:0:0:0:
256,192,106087,1,0,0:0:0:0:
256,192,106197,1,8,0:0:0:0:
256,192,106307,1,0,0:0:0:0:
256,192,106528,1,8,0:0:0:0:
256,192,106638,1,0,0:0:0:0:
256,192,106749,1,0,0:0:0:0:
256,192,106969,1,0,0:0:0:0:
256,192,107080,1,8,0:0:0:0:
256,192,107190,1,0,0:0:0:0:
256,192,107300,1,0,0:0:0:0:
256,192,107410,1,8,0:0:0:0:
256,192,107852,1,8,0:0:0:0:
256,192,107962,1,0,0:0:0:0:
256,192,108072,1,8,0:0:0:0:
256,192,108293,1,0,0:0:0:0:
256,192,108403,1,0,0:0:0:0:
256,192,108513,1,8,0:0:0:0:
256,192,108734,1,0,0:0:0:0:
256,192,108844,1,0,0:0:0:0:
256,192,108955,1,8,0:0:0:0:
256,192,109175,1,0,0:0:0:0:
256,192,109285,1,8,0:0:0:0:
256,192,109396,1,0,0:0:0:0:
256,192,109616,1,0,0:0:0:0:
256,192,109727,1,0,0:0:0:0:
256,192,109837,1,8,0:0:0:0:
256,192,109947,1,0,0:0:0:0:
256,192,110057,1,0,0:0:0:0:
256,192,110278,1,8,0:0:0:0:
256,192,110388,1,0,0:0:0:0:
256,192,110499,1,0,0:0:0:0:
256,192,110719,1,0,0:0:0:0:
256,192,110940,1,8,0:0:0:0:
256,192,111160,1,0,0:0:0:0:
256,192,111381,1,4,0:0:0:0:
256,192,111602,1,8,0:0:0:0:
256,192,111712,1,0,0:0:0:0:
256,192,111822,1,0,0:0:0:0:
256,192,112263,1,0,0:0:0:0:
256,192,112484,1,8,0:0:0:0:
256,192,112705,1,0,0:0:0:0:
256,192,112925,1,0,0:0:0:0:
256,192,113146,1,0,0:0:0:0:
256,192,113366,1,0,0:0:0:0:
256,192,113587,1,8,0:0:0:0:
256,192,113807,1,0,0:0:0:0:
256,192,114028,1,8,0:0:0:0:
256,192,114249,1,0,0:0:0:0:
256,192,114469,1,8,0:0:0:0:
256,192,114910,1,0,0:0:0:0:
256,192,115131,1,0,0:0:0:0:
256,192,115241,1,0,0:0:0:0:
256,192,115352,1,8,0:0:0:0:
256,192,115572,1,0,0:0:0:0:
256,192,115682,1,0,0:0:0:0:
256,192,115793,1,8,0:0:0:0:
256,192,116013,1,0,0:0:0:0:
256,192,116124,1,0,0:0:0:0:
256,192,116234,1,0,0:0:0:0:
256,192,116455,1,8,0:0:0:0:
256,192,116565,1,0,0:0:0:0:
256,192,116675,1,8,0:0:0:0:
256,192,116896,1,0,0:0:0:0:
256,192,117116,1,0,0:0:0:0:
256,192,117337,1,0,0:0:0:0:
256,192,117557,1,8,0:0:0:0:
256,192,117778,1,8,0:0:0:0:
256,192,117999,1,8,0:0:0:0:
256,192,118219,1,0,0:0:0:0:
256,192,118660,1,0,0:0:0:0:
256,192,118881,1,2,0:0:0:0:
256,192,119322,1,8,0:0:0:0:
256,192,119543,1,8,0:0:0:0:
256,192,119763,1,8,0:0:0:0:
256,192,119984,1,8,0:0:0:0:
256,192,120205,1,0,0:0:0:0:
256,192,120425,1,0,0:0:0:0:
256,192,120646,1,8,0:0:0:0:
256,192,121087,1,0,0:0:0:0:
256,192,121197,1,0,0:0:0:0:
256,192,121307,1,0,0:0:0:0:
256,192,121528,1,0,0:0:0:0:
256,192,121638,1,0,0:0:0:0:
256,192,121749,1,0,0:0:0:0:
256,192,121969,1,8,0:0:0:0:
256,192,122190,1,0,0:0:0:0:
256,192,122410,1,0,0:0:0:0:
256,192,122521,1,0,0:0:0:0:
256,192,122631,1,0,0:0:0:0:
256,192,122852,1,0,0:0:0:0:
256,192,123072,1,8,0:0:0:0:
256,192,123293,1,0,0:0:0:0:
256,192,123513,1,0,0:0:0:0:
256,192,123734,1,0,0:0:0:0:
256,192,123955,1,8,0:0:0:0:
256,192,124175,1,0,0:0:0:0:
256,192,124396,1,8,0:0:0:0:
256,192,124616,1,0,0:0:0:0:
256,192,124837,1,0,0:0:0:0:
256,192,125057,1,8,0:0:0:0:
256,192,125168,1,0,0:0:0:0:
256,192,125278,1,8,0:0:0:0:
