osu file format v9

[General]
AudioFilename: Rurouni Kenshin OP - Freckles.mp3
AudioLeadIn: 0
PreviewTime: 11697
Countdown: 0
SampleSet: Normal
StackLeniency: 0.7
Mode: 1
LetterboxInBreaks: 1

[Editor]
DistanceSpacing: 1
BeatDivisor: 3
GridSize: 32

[Metadata]
Title:Freckles
Artist:Sandy Fox
Creator:iMuffin
Version:Taickles
Source:Rurouni Kenshin
Tags:SapphireGhost OzzyOzrock

[Difficulty]
HPDrainRate:5
CircleSize:5
OverallDifficulty:5
ApproachRate:5
SliderMultiplier:1.4
SliderTickRate:1

[Events]
//Background and Video events
//Break Periods
//Storyboard Layer 0 (Background)
//Storyboard Layer 1 (Fail)
//Storyboard Layer 2 (Pass)
//Storyboard Layer 3 (Foreground)
//Storyboard Sound Samples
//Background Colour Transformations
3,100,163,162,255

[TimingPoints]
462,350.877192982456,4,1,0,80,1,0
11521,352.941176470588,4,1,0,80,1,0
55285,-100,4,1,0,80,0,1
91991,-100,4,1,0,80,0,0

[Colours]
Combo1 : 0,165,244
Combo2 : 252,121,3

[HitObjects]
128,96,462,1,4
384,288,695,5,8
384,288,812,1,8
128,288,1046,5,0
384,288,1163,5,8
384,288,1397,1,8
128,288,1514,5,0
384,288,1748,5,8
384,288,1865,1,8
128,288,2099,5,0
128,288,2216,1,0
384,96,2450,5,12
128,96,3269,5,4
384,288,3502,5,8
384,288,3619,1,8
128,288,3853,5,0
384,288,3970,5,8
384,288,4204,1,8
128,288,4321,5,0
384,288,4555,5,8
384,288,4672,1,8
128,288,4906,5,0
128,288,5023,1,0
384,96,5257,5,12
128,96,6076,5,4
384,288,6309,5,8
384,288,6426,1,8
128,288,6660,5,0
384,288,6777,5,8
384,288,7011,1,8
128,288,7128,5,0
384,288,7362,5,8
384,288,7479,1,8
128,288,7713,5,0
128,288,7830,1,0
384,96,8064,5,12
384,288,8532,1,8
384,288,8649,1,8
128,288,8883,5,0
128,288,9000,1,0
384,288,9233,5,8
128,288,9350,5,0
128,288,9584,1,0
384,288,9701,5,8
128,288,9935,5,0
128,288,10052,1,0
384,288,10286,5,8
128,288,10403,5,0
128,288,10637,1,0
128,288,10754,1,0
384,288,10988,5,8
128,288,11105,5,0
128,288,11222,1,0
384,288,11339,5,8
128,288,11521,5,0
128,288,11756,1,0
128,288,11873,1,0
128,288,12109,1,0
384,288,12226,5,8
384,288,12579,1,8
384,288,12815,1,8
128,288,12932,5,0
128,288,13168,1,0
384,288,13285,5,8
384,288,13520,1,8
128,288,13638,5,0
384,288,13873,5,8
128,288,13991,5,0
128,288,14226,1,0
128,288,14344,1,0
384,288,14697,5,8
128,288,15050,5,0
128,288,15285,1,0
384,288,15403,5,8
128,288,15638,5,0
128,288,15756,1,0
384,288,15991,5,8
128,288,16109,5,0
384,288,16344,5,8
128,288,16462,5,0
128,288,16697,1,0
128,288,17050,1,0
128,288,17403,1,0
384,288,17520,5,8
128,288,17756,5,0
128,288,17873,1,0
128,288,18109,1,0
384,288,18226,5,8
384,288,18462,1,8
128,288,18579,5,0
128,288,18815,1,0
384,288,18932,5,8
128,288,19168,5,0
128,288,19285,1,0
128,288,19520,1,0
384,288,19638,5,8
128,288,19873,5,0
128,288,19991,1,0
128,288,20226,1,0
384,288,20344,5,8
384,288,20579,1,8
128,256,20697,5,0
128,256,20932,1,0
384,288,21050,5,8
128,256,21285,5,0
384,288,21403,5,8
384,288,21638,1,8
384,288,21756,1,8
384,288,21991,1,8
128,256,22109,5,0
128,256,22344,1,0
128,256,22462,1,0
384,288,22697,5,8
128,256,22815,5,0
128,256,23050,1,0
384,288,23168,5,8
384,288,23403,1,8
128,256,23520,5,0
128,256,23756,1,0
384,288,23873,5,8
128,256,24109,5,0
128,256,24226,1,0
128,256,24462,1,0
384,288,24579,5,8
384,288,24815,1,8
128,256,24932,5,0
128,256,25168,1,0
384,288,25285,5,8
384,288,25520,1,8
128,256,25638,5,0
128,256,25873,1,0
384,288,25991,5,8
384,288,26226,1,8
128,256,26344,5,0
128,256,26579,1,0
384,288,26697,5,8
128,224,26932,5,0
384,288,27050,5,8
384,288,27285,1,8
128,320,27403,5,0
384,288,27638,5,8
128,288,27756,5,0
128,288,27991,1,0
384,288,28109,5,8
128,224,28344,5,0
128,288,28697,1,0
384,288,28815,5,8
384,288,29050,1,8
128,288,29168,5,0
128,288,29403,1,0
384,288,29520,5,8
128,288,29756,5,0
128,288,29873,1,0
128,288,30109,1,0
384,288,30226,5,8
128,288,30462,5,0
128,288,30579,1,0
384,288,30932,5,8
128,288,31168,5,0
128,288,31285,1,0
128,288,31520,1,0
384,288,31638,5,8
384,288,31873,1,8
128,288,31991,5,0
128,288,32226,1,0
384,288,32344,5,8
128,288,32579,5,0
384,288,32697,5,8
384,288,32932,1,8
128,288,33050,5,0
128,288,33285,1,0
128,288,33403,1,0
384,288,33638,5,8
384,288,33756,1,8
256,192,34109,12,0,36579
128,96,36932,5,0
128,288,37168,1,0
128,288,37285,1,0
384,288,37520,5,8
128,288,37638,5,0
128,288,37873,1,0
384,288,37991,5,8
384,288,38226,1,8
160,288,38344,5,0
128,288,38579,1,0
128,288,38697,1,0
384,256,38932,5,8
128,256,39050,5,0
384,256,39285,5,8
384,256,39403,1,8
384,256,39638,1,8
128,96,39756,5,0
128,288,39992,1,0
128,288,40109,1,0
384,288,40344,5,8
128,288,40462,5,0
128,288,40697,1,0
384,288,40815,5,8
384,288,41050,1,8
160,288,41168,5,0
128,288,41403,1,0
128,288,41521,1,0
384,256,41756,5,8
128,256,41874,5,0
384,256,42109,5,8
384,256,42227,1,8
384,256,42462,1,8
128,96,42579,5,0
128,288,42815,1,0
128,288,42932,1,0
384,288,43167,5,8
128,288,43285,5,0
128,288,43520,1,0
384,288,43638,5,8
384,288,43873,1,8
160,288,43991,5,0
128,288,44226,1,0
128,288,44344,1,0
384,256,44579,5,8
128,256,44697,5,0
384,256,44932,5,8
384,256,45050,1,8
384,256,45285,1,8
128,96,45403,5,0
128,288,45639,1,0
128,288,45756,1,0
384,288,45991,5,8
128,288,46109,5,0
128,288,46344,1,0
384,288,46462,5,8
384,288,46697,1,8
160,288,46815,5,0
128,288,47050,1,0
128,288,47168,1,0
384,256,47403,5,8
128,256,47521,5,0
384,256,47756,5,8
384,256,47874,1,8
384,256,48109,1,8
128,256,48226,5,0
128,256,48462,1,0
384,256,48579,5,8
384,256,48815,1,8
128,256,48932,5,0
128,256,49168,1,0
384,256,49285,5,8
384,256,49520,1,8
128,256,49638,5,0
128,224,49873,1,0
384,256,49991,5,8
128,224,50226,5,0
128,224,50344,1,0
384,256,50579,5,8
128,224,50697,5,0
384,256,50932,5,8
96,256,51050,5,0
128,288,51285,1,0
384,256,51403,5,8
384,256,51638,1,8
384,256,51756,1,8
384,256,51991,1,8
128,288,52109,5,0
128,288,52344,1,0
384,256,52462,5,8
128,288,52697,5,0
128,288,52815,1,0
128,288,53050,1,0
384,256,53168,5,8
128,288,53403,5,0
384,256,53520,5,8
128,288,53756,5,0
128,288,53873,1,0
128,288,54109,1,0
384,256,54226,5,8
128,288,54462,5,0
128,288,54579,1,0
128,288,54697,1,0
128,288,54815,1,0
384,256,54932,5,8
384,256,55050,1,8
384,256,55168,1,8
128,256,55285,5,0
128,288,55520,1,0
384,256,55638,5,8
384,256,55873,1,8
128,288,55991,5,0
128,288,56226,1,0
384,256,56344,5,8
128,288,56579,5,0
128,288,56697,1,0
128,288,56932,1,0
384,256,57050,5,8
352,256,57285,1,8
96,288,57403,5,0
352,256,57638,5,8
352,256,57756,1,8
352,256,57991,1,8
128,288,58109,5,0
128,288,58344,1,0
352,256,58462,5,8
128,288,58697,5,0
128,288,58815,1,0
128,288,59050,1,0
352,256,59168,5,8
352,256,59285,1,8
352,256,59403,1,8
128,288,59520,5,0
128,288,59756,1,0
352,256,59873,5,8
128,320,60109,5,0
128,288,60226,1,0
128,288,60462,1,0
352,256,60579,5,8
352,256,60815,1,8
128,288,60932,5,0
352,256,61168,5,8
352,256,61285,1,8
352,256,61520,1,8
128,288,61638,5,0
128,288,61873,1,0
352,256,61991,5,8
128,288,62226,5,0
128,288,62344,1,0
128,288,62579,1,0
352,256,62697,5,8
352,256,62932,1,8
128,288,63050,5,0
128,288,63285,1,0
352,256,63403,5,8
352,256,63638,1,8
128,288,63756,5,0
352,256,63991,5,8
352,256,64109,1,8
160,288,64344,5,0
160,288,64462,1,0
128,288,64697,1,0
352,256,64815,5,8
352,256,65050,1,8
128,288,65168,5,0
128,288,65403,1,0
352,256,65520,5,8
128,288,65756,5,0
128,288,65873,1,0
128,288,66109,1,0
352,256,66226,5,8
352,256,66344,1,8
352,256,66462,1,8
128,288,66579,5,0
128,288,66815,1,0
320,256,66932,5,8
352,256,67168,1,8
128,288,67285,5,0
320,256,67520,5,8
320,256,67638,1,8
320,256,67873,1,8
128,288,67991,5,0
128,288,68226,1,0
320,256,68344,5,8
128,288,68579,5,0
128,288,68697,1,0
128,288,68932,1,0
320,256,69050,5,8
320,256,69285,1,8
128,288,69403,5,0
128,288,69638,1,0
320,256,69756,5,8
128,256,69991,5,0
128,288,70109,1,0
320,256,70344,5,8
320,256,70462,1,8
320,256,70697,1,8
128,320,70815,5,0
128,288,71050,1,0
320,256,71168,5,8
128,288,71403,5,0
128,288,71520,1,0
128,288,71756,1,0
320,256,71873,5,8
128,288,71991,5,0
320,256,72109,5,8
128,288,72226,5,0
128,288,72462,1,0
320,256,72579,5,8
128,288,72815,5,0
320,256,72932,5,8
320,256,73168,1,8
320,256,73285,1,8
128,288,73520,5,0
320,256,73638,5,8
128,288,73873,5,0
128,288,73991,1,0
320,256,74226,5,8
128,288,74344,5,0
128,288,74579,1,0
320,256,74697,5,8
128,288,74932,5,0
128,288,75050,1,0
128,288,75285,1,0
320,256,75403,5,8
288,224,75638,1,8
320,256,75756,1,8
128,288,75991,5,0
384,288,76109,5,8
128,288,76344,5,0
128,288,76462,1,0
384,256,76697,5,8
128,288,76815,5,0
128,288,77050,1,0
384,288,77168,5,8
384,256,77403,1,8
384,256,77520,1,8
128,288,77756,5,0
384,256,77873,5,8
384,256,78109,1,8
384,256,78226,1,8
128,288,78462,5,0
384,256,78579,5,8
384,256,78815,1,8
384,256,78932,1,8
128,288,79168,5,0
384,256,79285,5,8
128,288,79520,5,0
128,288,79638,1,0
384,256,79873,5,8
128,288,79991,5,0
128,288,80226,1,0
352,256,80344,5,8
128,288,80579,5,0
128,288,80697,1,0
352,256,81050,5,8
128,288,81168,5,0
128,288,81285,1,0
128,288,81403,1,0
352,256,81756,5,8
128,288,81873,5,0
128,288,81991,1,0
128,288,82109,1,0
352,256,82462,5,8
128,288,82579,5,0
128,288,82697,1,0
128,288,82815,1,0
128,288,83051,1,0
352,256,83168,5,8
352,256,83403,1,8
128,288,83520,5,0
352,256,83756,5,8
352,256,83873,1,8
352,256,84109,1,8
128,288,84226,5,0
128,288,84462,1,0
352,256,84579,5,8
128,288,84815,5,0
128,288,84932,1,0
128,288,85168,1,0
352,256,85285,5,8
384,256,85520,1,8
128,288,85638,5,0
128,288,85873,1,0
352,256,85991,5,8
352,256,86226,1,8
128,288,86344,5,0
128,288,86579,1,0
352,256,86697,5,8
128,288,86815,5,0
128,288,86932,1,0
128,288,87050,1,0
128,256,87285,1,0
352,256,87403,5,8
128,256,87520,5,0
352,256,87638,5,8
128,256,87756,5,0
352,256,87991,5,8
128,288,88109,5,0
128,288,88226,1,0
352,256,88344,5,8
128,256,88462,5,0
128,288,88697,1,0
352,256,88815,5,8
352,256,88932,1,8
352,256,89050,1,8
128,288,89168,5,0
128,256,89403,1,0
352,256,89520,5,8
352,256,89756,1,8
128,256,89873,5,0
128,256,90109,1,0
352,256,90226,5,8
352,256,90462,1,8
128,256,90579,5,0
352,256,90815,5,8
128,256,90932,5,0
128,256,91050,1,0
352,256,91168,5,8
128,256,91285,5,0
128,256,91520,1,0
352,256,91638,5,8
352,256,91756,1,8
128,256,91873,5,0
256,192,91991,12,0,94815
