osu file format v9

[General]
AudioFilename: Rurouni Kenshin OP - Freckles.mp3
AudioLeadIn: 0
PreviewTime: 11697
Countdown: 1
SampleSet: Normal
StackLeniency: 0.4
Mode: 0
LetterboxInBreaks: 1

[Editor]
DistanceSpacing: 1
BeatDivisor: 3
GridSize: 4

[Metadata]
Title:Freckles
Artist:Sandy Fox
Creator:iMuffin
Version:Incomprehensible
Source:Rurouni Kenshin
Tags:SapphireGhost OzzyOzrock

[Difficulty]
HPDrainRate:8
CircleSize:5
OverallDifficulty:8
ApproachRate:8
SliderMultiplier:3.2
SliderTickRate:3

[Events]
//Background and Video events
//Break Periods
//Storyboard Layer 0 (Background)
//Storyboard Layer 1 (Fail)
//Storyboard Layer 2 (Pass)
//Storyboard Layer 3 (Foreground)
//Storyboard Sound Samples
//Background Colour Transformations
3,100,163,162,255

[TimingPoints]
462,350.877192982456,4,1,0,30,1,0
11521,352.941176470588,4,1,0,30,1,0
77873,-80,4,1,0,30,0,0

[Colours]
Combo1 : 255,128,64
Combo2 : 255,128,128
Combo3 : 128,255,128
Combo4 : 0,128,255

[HitObjects]
256,192,11756,1,0
168,132,11873,2,0,B|192:84|256:64|320:84|344:132,1,213.333333333333,8|0
376,236,12226,2,0,B|352:320|256:360|160:320|136:236,1,320,0|8
452,292,12932,6,0,B|516:192|452:92,1,213.333333333333
360,148,13285,2,0,B|256:188|152:148,1,213.333333333333,8|0
60,92,13638,2,0,B|-4:192|60:292,1,213.333333333333
148,232,13991,2,0,B|360:232,1,213.333333333333,8|0
380,128,14344,6,0,B|352:48|256:8|160:48|132:128,2,320,0|8|0
80,240,15403,2,0,B|108:192|168:168|228:192|256:240,1,213.333333333333,8|0
168,304,15756,2,0,B|196:352|256:376|316:352|344:304,1,213.333333333333
432,240,16109,2,0,B|404:192|344:168|284:192|256:240,1,213.333333333333,8|0
220,140,16462,2,0,B|108:140,2,106.666666666667
292,60,16815,2,0,B|404:60,2,106.666666666667,8|0|0
184,60,17168,1,0
32,192,17520,6,0,B|56:240|120:224|120:192|120:164|184:144|208:192,1,213.333333333333,8|0
156,284,17873,2,0,B|256:348|356:284,1,213.333333333333
480,192,18226,2,0,B|456:240|392:224|392:192|392:164|328:144|304:192,1,213.333333333333,8|0
256,96,18579,2,0,B|40:96,1,213.333333333333
128,32,18932,2,0,B|344:32,1,213.333333333333,8|0
448,32,19285,2,0,B|496:60|520:120|496:180|448:208,1,213.333333333333,0|0
372,284,19638,1,8
140,284,19873,1,0
140,284,19991,1,0
256,32,20226,5,0
340,100,20344,2,0,B|320:152|256:176|192:152|172:100,1,213.333333333333,8|0
68,68,20697,2,0,B|-12:92|-48:192|-12:292|68:316,1,320,0|8
364,192,21403,5,0
256,300,21638,1,0
256,300,21756,1,8
148,192,21991,1,0
148,192,22109,1,0
256,84,22344,1,0
256,84,22462,1,8
484,312,22815,5,0
56,268,23168,2,0,B|40:336|112:370|184:336|168:268,1,213.333333333333,8|0
152,164,23520,2,0,B|256:124|360:164,1,213.333333333333
456,268,23873,2,0,B|471:336|399:370|327:336|343:268,1,213.333333333333,8|0
256,332,24226,6,0,B|256:120,1,213.333333333333
164,64,24579,2,8,B|192:20|256:4|320:20|348:64,1,213.333333333333,8|0
456,64,24932,1,0
56,64,25285,1,8
360,168,25638,6,0,B|256:208|152:168,1,213.333333333333
200,264,25991,2,0,B|92:264,2,106.666666666667,8|0|0
312,264,26344,2,0,B|420:264,2,106.666666666667
256,356,26697,1,8
256,144,26932,1,0
156,180,27050,6,0,B|136:104|176:56|220:28|280:40,1,213.333333333333
356,204,27403,2,0,B|376:280|336:328|292:356|232:344,1,213.333333333333,8|0
140,344,27756,2,0,B|32:344,2,106.666666666667
76,256,28109,2,0,B|204:256,2,106.666666666667,8|0|0
32,160,28462,5,0
480,160,28815,1,8
168,92,29168,2,0,B|148:188|256:250|364:188|344:92,1,320,0|8
160,352,29873,6,0,B|32:352,2,106.666666666667
224,264,30226,2,0,B|112:264,2,106.666666666667,8|0|0
284,352,30579,2,0,B|392:352,2,106.666666666667
344,264,30932,2,0,B|456:264,2,106.666666666667,8|0|0
424,192,31285,6,0,B|472:168|492:104|472:40|424:16,1,213.333333333333,0|0
344,88,31638,2,0,B|320:136|256:156|192:136|168:88,1,213.333333333333,8|0
88,16,31991,2,0,B|39:40|19:104|39:168|87:192,1,213.333333333333,0|0
44,292,32344,2,0,B|256:292,1,213.333333333333,8|0
364,292,32697,6,0,B|456:292|520:192|456:92|364:92,2,320,0|8|0
164,344,33756,1,8
164,344,34109,6,2,B|248:228|0:192|0:192|252:216|256:16|256:16|260:216|512:192|512:192|264:228|348:344,2,1280
0,68,37285,6,0,B|28:108|92:136|156:108|184:68,1,213.333333333333,8|0
164,172,37638,2,0,B|192:132|256:104|320:132|348:172,1,213.333333333333,0|0
428,104,37991,2,0,B|476:140|504:192|476:244|428:280,1,213.333333333333,8|0
320,280,38344,2,0,B|56:280,1,213.333333333333
48,192,38697,1,8
368,192,39050,2,0,B|352:104|256:54|160:104|144:192,1,320,0|8
464,192,39756,6,2,B|484:332|332:364|256:249|256:249|180:364|28:332|48:192,1,640
256,40,40815,1,8
68,300,41168,6,0,B|68:192,2,106.666666666667
160,248,41520,2,0,B|160:132,2,106.666666666667,8|0|0
256,300,41873,2,0,B|256:192,2,106.666666666667
352,248,42226,2,0,B|352:132,2,106.666666666667,8|0|0
444,300,42579,6,0,B|444:32,1,213.333333333333
352,32,42932,2,0,B|256:116|160:32,1,213.333333333333,8|0
196,132,43285,2,0,B|188:204|256:226|324:204|316:132,1,213.333333333333,0|0
356,232,43638,2,0,B|256:300|156:232,1,213.333333333333,8|0
204,328,43991,6,0,B|336:328,2,106.666666666667
96,328,44344,1,8
256,52,44697,1,0
416,328,45050,1,8
172,120,45403,6,0,B|192:168|256:204|320:168|340:120,1,213.333333333333
448,108,45756,2,0,B|400:128|364:192|400:256|448:276,1,213.333333333333,8|0
340,300,46109,2,0,B|320:252|256:216|192:252|172:300,1,213.333333333333
68,276,46462,2,0,B|116:256|152:192|116:128|68:108,1,213.333333333333,8|0
148,36,46815,6,0,B|268:36,1,106.666666666667
360,36,47050,1,0
416,128,47168,2,0,B|296:128,1,106.666666666667,8|0
204,128,47403,1,0
148,220,47520,2,0,B|268:220,1,106.666666666667
360,220,47755,1,0
416,312,47873,2,0,B|296:312,1,106.666666666667,8|0
204,312,48108,1,0
96,312,48226,1,0
156,128,48579,6,0,B|256:64|356:128,1,213.333333333333,8|0
310,224,48932,2,0,B|286:276|310:328,2,106.666666666667
202,224,49285,2,0,B|226:276|202:328,2,106.666666666667,8|0|0
96,224,49638,6,0,B|48:192|20:136|48:80|96:48,1,213.333333333333
168,128,49991,2,0,B|200:176|256:204|312:176|344:128,1,213.333333333333,8|0
416,48,50344,2,0,B|463:79|491:135|463:191|415:223,1,213.333333333333
363,317,50697,2,0,B|115:317,1,213.333333333333,8|0
42,317,51050,1,0
204,40,51403,6,0,B|256:20|308:40,1,106.666666666667,8|0
256,132,51638,1,0
204,224,51756,2,0,B|256:244|308:224,1,106.666666666667,0|0
400,280,51991,1,0
310,339,52109,2,0,B|202:339,1,106.666666666667,8|0
112,280,52344,1,0
256,192,52462,12,4,53873
256,72,54579,5,0
256,72,54697,1,0
256,72,54815,1,0
256,72,54932,1,8
88,344,55285,6,0,B|136:304|112:252|88:252|68:252|40:200|88:160,1,213.333333333333
160,80,55638,2,0,B|256:-4|352:80,1,213.333333333333,8|0
424,160,55991,2,0,B|472:200|444:252|424:252|400:252|376:304|424:344,1,213.333333333333
340,276,56344,2,0,B|300:200|212:200|172:276,1,213.333333333333,8|0
88,212,56697,6,0,B|88:156|88:156|92:64|172:32,1,213.333333333333
172,140,57050,2,0,B|188:92|256:60|324:92|340:140,1,213.333333333333,8|0
342,32,57403,2,0,B|420:64|424:156|424:156|424:212,1,213.333333333333
364,300,57756,2,0,B|256:300,1,106.666666666667,8|0
148,300,57991,1,0
148,192,58109,6,0,B|164:92|256:62|348:92|364:192,3,320,0|8|0|8
52,116,59520,6,0,B|52:232,1,106.666666666667
52,332,59756,1,0
136,268,59873,2,0,B|136:152,1,106.666666666667,8|0
136,52,60109,1,0
220,116,60226,2,0,B|220:232,1,106.666666666667
220,332,60462,1,0
304,268,60579,2,0,B|304:152,1,106.666666666667,8|0
304,52,60815,1,0
388,116,60932,1,0
116,280,61285,6,0,B|68:252|44:192|68:132|116:104,1,213.333333333333,8|0
152,204,61638,2,0,B|256:244|360:204,1,213.333333333333
396,104,61991,2,0,B|444:132|468:192|444:252|396:280,1,213.333333333333,8|0
310,342,62344,6,0,B|194:342,2,106.666666666667
256,248,62697,2,0,B|136:248,1,106.666666666667,8|0
44,248,62932,1,0
72,144,63050,2,0,B|108:68|204:48|300:68|336:144,1,320,0|8
440,240,63756,6,0,B|404:316|308:336|212:316|176:240,1,320,0|8
440,56,64462,2,0,B|388:36|336:56,1,106.666666666667,0|0
256,128,64697,1,0
176,56,64815,2,0,B|123:35|71:55,2,106.666666666667,8|0|0
124,148,65168,5,0
388,148,65520,1,8
80,228,65873,1,0
188,228,65991,2,0,B|296:228,1,106.666666666667
256,328,66226,1,8
364,328,66344,2,0,B|472:328,1,106.666666666667
428,228,66579,6,0,B|477:204|497:140|477:76|429:52,1,213.333333333333,0|0
363,134,66932,2,0,B|119:134,1,213.333333333333,8|0
152,240,67285,2,0,B|256:284|360:240,1,213.333333333333
296,328,67638,2,0,B|72:328,1,213.333333333333,8|0
84,220,67991,6,0,B|84:32,2,106.666666666667
152,140,68344,2,0,B|152:28,1,106.666666666667,8|0
256,64,68579,1,0
360,140,68697,2,0,B|360:28,2,106.666666666667
428,220,69050,2,0,B|276:220,1,106.666666666667,8|0
256,304,69285,1,0
152,340,69403,6,0,B|216:240|152:140,1,213.333333333333,0|0
56,92,69756,2,0,B|156:28|256:92,1,213.333333333333,8|0
256,200,70109,2,0,B|256:324|256:328,2,106.666666666667
348,256,70462,2,0,B|480:256,2,106.666666666667,8|0|0
348,148,70815,6,0,B|420:156|442:88|420:20|348:28,1,213.333333333333,0|0
256,80,71168,2,0,B|184:72|162:140|184:208|256:200,1,213.333333333333,8|0
160,248,71520,2,0,B|168:320|100:342|32:320|40:248,1,213.333333333333,0|0
100,160,71873,2,0,B|100:48,2,106.666666666667,8|0|0
172,80,72226,1,0
352,344,72579,6,0,B|256:262|160:344,1,213.333333333333,8|0
204,248,72932,1,0
152,152,73050,2,0,B|204:132|256:152,1,106.666666666667,0|0
308,248,73285,1,8
360,152,73403,2,0,B|308:132|256:152,1,106.666666666667,0|0
256,44,73638,5,0
448,136,73873,1,0
448,136,73991,1,8
360,328,74226,1,0
360,328,74344,1,0
152,328,74579,1,0
152,328,74697,1,8
64,136,74932,1,0
64,136,75050,1,0
184,192,75403,6,0,B|192:128|256:104|320:128|328:192,1,213.333333333333,8|0
360,296,75756,2,0,B|256:336|152:296,1,213.333333333333
64,236,76109,2,0,B|64:20,1,213.333333333333,8|0
140,96,76462,6,0,B|248:96,2,106.666666666667
224,28,76815,2,0,B|348:28,2,106.666666666667,8|0|0
308,96,77168,2,0,B|444:96,2,106.666666666667
224,160,77520,2,0,B|348:160,2,106.666666666667,8|0|0
96,192,77873,6,2,B|24:344|252:378|256:224|256:224|260:378|488:344|416:192,1,666.666656732559
44,40,78815,1,0
44,40,78932,2,0,B|324:40,1,266.666662693024,8|0
196,108,79285,6,0,B|476:108,1,266.666662693024
348,180,79638,2,0,B|68:180,1,266.666662693024,8|0
196,252,79991,2,0,B|476:252,1,266.666662693024
348,324,80344,2,0,B|188:324,1,133.333331346512,8|0
80,324,80579,1,0
48,192,80697,6,2,B|16:72|144:16|224:80|224:80|108:112|80:224|140:296|140:296|212:252|192:168|192:168|240:192|256:232|256:232|272:192|320:168|320:168|300:252|372:296|372:296|432:224|404:112|288:80|288:80|368:16|496:72|464:192,2,1599.99997615814
256,360,83756,5,0
256,360,83873,1,8
424,192,84109,5,0
424,192,84226,1,8
256,24,84462,5,0
256,24,84579,1,8
88,192,84815,5,0
88,192,84932,1,8
468,48,85285,5,0
48,48,85638,1,8
256,360,85991,1,0
152,24,86344,6,2,B|40:64|0:192|40:320|152:360|152:360|104:252|92:168|144:128|252:140|256:252|256:252|260:140|368:128|420:168|408:252|360:360|360:360|472:320|512:192|472:64|360:24,2,1599.99997615814
256,192,89873,12,4,91991
