osu file format v13

[General]
AudioFilename: Sandu Ciorba - Pe cimpoi.mp3
AudioLeadIn: 0
PreviewTime: -1
Countdown: 1
SampleSet: Normal
StackLeniency: 0.7
Mode: 0
LetterboxInBreaks: 1
WidescreenStoryboard: 0

[Editor]
DistanceSpacing: 2
BeatDivisor: 4
GridSize: 4
TimelineZoom: 1

[Metadata]
Title:Pe cimpoi
TitleUnicode:Pe cimpoi
Artist:Sandu Ciorba
ArtistUnicode:Sandu Ciorba
Creator:Shiny Gliscor
Version:Cancer
Source:
Tags:
BeatmapID:555169
BeatmapSetID:240190

[Difficulty]
HPDrainRate:7
CircleSize:4
OverallDifficulty:8
ApproachRate:9
SliderMultiplier:1.4
SliderTickRate:1

[Events]
//Background and Video events
0,0,"hqdefault.jpg",0,0
//Break Periods
2,48974,56103
//Storyboard Layer 0 (Background)
//Storyboard Layer 1 (Fail)
//Storyboard Layer 2 (Pass)
//Storyboard Layer 3 (Foreground)
//Storyboard Sound Samples
//Background Colour Transformations
3,100,163,162,255

[TimingPoints]
1203.50789932205,428.571428571429,4,1,0,100,1,0

[HitObjects]
256,44,1195,5,0,0:0:0:0:
168,264,1632,1,0,0:0:0:0:
344,264,1846,1,0,0:0:0:0:
168,120,2060,1,0,0:0:0:0:
344,120,2275,1,0,0:0:0:0:
256,192,2489,1,0,0:0:0:0:
256,56,2917,5,0,0:0:0:0:
256,300,3132,1,0,0:0:0:0:
136,192,3346,1,0,0:0:0:0:
376,192,3560,1,0,0:0:0:0:
188,120,3774,1,0,0:0:0:0:
336,256,3989,1,0,0:0:0:0:
256,192,4203,1,0,0:0:0:0:
152,56,4632,5,0,0:0:0:0:
340,116,4847,1,0,0:0:0:0:
152,168,5061,1,0,0:0:0:0:
344,236,5275,1,0,0:0:0:0:
152,312,5489,1,0,0:0:0:0:
352,348,5704,1,0,0:0:0:0:
256,192,5918,1,0,0:0:0:0:
152,80,6346,2,0,P|104:176|148:224,1,140
360,80,7203,2,0,P|408:176|364:224,1,140
152,68,8060,5,0,0:0:0:0:
364,192,8275,1,0,0:0:0:0:
152,304,8489,1,0,0:0:0:0:
180,160,8703,5,0,0:0:0:0:
248,124,8810,1,0,0:0:0:0:
320,104,8917,1,0,0:0:0:0:
256,260,9132,1,0,0:0:0:0:
252,76,9346,1,0,0:0:0:0:
256,236,9774,5,0,0:0:0:0:
212,152,9989,1,0,0:0:0:0:
256,136,10096,1,0,0:0:0:0:
300,152,10203,1,0,0:0:0:0:
188,296,10417,1,0,0:0:0:0:
332,296,10645,1,0,0:0:0:0:
184,92,10846,1,0,0:0:0:0:
332,88,11060,1,0,0:0:0:0:
108,204,11489,6,0,B|156:92|224:96|300:136,1,210
272,240,13203,2,0,P|376:176|344:108,1,210
160,192,14703,5,0,0:0:0:0:
272,148,14916,5,0,0:0:0:0:
272,176,15024,1,0,0:0:0:0:
272,204,15131,1,0,0:0:0:0:
272,228,15238,1,0,0:0:0:0:
328,112,15345,5,0,0:0:0:0:
328,168,15452,1,0,0:0:0:0:
328,224,15559,1,0,0:0:0:0:
328,280,15666,1,0,0:0:0:0:
396,84,15774,5,0,0:0:0:0:
396,168,15881,1,0,0:0:0:0:
396,240,15988,1,0,0:0:0:0:
396,316,16095,1,0,0:0:0:0:
300,192,16202,1,0,0:0:0:0:
192,192,16632,5,0,0:0:0:0:
256,100,16846,1,0,0:0:0:0:
320,192,17060,1,0,0:0:0:0:
256,276,17274,1,0,0:0:0:0:
208,140,17489,1,0,0:0:0:0:
304,244,17703,1,0,0:0:0:0:
256,192,17917,1,0,0:0:0:0:
152,52,18131,5,0,0:0:0:0:
152,152,18346,1,0,0:0:0:0:
120,196,18453,1,0,0:0:0:0:
152,248,18560,1,0,0:0:0:0:
248,304,18774,1,0,0:0:0:0:
248,96,18988,1,0,0:0:0:0:
344,252,19203,1,0,0:0:0:0:
376,200,19310,1,0,0:0:0:0:
344,156,19417,1,0,0:0:0:0:
248,152,19631,1,0,0:0:0:0:
248,252,19846,1,0,0:0:0:0:
96,64,20060,5,0,0:0:0:0:
404,320,20274,1,0,0:0:0:0:
404,64,20488,1,0,0:0:0:0:
80,320,20703,1,0,0:0:0:0:
252,80,20917,1,0,0:0:0:0:
252,304,21131,1,0,0:0:0:0:
256,196,21345,1,0,0:0:0:0:
196,192,21560,5,0,0:0:0:0:
340,64,21774,1,0,0:0:0:0:
352,132,21881,1,0,0:0:0:0:
352,200,21988,1,0,0:0:0:0:
332,268,22095,1,0,0:0:0:0:
300,332,22202,1,0,0:0:0:0:
316,192,22417,5,0,0:0:0:0:
172,64,22631,1,0,0:0:0:0:
160,132,22738,1,0,0:0:0:0:
160,200,22845,1,0,0:0:0:0:
180,268,22952,1,0,0:0:0:0:
212,332,23059,1,0,0:0:0:0:
256,36,23274,5,0,0:0:0:0:
256,316,23488,1,0,0:0:0:0:
148,36,23702,1,0,0:0:0:0:
376,308,23916,1,0,0:0:0:0:
356,120,24131,1,0,0:0:0:0:
144,220,24345,1,0,0:0:0:0:
208,132,24559,1,0,0:0:0:0:
304,208,24773,1,0,0:0:0:0:
48,188,24989,5,0,0:0:0:0:
120,240,25203,1,0,0:0:0:0:
140,128,25417,1,0,0:0:0:0:
200,276,25632,1,0,0:0:0:0:
224,80,25846,1,0,0:0:0:0:
280,308,26060,1,0,0:0:0:0:
304,44,26274,1,0,0:0:0:0:
364,336,26489,1,0,0:0:0:0:
416,184,26703,5,0,0:0:0:0:
344,236,26917,1,0,0:0:0:0:
324,124,27131,1,0,0:0:0:0:
264,272,27346,1,0,0:0:0:0:
240,76,27560,1,0,0:0:0:0:
184,304,27774,1,0,0:0:0:0:
160,40,27988,1,0,0:0:0:0:
100,332,28203,1,0,0:0:0:0:
164,104,28417,5,0,0:0:0:0:
324,104,28632,1,0,0:0:0:0:
160,260,28846,1,0,0:0:0:0:
332,260,29060,1,0,0:0:0:0:
256,76,29274,5,0,0:0:0:0:
160,260,29489,1,0,0:0:0:0:
360,260,29703,1,0,0:0:0:0:
256,76,29917,1,0,0:0:0:0:
160,260,30132,1,0,0:0:0:0:
360,260,30346,1,0,0:0:0:0:
256,192,30560,1,0,0:0:0:0:
156,72,30774,5,0,0:0:0:0:
360,72,30989,1,0,0:0:0:0:
160,180,31203,1,0,0:0:0:0:
364,176,31417,1,0,0:0:0:0:
152,280,31632,1,0,0:0:0:0:
376,280,31846,1,0,0:0:0:0:
256,104,32060,1,0,0:0:0:0:
256,216,32274,1,0,0:0:0:0:
220,152,32489,2,0,L|308:152,1,70
144,92,32917,5,0,0:0:0:0:
204,188,33132,2,0,L|284:188,1,70
228,264,33560,2,0,L|324:264,1,70
144,92,34632,5,0,0:0:0:0:
204,188,34847,2,0,L|284:188,1,70
228,264,35275,2,0,L|324:264,1,70
172,104,36346,6,0,L|136:68,1,35
340,280,36560,2,0,L|376:316,1,35,0|0,0:0|0:0,0:0:0:0:
340,104,36774,2,0,L|376:68,1,35,0|0,0:0|0:0,0:0:0:0:
172,280,36989,2,0,L|136:316,1,35,0|0,0:0|0:0,0:0:0:0:
364,192,37203,2,0,L|416:192,1,35,0|0,0:0|0:0,0:0:0:0:
148,192,37417,2,0,L|96:192,1,35,0|0,0:0|0:0,0:0:0:0:
256,192,37632,1,0,0:0:0:0:
156,80,38060,6,0,L|156:172,1,70
156,304,38489,6,0,L|156:212,1,70
356,80,38917,6,0,L|356:172,1,70
356,304,39346,5,0,0:0:0:0:
112,104,39774,6,0,L|192:104,1,70
400,104,40203,6,0,L|320:104,1,70
112,280,40632,6,0,L|192:280,1,70
364,280,41060,5,0,0:0:0:0:
344,112,41274,5,0,0:0:0:0:
172,264,41489,1,0,0:0:0:0:
160,108,41703,1,0,0:0:0:0:
348,256,41917,1,0,0:0:0:0:
256,100,42132,1,0,0:0:0:0:
256,264,42346,1,0,0:0:0:0:
168,184,42560,1,0,0:0:0:0:
344,172,42774,1,0,0:0:0:0:
196,80,43203,6,0,L|196:176,1,70
316,80,43632,6,0,L|316:176,1,70
196,232,44060,6,0,L|196:316,1,70
316,232,44489,6,0,L|316:316,1,70
200,140,44917,6,0,L|172:112,1,35
312,244,45132,6,0,L|340:272,1,35
176,116,45346,6,0,L|148:88,1,35
336,268,45560,6,0,L|364:296,1,35
152,92,45774,6,0,L|124:64,1,35
360,292,45989,6,0,L|388:320,1,35
256,192,46203,5,0,0:0:0:0:
208,128,46417,6,0,L|112:128,1,70
304,128,46846,6,0,L|400:128,1,70
208,256,48132,6,0,L|112:256,1,70
304,256,48560,6,0,L|400:256,1,70
96,84,56703,6,0,L|96:176,1,70
172,120,57132,2,0,L|172:212,1,70,0|0,0:0|0:0,0:0:0:0:
248,164,57560,2,0,L|248:256,1,70,0|0,0:0|0:0,0:0:0:0:
328,204,57989,2,0,L|328:296,1,70,0|0,0:0|0:0,0:0:0:0:
416,84,58417,5,0,0:0:0:0:
416,119,58524,1,0,0:0:0:0:
416,154,58631,1,0,0:0:0:0:
340,120,58846,1,0,0:0:0:0:
340,155,58953,1,0,0:0:0:0:
340,190,59060,1,0,0:0:0:0:
264,164,59274,5,0,0:0:0:0:
264,199,59381,1,0,0:0:0:0:
264,234,59488,1,0,0:0:0:0:
184,204,59703,1,0,0:0:0:0:
184,239,59810,1,0,0:0:0:0:
184,274,59917,1,0,0:0:0:0:
256,48,60132,5,0,0:0:0:0:
208,120,60346,2,0,L|172:120,1,35
304,120,60560,2,0,L|340:120,1,35
208,192,60774,2,0,L|172:192,1,35
304,192,60989,2,0,L|340:192,1,35
208,260,61203,2,0,L|172:260,1,35
304,260,61417,2,0,L|340:260,1,35
256,324,61632,1,0,0:0:0:0:
208,264,62060,6,0,L|172:264,1,35
304,264,62274,6,0,L|340:264,1,35
208,192,62488,6,0,L|172:192,1,35
304,192,62703,6,0,L|340:192,1,35
208,124,62917,6,0,L|172:124,1,35
304,124,63131,6,0,L|340:124,1,35
252,140,63346,5,0,0:0:0:0:
52,132,63774,5,0,0:0:0:0:
72,168,63881,1,0,0:0:0:0:
92,200,63988,1,0,0:0:0:0:
124,228,64095,1,0,0:0:0:0:
156,244,64202,1,0,0:0:0:0:
196,256,64309,1,0,0:0:0:0:
236,264,64416,1,0,0:0:0:0:
280,260,64523,1,0,0:0:0:0:
320,244,64631,1,0,0:0:0:0:
356,224,64738,1,0,0:0:0:0:
388,192,64845,1,0,0:0:0:0:
416,160,64952,1,0,0:0:0:0:
436,120,65059,1,0,0:0:0:0:
460,252,65489,5,0,0:0:0:0:
440,216,65596,1,0,0:0:0:0:
420,184,65703,1,0,0:0:0:0:
388,156,65810,1,0,0:0:0:0:
356,140,65917,1,0,0:0:0:0:
316,128,66024,1,0,0:0:0:0:
276,120,66131,1,0,0:0:0:0:
232,124,66238,1,0,0:0:0:0:
192,140,66346,1,0,0:0:0:0:
156,160,66453,1,0,0:0:0:0:
124,192,66560,1,0,0:0:0:0:
96,224,66667,1,0,0:0:0:0:
76,264,66774,1,0,0:0:0:0:
204,88,66989,6,0,L|176:56,1,35
308,88,67203,2,0,L|336:56,1,35,0|0,0:0|0:0,0:0:0:0:
172,176,67417,6,0,L|144:144,1,35
340,176,67632,2,0,L|368:144,1,35
140,264,67846,6,0,L|112:232,1,35
372,264,68060,2,0,L|400:232,1,35
256,312,68274,6,0,L|256:272,1,35
256,196,68489,1,0,0:0:0:0:
144,96,68703,5,0,0:0:0:0:
372,288,68917,1,0,0:0:0:0:
356,96,69132,1,0,0:0:0:0:
144,280,69346,1,0,0:0:0:0:
256,52,69560,1,0,0:0:0:0:
256,324,69774,1,0,0:0:0:0:
192,120,70417,5,0,0:0:0:0:
320,120,70632,1,0,0:0:0:0:
256,184,70846,2,0,L|256:276,1,70
140,104,71489,5,0,0:0:0:0:
168,88,71596,1,0,0:0:0:0:
208,76,71703,1,0,0:0:0:0:
236,72,71810,1,0,0:0:0:0:
276,80,71917,1,0,0:0:0:0:
304,88,72024,1,0,0:0:0:0:
336,104,72132,1,0,0:0:0:0:
360,124,72239,1,0,0:0:0:0:
388,148,72346,1,0,0:0:0:0:
248,200,72560,1,0,0:0:0:0:
164,280,72774,1,0,0:0:0:0:
136,72,73203,5,0,0:0:0:0:
356,144,73417,1,0,0:0:0:0:
132,228,73632,1,0,0:0:0:0:
360,312,73846,1,0,0:0:0:0:
252,96,74060,1,0,0:0:0:0:
252,248,74274,1,0,0:0:0:0:
204,176,74489,2,0,L|300:176,1,70
140,120,74917,6,0,L|140:216,1,70
140,120,75346,2,0,L|228:120,1,70
140,120,75774,2,0,L|140:44,1,70
372,264,76632,6,0,L|372:168,1,70
372,264,77061,2,0,L|284:264,1,70
372,264,77489,2,0,L|372:340,1,70
56,44,78346,6,0,L|56:80,1,35
132,96,78560,2,0,L|132:136,1,35
216,152,78774,2,0,L|216:192,1,35
456,44,78989,6,0,L|456:80,1,35
380,96,79203,2,0,L|380:136,1,35
296,152,79417,2,0,L|296:192,1,35
256,60,79632,5,0,0:0:0:0:
52,328,80060,6,0,L|104:328|96:328,1,35
100,232,80274,2,0,L|128:252,1,35
184,160,80489,2,0,L|212:196,1,35
328,160,80703,2,0,L|300:196,1,35
412,232,80917,2,0,L|384:252,1,35
460,328,81132,2,0,L|408:328|416:328,1,35
256,232,81346,1,0,0:0:0:0:
460,56,81774,6,0,L|408:56|416:56,1,35
412,152,81988,2,0,L|384:132,1,35
328,224,82203,2,0,L|300:188,1,35
184,224,82417,2,0,L|212:188,1,35
100,152,82631,2,0,L|128:132,1,35
52,56,82846,2,0,L|104:56|96:56,1,35
256,152,83060,1,0,0:0:0:0:
144,288,83274,5,0,0:0:0:0:
256,60,83489,1,0,0:0:0:0:
376,288,83703,1,0,0:0:0:0:
120,136,83917,1,0,0:0:0:0:
384,144,84132,1,0,0:0:0:0:
144,288,84346,1,0,0:0:0:0:
256,60,84560,1,0,0:0:0:0:
376,288,84774,1,0,0:0:0:0:
284,224,85203,5,0,0:0:0:0:
224,172,85417,1,0,0:0:0:0:
340,268,85632,1,0,0:0:0:0:
164,128,85846,1,0,0:0:0:0:
396,312,86060,1,0,0:0:0:0:
112,84,86274,1,0,0:0:0:0:
256,192,86489,1,0,0:0:0:0:
240,208,86917,5,0,0:0:0:0:
212,236,87024,1,0,0:0:0:0:
272,176,87132,5,0,0:0:0:0:
300,148,87239,1,0,0:0:0:0:
272,208,87346,5,0,0:0:0:0:
300,236,87453,1,0,0:0:0:0:
240,176,87560,5,0,0:0:0:0:
212,148,87667,1,0,0:0:0:0:
256,164,87774,5,0,0:0:0:0:
256,128,87882,1,0,0:0:0:0:
256,92,87989,1,0,0:0:0:0:
256,56,88096,1,0,0:0:0:0:
256,240,88203,1,0,0:0:0:0:
184,136,88417,6,0,L|132:88,1,70
328,136,88846,6,0,L|380:88,1,70
164,168,89488,5,0,0:0:0:0:
196,200,89596,1,0,0:0:0:0:
248,216,89703,1,0,0:0:0:0:
296,192,89810,1,0,0:0:0:0:
328,152,89917,1,0,0:0:0:0:
184,248,90132,6,0,L|132:296,1,70
328,248,90561,6,0,L|380:296,1,70
