osu file format v12

[General]
AudioFilename: Sandu Ciorba - Pe Cimpoi.mp3
AudioLeadIn: 2504
PreviewTime: 36382
Countdown: 0
SampleSet: Normal
StackLeniency: 0.7
Mode: 0
LetterboxInBreaks: 0
WidescreenStoryboard: 0

[Editor]
Bookmarks: 22668,22882,39910,49668,120382
DistanceSpacing: 1
BeatDivisor: 4
GridSize: 4

[Metadata]
Title:Pe Cimpoi
TitleUnicode:Pe Cimpoi
Artist:Sandu Ciorba
ArtistUnicode:Sandu Ciorba
Creator:AlexaBM
Version:Hard
Source:
Tags:romanian ezek tony Irreversible
BeatmapID:258364
BeatmapSetID:96374

[Difficulty]
HPDrainRate:5
CircleSize:4
OverallDifficulty:5
ApproachRate:6
SliderMultiplier:1.20000000596046
SliderTickRate:2

[Events]
//Background and Video events
Video,0,"Sandu Ciorba - Pe cimpoi.avi"
0,0,"BG.jpg",0,0
//Break Periods
//Storyboard Layer 0 (Background)
//Storyboard Layer 1 (Fail)
//Storyboard Layer 2 (Pass)
//Storyboard Layer 3 (Foreground)
//Storyboard Sound Samples
//Background Colour Transformations
3,100,163,162,255

[TimingPoints]
1242,428.571428571429,4,1,1,48,1,0
14956,-83.3333333333333,4,1,1,48,0,0
34670,-83.3333333333333,4,3,1,48,0,0
35099,-83.3333333333333,4,3,1,37,0,0
35742,-83.3333333333333,4,3,1,27,0,0
36384,-83.3333333333333,4,1,1,56,0,1
50099,-83.3333333333333,4,1,1,48,0,0
76670,-83.3333333333333,4,3,1,37,0,0
77742,-83.3333333333333,4,3,1,27,0,0
78384,-83.3333333333333,4,1,1,56,0,1
92099,-83.3333333333333,4,1,1,48,0,0
118670,-83.3333333333333,4,3,1,37,0,0
119742,-83.3333333333333,4,3,1,27,0,0
120384,-83.3333333333333,4,1,1,48,0,0
126813,-83.3333333333333,4,1,1,5,0,0

[Colours]
Combo1 : 66,160,255
Combo2 : 251,109,4
Combo3 : 85,255,85
Combo4 : 149,57,249

[HitObjects]
200,144,1242,6,0,P|184:216|208:264,1,120.000000596046,6|8,0:0|0:0,0:0:0:0:
308,256,2099,2,0,P|327:200|309:143,1,120.000000596046,2|8,0:0|0:0,0:0:0:0:
256,52,2956,5,2,0:0:0:0:
200,72,3170,1,0,0:0:0:0:
180,128,3384,1,8,0:0:0:0:
312,152,3813,2,0,P|300:220|240:248,1,120.000000596046,2|8,0:0|0:0,0:0:0:0:
136,288,4670,5,2,0:0:0:0:
156,220,4884,2,0,P|188:188|200:160,1,60.000000298023,0|8,0:0|0:0,0:0:0:0:
136,132,5313,1,0,0:0:0:0:
84,84,5527,2,0,P|148:59|194:94,1,120.000000596046,2|8,0:0|0:0,0:0:0:0:
240,132,6170,1,0,0:0:0:0:
292,180,6384,6,0,P|318:146|322:104,1,60.000000298023,4|0,0:0|0:0,0:0:0:0:
316,60,6813,2,0,B|340:100|384:108|384:108|412:160,2,120.000000596046,8|0|8,0:0|0:0|0:0,0:0:0:0:
195,60,8099,2,0,B|171:100|127:108|127:108|99:160,2,120.000000596046,0|8|0,0:0|0:0|0:0,0:0:0:0:
256,160,9384,1,8,0:0:0:0:
364,108,9813,6,2,B|404:175|369:227|369:227|333:278|369:343,1,240.000001192092
256,280,11099,1,8,0:0:0:0:
220,164,11527,6,0,P|170:191|132:253,1,120.000000596046,2|8,0:0|0:0,0:0:0:0:
168,360,12384,2,0,P|200:340|224:312,1,60.000000298023,2|0,0:0|0:0,0:0:0:0:
256,280,12813,1,8,0:0:0:0:
292,164,13242,6,0,P|341:191|379:253,1,120.000000596046,2|8,0:0|0:0,0:0:0:0:
256,280,14099,2,8,L|256:348,2,60.000000298023,2|0|8,0:0|0:0|0:0,0:0:0:0:
220,216,14742,1,0,0:0:0:0:
168,164,14956,6,0,P|164:108|184:72,1,71.999998160362,4|0,0:0|0:0,0:0:0:0:
100,76,15384,2,0,P|137:28|232:56,2,143.999996320724,8|0|8,0:0|0:0|0:0,0:0:0:0:
184,192,16670,2,0,P|220:220|252:228,1,71.999998160362
212,292,17099,2,0,P|254:298|305:270,1,71.999998160362,8|0,0:0|0:0,0:0:0:0:
296,360,17527,2,0,P|352:320|336:240,1,143.999996320724,0|8,0:0|0:0,0:0:0:0:
288,208,18170,1,0,0:0:0:0:
344,164,18384,6,0,P|348:108|332:80,1,71.999998160362
412,76,18813,2,0,P|375:28|280:56,2,143.999996320724,8|0|8,0:0|0:0|0:0,0:0:0:0:
328,192,20099,2,0,P|292:220|260:228,1,71.999998160362
300,292,20527,2,0,P|257:298|206:270,1,71.999998160362,8|0,0:0|0:0,0:0:0:0:
216,360,20956,2,0,P|160:320|176:244,1,143.999996320724,0|8,0:0|0:0,0:0:0:0:
224,204,21599,1,0,0:0:0:0:
284,160,21813,6,0,P|328:164|376:152,1,71.999998160362,4|0,0:0|0:0,0:0:0:0:
320,96,22242,2,0,P|319:162|372:240,2,143.999996320724,8|0|8,0:0|0:0|0:0,0:0:0:0:
256,64,23313,1,0,0:0:0:0:
188,92,23527,2,0,L|112:116,1,71.999998160362
152,180,23956,2,0,L|76:204,1,71.999998160362,8|0,0:0|0:0,0:0:0:0:
112,268,24384,2,0,L|43:289,2,71.999998160362,0|0|8,0:0|0:0|0:0,0:0:0:0:
180,248,25027,1,0,0:0:0:0:
204,180,25242,6,0,P|251:227|224:304,2,143.999996320724,0|8|0,0:0|0:0|0:0,0:0:0:0:
256,48,26527,1,8,0:0:0:0:
352,156,26956,2,0,B|362:217|437:204|451:251,1,143.999996320724,0|8,0:0|0:0,0:0:0:0:
395,294,27599,1,0,0:0:0:0:
340,251,27813,2,0,B|354:203|429:217|439:155,1,143.999996320724,0|8,0:0|0:0,0:0:0:0:
396,96,28456,1,0,0:0:0:0:
332,60,28670,2,0,P|372:28|408:20,2,71.999998160362,2|0|8,0:0|0:0|0:0,0:0:0:0:
256,168,29527,5,0,0:0:0:0:
184,184,29742,1,0,0:0:0:0:
140,124,29956,2,0,P|108:176|164:252,2,143.999996320724,8|0|8,0:0|0:0|0:0,0:0:0:0:
208,88,31027,1,0,0:0:0:0:
276,68,31242,2,0,P|316:96|352:104,1,71.999998160362
372,168,31670,2,0,P|351:197|342:232,1,71.999998160362,8|0,0:0|0:0,0:0:0:0:
400,276,32099,2,0,P|340:308|272:248,1,143.999996320724,0|8,0:0|0:0,0:0:0:0:
256,128,32956,5,2,0:0:0:0:
164,240,33384,2,0,P|144:280|148:316,1,71.999998160362,8|0,0:0|0:0,0:0:0:0:
72,308,33813,2,0,P|76:256|140:160,1,143.999996320724,2|8,0:0|0:0,0:0:0:0:
256,128,34670,5,8,0:0:0:0:
348,240,35099,2,8,P|368:280|364:316,1,71.999998160362,8|0,0:0|0:0,0:0:0:0:
440,308,35527,2,0,P|436:256|372:160,1,143.999996320724,8|10,0:0|0:0,0:0:0:0:
320,60,36384,6,0,P|236:88|188:40,1,143.999996320724,6|8,0:0|0:0,0:0:0:0:
136,100,37027,2,0,P|153:131|160:166,1,71.999998160362,0|2,0:0|0:0,0:0:0:0:
164,240,37456,1,0,0:0:0:0:
144,308,37670,1,10,0:0:0:0:
268,236,38099,6,0,P|310:202|322:176,1,71.999998160362,2|0,0:0|0:0,0:0:0:0:
254,155,38527,2,0,P|267:102|260:74,1,71.999998160362,8|0,0:0|0:0,0:0:0:0:
196,108,38956,2,0,P|178:56|157:37,1,71.999998160362,2|0,0:0|0:0,0:0:0:0:
96,32,39384,1,8,0:0:0:0:
60,172,39813,2,0,P|80:240|152:252,1,143.999996320724,2|8,0:0|0:0,0:0:0:0:
132,184,40456,1,0,0:0:0:0:
120,113,40670,2,0,P|186:129|204:195,1,143.999996320724,2|8,0:0|0:0,0:0:0:0:
196,268,41313,1,0,0:0:0:0:
268,284,41527,6,0,P|324:264|348:260,1,71.999998160362
392,312,41956,2,0,P|412:252|364:191,2,143.999996320724,8|0|8,0:0|0:0|0:0,0:0:0:0:
244,284,43242,2,0,P|188:264|164:260,1,71.999998160362
120,312,43670,2,0,P|100:252|148:191,2,143.999996320724,8|0|8,0:0|0:0|0:0,0:0:0:0:
256,204,44956,5,2,0:0:0:0:
324,60,45384,2,2,P|254:43|185:60,1,143.999996320724,10|2,0:0|0:0,0:0:0:0:
108,76,46027,2,0,P|80:120|72:156,1,71.999998160362,0|10,0:0|0:0,0:0:0:0:
136,188,46456,1,0,0:0:0:0:
199,145,46670,6,2,P|218:208|168:264,2,143.999996320724,2|8|2,0:0|0:0|0:0,0:0:0:0:
144,88,47742,2,0,P|179:70|223:73,1,71.999998160362,0|8,0:0|0:0,0:0:0:0:
300,70,48170,2,0,P|336:71|368:88,1,71.999998160362,0|2,0:0|0:0,0:0:0:0:
388,164,48599,1,0,0:0:0:0:
313,145,48813,2,0,P|294:208|344:264,2,143.999996320724,8|2|8,0:0|0:0|0:0,0:0:0:0:
212,252,50099,6,0,P|156:292|104:232,1,143.999996320724,4|2,0:0|0:0,0:0:0:0:
164,120,50956,2,0,P|172:84|196:56,1,71.999998160362,0|0,0:0|0:0,0:0:0:0:
264,52,51384,1,10,0:0:0:0:
376,144,51813,2,0,P|440:204|440:288,2,143.999996320724,0|10|0,0:0|0:0|0:0,0:0:0:0:
348,216,52884,1,0,0:0:0:0:
376,280,53099,1,10,0:0:0:0:
256,204,53527,5,0,0:0:0:0:
188,332,53956,2,8,B|134:248|181:200|181:200|136:120|223:55,1,287.999992641448,10|10,0:0|0:0,0:0:0:0:
256,204,55242,1,0,0:0:0:0:
307,70,55670,2,10,B|375:120|330:200|330:200|377:248|324:332,1,287.999992641448
256,340,56742,5,0,0:0:0:0:
256,268,56956,1,4,0:0:0:0:
256,196,57170,1,0,0:0:0:0:
220,132,57384,2,0,P|192:92|180:44,1,71.999998160362,8|0,0:0|0:0,0:0:0:0:
256,52,57813,1,0,0:0:0:0:
324,72,58027,2,0,P|310:105|288:133,1,71.999998160362,0|8,0:0|0:0,0:0:0:0:
384,240,58670,5,0,0:0:0:0:
452,262,58884,1,0,0:0:0:0:
452,334,59099,1,8,0:0:0:0:
384,356,59313,1,0,0:0:0:0:
341,298,59527,1,0,0:0:0:0:
312,232,59742,2,0,P|284:208|264:176,1,71.999998160362,0|8,0:0|0:0,0:0:0:0:
256,108,60170,5,0,0:0:0:0:
212,52,60384,2,0,P|188:84|188:132,1,71.999998160362
116,144,60813,2,0,P|116:76|164:-4,1,143.999996320724,8|0,0:0|0:0,0:0:0:0:
212,52,61456,2,0,L|208:144,1,71.999998160362,0|8,0:0|0:0,0:0:0:0:
128,240,62099,5,0,0:0:0:0:
60,262,62313,1,0,0:0:0:0:
60,334,62527,1,8,0:0:0:0:
128,356,62742,1,0,0:0:0:0:
171,298,62956,1,0,0:0:0:0:
200,232,63170,2,0,P|228:208|248:176,1,71.999998160362,0|8,0:0|0:0,0:0:0:0:
356,88,63813,6,0,P|348:180|392:212,1,143.999996320724,4|8,0:0|0:0,0:0:0:0:
408,140,64456,1,0,0:0:0:0:
432,72,64670,2,0,P|404:32|360:8,1,71.999998160362
312,24,65099,1,8,0:0:0:0:
244,52,65313,5,0,0:0:0:0:
188,96,65527,1,2,0:0:0:0:
120,116,65742,2,0,P|144:152|192:168,1,71.999998160362,0|10,0:0|0:0,0:0:0:0:
236,192,66170,2,0,P|214:220|181:234,1,71.999998160362,0|2,0:0|0:0,0:0:0:0:
256,360,66813,1,8,0:0:0:0:
292,296,67027,6,0,P|313:265|351:248,1,71.999998160362
344,176,67456,2,0,P|312:158|292:129,1,71.999998160362,0|8,0:0|0:0,0:0:0:0:
220,128,67884,2,0,P|199:157|168:174,1,71.999998160362
168,247,68313,2,0,P|199:264|219:293,1,71.999998160362,0|8,0:0|0:0,0:0:0:0:
276,336,68742,5,0,0:0:0:0:
344,316,68956,1,2,0:0:0:0:
392,264,69170,1,0,0:0:0:0:
404,192,69384,2,0,P|456:232|452:308,2,143.999996320724,10|2|8,0:0|0:0|0:0,0:0:0:0:
376,124,70456,2,0,P|336:160|328:196,2,71.999998160362,0|2|0,0:0|0:0|0:0,0:0:0:0:
444,96,71099,1,10,0:0:0:0:
308,52,71527,6,0,P|228:56|200:116,1,143.999996320724,0|8,0:0|0:0,0:0:0:0:
272,116,72170,1,0,0:0:0:0:
344,124,72384,2,0,P|305:181|236:178,1,143.999996320724,0|8,0:0|0:0,0:0:0:0:
164,168,73027,1,0,0:0:0:0:
96,196,73242,2,0,L|24:344,2,143.999996320724,0|8|0,0:0|0:0|0:0,0:0:0:0:
104,124,74313,1,0,0:0:0:0:
156,76,74527,1,8,0:0:0:0:
300,60,74956,6,0,P|328:116|272:192,1,143.999996320724,2|8,0:0|0:0,0:0:0:0:
256,120,75599,1,0,0:0:0:0:
212,60,75813,2,0,P|184:116|240:192,1,143.999996320724,2|8,0:0|0:0,0:0:0:0:
226,326,76670,2,8,P|158:343|82:324,1,143.999996320724,8|8,0:0|0:0,0:0:0:0:
120,261,77313,2,8,P|160:269|204:256,2,71.999998160362
155,197,77956,1,2,0:0:0:0:
192,60,78384,6,0,P|276:88|324:40,1,143.999996320724,6|8,0:0|0:0,0:0:0:0:
376,100,79027,2,0,P|359:131|352:166,1,71.999998160362,0|2,0:0|0:0,0:0:0:0:
348,240,79456,1,0,0:0:0:0:
368,308,79670,1,10,0:0:0:0:
244,236,80099,6,0,P|202:202|190:176,1,71.999998160362,2|0,0:0|0:0,0:0:0:0:
258,155,80527,2,0,P|245:102|252:74,1,71.999998160362,8|0,0:0|0:0,0:0:0:0:
316,108,80956,2,0,P|334:56|355:37,1,71.999998160362,2|0,0:0|0:0,0:0:0:0:
416,32,81384,1,8,0:0:0:0:
452,172,81813,2,0,P|432:240|360:252,1,143.999996320724,2|8,0:0|0:0,0:0:0:0:
380,184,82456,1,0,0:0:0:0:
392,112,82670,2,0,P|325:128|307:194,1,143.999996320724,2|8,0:0|0:0,0:0:0:0:
316,268,83313,1,0,0:0:0:0:
244,284,83527,6,0,P|188:264|164:260,1,71.999998160362
120,312,83956,2,0,P|100:252|148:191,2,143.999996320724,8|0|8,0:0|0:0|0:0,0:0:0:0:
268,284,85242,2,0,P|324:264|348:260,1,71.999998160362
392,312,85670,2,0,P|412:252|364:191,2,143.999996320724,8|0|8,0:0|0:0|0:0,0:0:0:0:
256,204,86956,5,2,0:0:0:0:
188,60,87384,2,2,P|258:43|327:60,1,143.999996320724,10|2,0:0|0:0,0:0:0:0:
404,76,88027,2,0,P|432:120|440:156,1,71.999998160362,0|10,0:0|0:0,0:0:0:0:
376,188,88456,1,0,0:0:0:0:
313,145,88670,6,2,P|294:208|344:264,2,143.999996320724,0|10|0,0:0|0:0|0:0,0:0:0:0:
368,88,89742,2,0,P|333:70|289:73,1,71.999998160362,0|8,0:0|0:0,0:0:0:0:
212,70,90170,2,0,P|176:71|144:88,1,71.999998160362,0|0,0:0|0:0,0:0:0:0:
124,164,90599,1,0,0:0:0:0:
199,145,90813,2,0,P|218:208|168:264,2,143.999996320724,10|0|10,0:0|0:0|0:0,0:0:0:0:
300,252,92099,6,0,P|356:292|408:232,1,143.999996320724,4|2,0:0|0:0,0:0:0:0:
348,120,92956,2,0,P|340:84|316:56,1,71.999998160362,0|0,0:0|0:0,0:0:0:0:
248,52,93384,1,10,0:0:0:0:
136,144,93813,2,0,P|72:204|72:288,2,143.999996320724,0|10|0,0:0|0:0|0:0,0:0:0:0:
164,216,94884,1,0,0:0:0:0:
136,280,95099,1,10,0:0:0:0:
256,204,95527,5,0,0:0:0:0:
324,332,95956,2,8,B|378:248|331:200|331:200|376:120|289:55,1,287.999992641448,10|10,0:0|0:0,0:0:0:0:
256,204,97242,1,0,0:0:0:0:
205,70,97670,2,10,B|137:120|182:200|182:200|135:248|188:332,1,287.999992641448
256,340,98742,5,0,0:0:0:0:
256,268,98956,1,4,0:0:0:0:
256,196,99170,1,0,0:0:0:0:
292,132,99384,6,0,P|320:92|332:44,1,71.999998160362,8|0,0:0|0:0,0:0:0:0:
256,52,99813,1,0,0:0:0:0:
188,72,100027,2,0,P|202:105|224:133,1,71.999998160362,0|8,0:0|0:0,0:0:0:0:
128,240,100670,5,0,0:0:0:0:
60,262,100884,1,0,0:0:0:0:
60,334,101099,1,8,0:0:0:0:
128,356,101313,1,0,0:0:0:0:
171,298,101527,1,0,0:0:0:0:
200,232,101742,2,0,P|228:208|248:176,1,71.999998160362,0|8,0:0|0:0,0:0:0:0:
300,52,102384,6,0,P|324:84|324:132,1,71.999998160362
396,144,102813,2,0,P|396:76|348:-4,1,143.999996320724,8|0,0:0|0:0,0:0:0:0:
300,52,103456,2,0,L|296:144,1,71.999998160362,0|8,0:0|0:0,0:0:0:0:
404,240,104099,5,0,0:0:0:0:
479,264,104313,1,0,0:0:0:0:
479,343,104527,1,8,0:0:0:0:
404,368,104742,1,0,0:0:0:0:
357,304,104956,1,0,0:0:0:0:
316,236,105170,2,0,P|288:212|268:180,1,71.999998160362,0|8,0:0|0:0,0:0:0:0:
164,92,105813,6,0,P|172:184|128:216,1,143.999996320724,0|8,0:0|0:0,0:0:0:0:
108,144,106456,1,0,0:0:0:0:
88,72,106670,2,0,P|116:32|216:32,1,143.999996320724,0|8,0:0|0:0,0:0:0:0:
268,60,107313,5,0,0:0:0:0:
332,92,107527,1,0,0:0:0:0:
400,112,107742,2,0,P|376:148|328:164,1,71.999998160362,0|8,0:0|0:0,0:0:0:0:
284,192,108170,2,0,P|306:220|339:234,1,71.999998160362
296,292,108599,1,0,0:0:0:0:
256,352,108813,1,8,0:0:0:0:
220,216,109242,6,0,P|199:185|161:168,1,71.999998160362
168,96,109670,2,0,P|200:78|220:49,1,71.999998160362,8|0,0:0|0:0,0:0:0:0:
292,48,110099,2,0,P|313:77|344:94,1,71.999998160362
344,167,110527,2,0,P|313:184|293:213,1,71.999998160362,8|0,0:0|0:0,0:0:0:0:
168,316,111170,5,0,0:0:0:0:
120,264,111384,1,8,0:0:0:0:
68,212,111599,2,0,P|48:242|46:277,2,71.999998160362
124,164,112242,1,8,0:0:0:0:
192,148,112456,2,0,P|226:140|261:151,2,71.999998160362,2|6|0,0:0|0:0|0:0,0:0:0:0:
124,164,113099,1,10,0:0:0:0:
204,52,113527,6,0,P|284:56|312:116,1,143.999996320724,0|8,0:0|0:0,0:0:0:0:
240,116,114170,1,0,0:0:0:0:
168,128,114384,2,0,P|206:185|275:182,1,143.999996320724,0|8,0:0|0:0,0:0:0:0:
348,168,115027,1,0,0:0:0:0:
416,196,115242,2,0,L|488:344,2,143.999996320724,0|8|0,0:0|0:0|0:0,0:0:0:0:
408,124,116313,1,0,0:0:0:0:
356,76,116527,1,8,0:0:0:0:
208,60,116956,6,0,P|180:116|232:192,1,143.999996320724,2|8,0:0|0:0,0:0:0:0:
256,120,117599,1,0,0:0:0:0:
304,60,117813,2,0,P|332:116|276:192,1,143.999996320724,2|8,0:0|0:0,0:0:0:0:
285,326,118670,2,8,P|353:343|429:324,1,143.999996320724
391,261,119313,2,8,P|351:269|307:256,2,71.999998160362
356,197,119956,1,2,0:0:0:0:
220,148,120384,5,4,0:0:0:0:
163,103,120599,1,0,0:0:0:0:
94,128,120813,2,0,P|95:68|181:36,2,143.999996320724,8|0|8,0:0|0:0|0:0,0:0:0:0:
157,259,122099,2,0,P|205:283|233:307,1,71.999998160362
293,295,122527,2,0,P|322:274|355:259,1,71.999998160362,8|0,0:0|0:0,0:0:0:0:
360,180,122956,1,0,0:0:0:0:
428,224,123170,1,0,0:0:0:0:
424,304,123384,1,8,0:0:0:0:
356,344,123599,5,0,0:0:0:0:
300,288,123813,2,0,L|292:184,1,71.999998160362
216,216,124242,2,0,L|210:287,1,71.999998160362,8|0,0:0|0:0,0:0:0:0:
156,344,124670,1,0,0:0:0:0:
88,304,124884,1,0,0:0:0:0:
84,224,125099,1,8,0:0:0:0:
152,180,125313,1,0,0:0:0:0:
256,192,125527,12,0,126813,0:0:0:0:
